  0
SECTION
  2
HEADER
  9
$ACADVER
  1
AC1015
  9
$ACADMAINTVER
 70
     6
  9
$DWGCODEPAGE
  3
ANSI_1252
  9
$INSBASE
 10
0.0
 20
0.0
 30
0.0
  9
$EXTMIN
 10
0.0
 20
0.0
 30
0.0
  9
$EXTMAX
 10
11.0
 20
8.5
 30
0.0
  9
$LIMMIN
 10
0.0
 20
0.0
  9
$LIMMAX
 10
11.0
 20
8.5
  9
$ORTHOMODE
 70
     0
  9
$REGENMODE
 70
     1
  9
$FILLMODE
 70
     1
  9
$QTEXTMODE
 70
     0
  9
$MIRRTEXT
 70
     1
  9
$LTSCALE
 40
1.0
  9
$ATTMODE
 70
     1
  9
$TEXTSIZE
 40
0.125
  9
$TRACEWID
 40
0.05
  9
$TEXTSTYLE
  7
Standard
  9
$CLAYER
  8
0
  9
$CELTYPE
  6
ByLayer
  9
$CECOLOR
 62
   256
  9
$CELTSCALE
 40
1.0
  9
$DISPSILH
 70
     0
  9
$DIMSCALE
 40
1.0
  9
$DIMASZ
 40
0.094
  9
$DIMEXO
 40
0.05
  9
$DIMDLI
 40
0.38
  9
$DIMRND
 40
0.0
  9
$DIMDLE
 40
0.0
  9
$DIMEXE
 40
0.125
  9
$DIMTP
 40
0.0
  9
$DIMTM
 40
0.0
  9
$DIMTXT
 40
0.125
  9
$DIMCEN
 40
0.09
  9
$DIMTSZ
 40
0.0
  9
$DIMTOL
 70
     0
  9
$DIMLIM
 70
     0
  9
$DIMTIH
 70
     1
  9
$DIMTOH
 70
     1
  9
$DIMSE1
 70
     0
  9
$DIMSE2
 70
     0
  9
$DIMTAD
 70
     0
  9
$DIMZIN
 70
     0
  9
$DIMBLK
  1

  9
$DIMASO
 70
     1
  9
$DIMSHO
 70
     1
  9
$DIMPOST
  1

  9
$DIMAPOST
  1

  9
$DIMALT
 70
     0
  9
$DIMALTD
 70
     2
  9
$DIMALTF
 40
25.4
  9
$DIMLFAC
 40
1.0
  9
$DIMTOFL
 70
     0
  9
$DIMTVP
 40
0.0
  9
$DIMTIX
 70
     0
  9
$DIMSOXD
 70
     0
  9
$DIMSAH
 70
     0
  9
$DIMBLK1
  1

  9
$DIMBLK2
  1

  9
$DIMSTYLE
  2
Standard
  9
$DIMCLRD
 70
     0
  9
$DIMCLRE
 70
     0
  9
$DIMCLRT
 70
     0
  9
$DIMTFAC
 40
1.0
  9
$DIMGAP
 40
0.06
  9
$DIMJUST
 70
     0
  9
$DIMSD1
 70
     0
  9
$DIMSD2
 70
     0
  9
$DIMTOLJ
 70
     1
  9
$DIMTZIN
 70
     0
  9
$DIMALTZ
 70
     0
  9
$DIMALTTZ
 70
     0
  9
$DIMUPT
 70
     0
  9
$DIMDEC
 70
     2
  9
$DIMTDEC
 70
     2
  9
$DIMALTU
 70
     2
  9
$DIMALTTD
 70
     2
  9
$DIMTXSTY
  7
Standard
  9
$DIMAUNIT
 70
     0
  9
$DIMADEC
 70
     0
  9
$DIMALTRND
 40
0.0
  9
$DIMAZIN
 70
     0
  9
$DIMDSEP
 70
    46
  9
$DIMATFIT
 70
     3
  9
$DIMFRAC
 70
     0
  9
$DIMLDRBLK
  1

  9
$DIMLUNIT
 70
     2
  9
$DIMLWD
 70
    -2
  9
$DIMLWE
 70
    -2
  9
$DIMTMOVE
 70
     0
  9
$LUNITS
 70
     2
  9
$LUPREC
 70
     2
  9
$SKETCHINC
 40
0.1
  9
$FILLETRAD
 40
0.5
  9
$AUNITS
 70
     0
  9
$AUPREC
 70
     0
  9
$MENU
  1
.
  9
$ELEVATION
 40
0.0
  9
$PELEVATION
 40
0.0
  9
$THICKNESS
 40
0.0
  9
$LIMCHECK
 70
     0
  9
$CHAMFERA
 40
0.0
  9
$CHAMFERB
 40
0.0
  9
$CHAMFERC
 40
0.0
  9
$CHAMFERD
 40
0.0
  9
$SKPOLY
 70
     0
  9
$TDCREATE
 40
2458800.659385046
  9
$TDUCREATE
 40
2458800.867718379
  9
$TDUPDATE
 40
2458800.65938875
  9
$TDUUPDATE
 40
2458800.867722083
  9
$TDINDWG
 40
0.0000000116
  9
$TDUSRTIMER
 40
0.0000000116
  9
$USRTIMER
 70
     1
  9
$ANGBASE
 50
0.0
  9
$ANGDIR
 70
     0
  9
$PDMODE
 70
     0
  9
$PDSIZE
 40
-1.0
  9
$PLINEWID
 40
0.0
  9
$SPLFRAME
 70
     0
  9
$SPLINETYPE
 70
     6
  9
$SPLINESEGS
 70
     8
  9
$HANDSEED
  5
3CA
  9
$SURFTAB1
 70
     6
  9
$SURFTAB2
 70
     6
  9
$SURFTYPE
 70
     6
  9
$SURFU
 70
     6
  9
$SURFV
 70
     6
  9
$UCSBASE
  2

  9
$UCSNAME
  2

  9
$UCSORG
 10
0.0
 20
0.0
 30
0.0
  9
$UCSXDIR
 10
1.0
 20
0.0
 30
0.0
  9
$UCSYDIR
 10
0.0
 20
1.0
 30
0.0
  9
$UCSORTHOREF
  2

  9
$UCSORTHOVIEW
 70
     0
  9
$UCSORGTOP
 10
0.0
 20
0.0
 30
0.0
  9
$UCSORGBOTTOM
 10
0.0
 20
0.0
 30
0.0
  9
$UCSORGLEFT
 10
0.0
 20
0.0
 30
0.0
  9
$UCSORGRIGHT
 10
0.0
 20
0.0
 30
0.0
  9
$UCSORGFRONT
 10
0.0
 20
0.0
 30
0.0
  9
$UCSORGBACK
 10
0.0
 20
0.0
 30
0.0
  9
$PUCSBASE
  2

  9
$PUCSNAME
  2

  9
$PUCSORG
 10
0.0
 20
0.0
 30
0.0
  9
$PUCSXDIR
 10
1.0
 20
0.0
 30
0.0
  9
$PUCSYDIR
 10
0.0
 20
1.0
 30
0.0
  9
$PUCSORTHOREF
  2

  9
$PUCSORTHOVIEW
 70
     0
  9
$PUCSORGTOP
 10
0.0
 20
0.0
 30
0.0
  9
$PUCSORGBOTTOM
 10
0.0
 20
0.0
 30
0.0
  9
$PUCSORGLEFT
 10
0.0
 20
0.0
 30
0.0
  9
$PUCSORGRIGHT
 10
0.0
 20
0.0
 30
0.0
  9
$PUCSORGFRONT
 10
0.0
 20
0.0
 30
0.0
  9
$PUCSORGBACK
 10
0.0
 20
0.0
 30
0.0
  9
$USERI1
 70
     0
  9
$USERI2
 70
     0
  9
$USERI3
 70
     0
  9
$USERI4
 70
     0
  9
$USERI5
 70
     0
  9
$USERR1
 40
0.0
  9
$USERR2
 40
0.0
  9
$USERR3
 40
0.0
  9
$USERR4
 40
0.0
  9
$USERR5
 40
0.0
  9
$WORLDVIEW
 70
     1
  9
$SHADEDGE
 70
     3
  9
$SHADEDIF
 70
    70
  9
$TILEMODE
 70
     1
  9
$MAXACTVP
 70
    64
  9
$PINSBASE
 10
0.0
 20
0.0
 30
0.0
  9
$PLIMCHECK
 70
     0
  9
$PEXTMIN
 10
1.0000000000E+20
 20
1.0000000000E+20
 30
1.0000000000E+20
  9
$PEXTMAX
 10
-1.0000000000E+20
 20
-1.0000000000E+20
 30
-1.0000000000E+20
  9
$PLIMMIN
 10
0.0
 20
0.0
  9
$PLIMMAX
 10
12.0
 20
9.0
  9
$UNITMODE
 70
     0
  9
$VISRETAIN
 70
     1
  9
$PLINEGEN
 70
     0
  9
$PSLTSCALE
 70
     1
  9
$TREEDEPTH
 70
  3020
  9
$CMLSTYLE
  2
Standard
  9
$CMLJUST
 70
     0
  9
$CMLSCALE
 40
1.0
  9
$PROXYGRAPHICS
 70
     1
  9
$MEASUREMENT
 70
     0
  9
$CELWEIGHT
370
    -1
  9
$ENDCAPS
280
     0
  9
$JOINSTYLE
280
     0
  9
$LWDISPLAY
290
     1
  9
$INSUNITS
 70
     1
  9
$HYPERLINKBASE
  1

  9
$STYLESHEET
  1

  9
$XEDIT
290
     1
  9
$CEPSNTYPE
380
     0
  9
$PSTYLEMODE
290
     1
  9
$FINGERPRINTGUID
  2
{C38DAD6C-EDAC-4E48-983F-C4C63853BDF5}
  9
$VERSIONGUID
  2
{FAEB1C32-E019-11D5-929B-00C0DF256EC4}
  9
$EXTNAMES
290
     1
  9
$PSVPSCALE
 40
0.0
  9
$OLESTARTUP
290
     0
  0
ENDSEC
  0
SECTION
  2
CLASSES
  0
CLASS
  1
ACDBDICTIONARYWDFLT
  2
AcDbDictionaryWithDefault
  3
ObjectDBX Classes
 90
        0
280
     0
281
     0
  0
CLASS
  1
VISUALSTYLE
  2
AcDbVisualStyle
  3
ObjectDBX Classes
 90
     4095
280
     0
281
     0
  0
CLASS
  1
MATERIAL
  2
AcDbMaterial
  3
ObjectDBX Classes
 90
     1153
280
     0
281
     0
  0
CLASS
  1
SCALE
  2
AcDbScale
  3
ObjectDBX Classes
 90
     1153
280
     0
281
     0
  0
CLASS
  1
TABLESTYLE
  2
AcDbTableStyle
  3
ObjectDBX Classes
 90
     4095
280
     0
281
     0
  0
CLASS
  1
MLEADERSTYLE
  2
AcDbMLeaderStyle
  3
ACDB_MLEADERSTYLE_CLASS
 90
     4095
280
     0
281
     0
  0
CLASS
  1
SUN
  2
AcDbSun
  3
SCENEOE
 90
     1153
280
     0
281
     0
  0
CLASS
  1
ACDBPLACEHOLDER
  2
AcDbPlaceHolder
  3
ObjectDBX Classes
 90
        0
280
     0
281
     0
  0
CLASS
  1
LAYOUT
  2
AcDbLayout
  3
ObjectDBX Classes
 90
        0
280
     0
281
     0
  0
ENDSEC
  0
SECTION
  2
TABLES
  0
TABLE
  2
VPORT
  5
8
330
0
100
AcDbSymbolTable
 70
     1
  0
VPORT
  5
29
330
8
100
AcDbSymbolTableRecord
100
AcDbViewportTableRecord
  2
*Active
 70
     0
 10
0.0
 20
0.0
 11
1.0
 21
1.0
 12
5.5
 22
4.25
 13
0.0
 23
0.0
 14
0.5
 24
0.5
 15
0.5
 25
0.5
 16
0.0
 26
0.0
 36
1.0
 17
0.0
 27
0.0
 37
0.0
 40
8.5
 41
1.2941176471
 42
50.0
 43
0.0
 44
0.0
 50
0.0
 51
0.0
 71
     0
 72
  2000
 73
     1
 74
     3
 75
     0
 76
     0
 77
     0
 78
     0
281
     0
 65
     1
110
0.0
120
0.0
130
0.0
111
1.0
121
0.0
131
0.0
112
0.0
122
1.0
132
0.0
 79
     0
146
0.0
  0
ENDTAB
  0
TABLE
  2
LTYPE
  5
5
330
0
100
AcDbSymbolTable
 70
     6
  0
LTYPE
  5
14
330
5
100
AcDbSymbolTableRecord
100
AcDbLinetypeTableRecord
  2
ByBlock
 70
     0
  3

 72
    65
 73
     0
 40
0.0
  0
LTYPE
  5
15
330
5
100
AcDbSymbolTableRecord
100
AcDbLinetypeTableRecord
  2
ByLayer
 70
     0
  3

 72
    65
 73
     0
 40
0.0
  0
LTYPE
  5
16
330
5
100
AcDbSymbolTableRecord
100
AcDbLinetypeTableRecord
  2
Continuous
 70
     0
  3
Solid line
 72
    65
 73
     0
 40
0.0
  0
LTYPE
  5
6E
330
5
100
AcDbSymbolTableRecord
100
AcDbLinetypeTableRecord
  2
HIDDEN
 70
     0
  3
Hidden __ __ __ __ __ __ __ __ __ __ __ __ __ __
 72
    65
 73
     2
 40
0.075
 49
0.05
 74
     0
 49
-0.025
 74
     0
  0
LTYPE
  5
6F
330
5
100
AcDbSymbolTableRecord
100
AcDbLinetypeTableRecord
  2
PHANTOM
 70
     0
  3
Phantom ______  __  __  ______  __  __  ______
 72
    65
 73
     6
 40
0.5
 49
0.25
 74
     0
 49
-0.05
 74
     0
 49
0.05
 74
     0
 49
-0.05
 74
     0
 49
0.05
 74
     0
 49
-0.05
 74
     0
  0
LTYPE
  5
70
330
5
100
AcDbSymbolTableRecord
100
AcDbLinetypeTableRecord
  2
CENTER
 70
     0
  3
Center ____ _ ____ _ ____ _ ____ _ ____ _ ____
 72
    65
 73
     4
 40
0.4
 49
0.25
 74
     0
 49
-0.05
 74
     0
 49
0.05
 74
     0
 49
-0.05
 74
     0
  0
LTYPE
  5
71
330
5
100
AcDbSymbolTableRecord
100
AcDbLinetypeTableRecord
  2
CENTERX2
 70
     0
  3
Center (2x) ________  __  ________  __  _____
 72
    65
 73
     4
 40
0.8
 49
0.5
 74
     0
 49
-0.1
 74
     0
 49
0.1
 74
     0
 49
-0.1
 74
     0
  0
LTYPE
  5
72
330
5
100
AcDbSymbolTableRecord
100
AcDbLinetypeTableRecord
  2
DOT2
 70
     0
  3
Dot (.5x) ........................................
 72
    65
 73
     2
 40
0.025
 49
0.0
 74
     0
 49
-0.025
 74
     0
  0
ENDTAB
  0
TABLE
  2
LAYER
  5
2
330
0
100
AcDbSymbolTable
 70
     4
  0
LAYER
  5
10
330
2
100
AcDbSymbolTableRecord
100
AcDbLayerTableRecord
  2
0
 70
     0
 62
     7
  6
Continuous
370
    -3
390
F
  0
LAYER
  5
73
330
2
100
AcDbSymbolTableRecord
100
AcDbLayerTableRecord
  2
SLD-0
 70
     0
 62
     7
  6
Continuous
370
    -3
390
F
  0
LAYER
  5
74
330
2
100
AcDbSymbolTableRecord
100
AcDbLayerTableRecord
  2
FORMAT
 70
     0
 62
     7
  6
Continuous
370
    -3
390
F
  0
LAYER
  5
75
330
2
100
AcDbSymbolTableRecord
100
AcDbLayerTableRecord
  2
DATA
 70
     0
 62
     7
  6
Continuous
370
    -3
390
F
  0
ENDTAB
  0
TABLE
  2
STYLE
  5
3
330
0
100
AcDbSymbolTable
 70
    10
  0
STYLE
  5
11
330
3
100
AcDbSymbolTableRecord
100
AcDbTextStyleTableRecord
  2
Standard
 70
     0
 40
0.0
 41
1.0
 50
0.0
 71
     0
 42
0.125
  3
txt
  4

  0
STYLE
  5
7B
330
3
100
AcDbSymbolTableRecord
100
AcDbTextStyleTableRecord
  2
SLDTEXTSTYLE0
 70
     0
 40
0.0
 41
0.605
 50
0.0
 71
     0
 42
0.125
  3
TXT
  4

  0
STYLE
  5
107
330
3
100
AcDbSymbolTableRecord
100
AcDbTextStyleTableRecord
  2
SLDTEXTSTYLE1
 70
     0
 40
0.0
 41
0.6829836364
 50
0.0
 71
     0
 42
0.125
  3
TXT
  4

  0
STYLE
  5
10E
330
3
100
AcDbSymbolTableRecord
100
AcDbTextStyleTableRecord
  2
SLDTEXTSTYLE2
 70
     0
 40
0.0
 41
0.57
 50
0.0
 71
     0
 42
0.125
  3
TXT
  4

  0
STYLE
  5
110
330
3
100
AcDbSymbolTableRecord
100
AcDbTextStyleTableRecord
  2
SLDTEXTSTYLE3
 70
     0
 40
0.0
 41
0.5718421053
 50
0.0
 71
     0
 42
0.125
  3
TXT
  4

  0
STYLE
  5
11A
330
3
100
AcDbSymbolTableRecord
100
AcDbTextStyleTableRecord
  2
SLDTEXTSTYLE4
 70
     0
 40
0.0
 41
0.5209722222
 50
0.0
 71
     0
 42
0.125
  3
TXT
  4

  0
STYLE
  5
121
330
3
100
AcDbSymbolTableRecord
100
AcDbTextStyleTableRecord
  2
SLDTEXTSTYLE5
 70
     0
 40
0.0
 41
0.4688749414
 50
0.0
 71
     0
 42
0.125
  3
TXT
  4

  0
STYLE
  5
125
330
3
100
AcDbSymbolTableRecord
100
AcDbTextStyleTableRecord
  2
SLDTEXTSTYLE6
 70
     0
 40
0.0
 41
0.4244391905
 50
0.0
 71
     0
 42
0.125
  3
TXT
  4

  0
STYLE
  5
131
330
3
100
AcDbSymbolTableRecord
100
AcDbTextStyleTableRecord
  2
SLDTEXTSTYLE7
 70
     0
 40
0.0
 41
0.5964854211
 50
0.0
 71
     0
 42
0.125
  3
TXT
  4

  0
STYLE
  5
136
330
3
100
AcDbSymbolTableRecord
100
AcDbTextStyleTableRecord
  2
SLDTEXTSTYLE8
 70
     0
 40
0.0
 41
0.5675
 50
0.0
 71
     0
 42
0.125
  3
TXT
  4

  0
ENDTAB
  0
TABLE
  2
VIEW
  5
6
330
0
100
AcDbSymbolTable
 70
     0
  0
ENDTAB
  0
TABLE
  2
UCS
  5
7
330
0
100
AcDbSymbolTable
 70
     0
  0
ENDTAB
  0
TABLE
  2
APPID
  5
9
330
0
100
AcDbSymbolTable
 70
     1
  0
APPID
  5
12
330
9
100
AcDbSymbolTableRecord
100
AcDbRegAppTableRecord
  2
ACAD
 70
     0
  0
ENDTAB
  0
TABLE
  2
DIMSTYLE
  5
A
330
0
100
AcDbSymbolTable
 70
     5
100
AcDbDimStyleTable
  0
DIMSTYLE
105
27
330
A
100
AcDbSymbolTableRecord
100
AcDbDimStyleTableRecord
  2
Standard
 70
     0
178
     0
340
11
  0
DIMSTYLE
105
1B4
102
{ACAD_REACTORS
330
1B3
330
1DC
330
362
330
376
102
}
330
A
100
AcDbSymbolTableRecord
100
AcDbDimStyleTableRecord
  2
SLDDIMSTYLE0
 70
     0
 41
0.094
 44
0.0
 45
0.000000001
 78
    12
 79
     3
140
0.091003418
147
0.0227508545
148
0.000000001
170
     1
171
     1
172
     1
173
     1
178
     0
271
     2
272
     2
274
     1
276
     2
284
    12
289
     0
340
7B
  0
DIMSTYLE
105
1C8
102
{ACAD_REACTORS
330
1C7
330
2EA
330
2FE
330
312
330
326
330
33A
102
}
330
A
100
AcDbSymbolTableRecord
100
AcDbDimStyleTableRecord
  2
SLDDIMSTYLE1
 70
     0
 41
0.094
 44
0.0
 45
0.000000001
 78
    12
 79
     3
140
0.091003418
147
0.0227508545
148
0.000000001
170
     1
171
     1
173
     1
178
     0
271
     2
272
     2
274
     1
276
     2
284
    12
340
7B
  0
DIMSTYLE
105
260
102
{ACAD_REACTORS
330
25F
330
34E
102
}
330
A
100
AcDbSymbolTableRecord
100
AcDbDimStyleTableRecord
  2
SLDDIMSTYLE2
 70
     0
 41
0.094
 44
0.0
 45
0.000000001
 78
     4
 79
     1
140
0.091003418
147
0.0227508545
148
0.000000001
170
     1
171
     1
173
     1
178
     0
271
     2
272
     2
274
     1
276
     2
284
    12
340
7B
  0
DIMSTYLE
105
38B
102
{ACAD_REACTORS
330
38A
102
}
330
A
100
AcDbSymbolTableRecord
100
AcDbDimStyleTableRecord
  2
SLDDIMSTYLE3
 70
     0
 41
0.094
 44
0.0
 45
0.000000001
 78
     4
 79
     1
140
0.091003418
141
0.0
147
0.0227508545
148
0.000000001
170
     1
171
     1
173
     1
178
     0
271
     2
272
     2
274
     1
276
     2
284
    12
340
7B
  0
ENDTAB
  0
TABLE
  2
BLOCK_RECORD
  5
1
330
0
100
AcDbSymbolTable
 70
    27
  0
BLOCK_RECORD
  5
1F
330
1
100
AcDbSymbolTableRecord
100
AcDbBlockTableRecord
  2
*Model_Space
340
22
  0
BLOCK_RECORD
  5
1B
330
1
100
AcDbSymbolTableRecord
100
AcDbBlockTableRecord
  2
*Paper_Space
340
1E
  0
BLOCK_RECORD
  5
23
330
1
100
AcDbSymbolTableRecord
100
AcDbBlockTableRecord
  2
*Paper_Space0
340
26
  0
BLOCK_RECORD
  5
76
330
1
100
AcDbSymbolTableRecord
100
AcDbBlockTableRecord
  2
mm DIM NOTE
340
0
102
{BLKREFS
331
105
102
}
  0
BLOCK_RECORD
  5
7D
330
1
100
AcDbSymbolTableRecord
100
AcDbBlockTableRecord
  2
Mersen-Logo
340
0
102
{BLKREFS
331
106
102
}
  0
BLOCK_RECORD
  5
10A
330
1
100
AcDbSymbolTableRecord
100
AcDbBlockTableRecord
  2
SW_NOTE_0
340
0
102
{BLKREFS
331
112
102
}
  0
BLOCK_RECORD
  5
117
330
1
100
AcDbSymbolTableRecord
100
AcDbBlockTableRecord
  2
SW_NOTE_1
340
0
102
{BLKREFS
331
11D
102
}
  0
BLOCK_RECORD
  5
11E
330
1
100
AcDbSymbolTableRecord
100
AcDbBlockTableRecord
  2
SW_NOTE_2
340
0
102
{BLKREFS
331
124
102
}
  0
BLOCK_RECORD
  5
128
330
1
100
AcDbSymbolTableRecord
100
AcDbBlockTableRecord
  2
SW_NOTE_3
340
0
102
{BLKREFS
331
12D
102
}
  0
BLOCK_RECORD
  5
12E
330
1
100
AcDbSymbolTableRecord
100
AcDbBlockTableRecord
  2
SW_NOTE_4
340
0
102
{BLKREFS
331
135
102
}
  0
BLOCK_RECORD
  5
139
330
1
100
AcDbSymbolTableRecord
100
AcDbBlockTableRecord
  2
SW_TABLEANNOTATION_0
340
0
102
{BLKREFS
331
15B
102
}
  0
BLOCK_RECORD
  5
1B5
330
1
100
AcDbSymbolTableRecord
100
AcDbBlockTableRecord
  2
_D
340
0
  0
BLOCK_RECORD
  5
1C9
330
1
100
AcDbSymbolTableRecord
100
AcDbBlockTableRecord
  2
_D_1
340
0
  0
BLOCK_RECORD
  5
1DD
330
1
100
AcDbSymbolTableRecord
100
AcDbBlockTableRecord
  2
_D_2
340
0
  0
BLOCK_RECORD
  5
261
330
1
100
AcDbSymbolTableRecord
100
AcDbBlockTableRecord
  2
_D_3
340
0
  0
BLOCK_RECORD
  5
273
330
1
100
AcDbSymbolTableRecord
100
AcDbBlockTableRecord
  2
SW_CENTERMARKSYMBOL_0
340
0
102
{BLKREFS
331
27E
102
}
  0
BLOCK_RECORD
  5
2EB
330
1
100
AcDbSymbolTableRecord
100
AcDbBlockTableRecord
  2
_D_4
340
0
  0
BLOCK_RECORD
  5
2FF
330
1
100
AcDbSymbolTableRecord
100
AcDbBlockTableRecord
  2
_D_5
340
0
  0
BLOCK_RECORD
  5
313
330
1
100
AcDbSymbolTableRecord
100
AcDbBlockTableRecord
  2
_D_6
340
0
  0
BLOCK_RECORD
  5
327
330
1
100
AcDbSymbolTableRecord
100
AcDbBlockTableRecord
  2
_D_7
340
0
  0
BLOCK_RECORD
  5
33B
330
1
100
AcDbSymbolTableRecord
100
AcDbBlockTableRecord
  2
_D_8
340
0
  0
BLOCK_RECORD
  5
34F
330
1
100
AcDbSymbolTableRecord
100
AcDbBlockTableRecord
  2
_D_9
340
0
  0
BLOCK_RECORD
  5
363
330
1
100
AcDbSymbolTableRecord
100
AcDbBlockTableRecord
  2
_D_10
340
0
  0
BLOCK_RECORD
  5
377
330
1
100
AcDbSymbolTableRecord
100
AcDbBlockTableRecord
  2
_D_11
340
0
  0
BLOCK_RECORD
  5
38C
330
1
100
AcDbSymbolTableRecord
100
AcDbBlockTableRecord
  2
_D_12
340
0
  0
BLOCK_RECORD
  5
39A
330
1
100
AcDbSymbolTableRecord
100
AcDbBlockTableRecord
  2
SW_CENTERMARKSYMBOL_1
340
0
102
{BLKREFS
331
3A5
102
}
  0
BLOCK_RECORD
  5
3A6
330
1
100
AcDbSymbolTableRecord
100
AcDbBlockTableRecord
  2
SW_CENTERMARKSYMBOL_2
340
0
102
{BLKREFS
331
3B1
102
}
  0
BLOCK_RECORD
  5
3B2
330
1
100
AcDbSymbolTableRecord
100
AcDbBlockTableRecord
  2
SW_CENTERMARKSYMBOL_3
340
0
102
{BLKREFS
331
3BD
102
}
  0
BLOCK_RECORD
  5
3BE
330
1
100
AcDbSymbolTableRecord
100
AcDbBlockTableRecord
  2
SW_CENTERMARKSYMBOL_4
340
0
102
{BLKREFS
331
3C9
102
}
  0
ENDTAB
  0
ENDSEC
  0
SECTION
  2
BLOCKS
  0
BLOCK
  5
20
330
1F
100
AcDbEntity
  8
0
100
AcDbBlockBegin
  2
*Model_Space
 70
     0
 10
0.0
 20
0.0
 30
0.0
  3
*Model_Space
  1

  0
ENDBLK
  5
21
330
1F
100
AcDbEntity
  8
0
100
AcDbBlockEnd
  0
BLOCK
  5
1C
330
1B
100
AcDbEntity
 67
     1
  8
0
100
AcDbBlockBegin
  2
*Paper_Space
 70
     0
 10
0.0
 20
0.0
 30
0.0
  3
*Paper_Space
  1

  0
ENDBLK
  5
1D
330
1B
100
AcDbEntity
 67
     1
  8
0
100
AcDbBlockEnd
  0
BLOCK
  5
24
330
23
100
AcDbEntity
  8
0
100
AcDbBlockBegin
  2
*Paper_Space0
 70
     0
 10
0.0
 20
0.0
 30
0.0
  3
*Paper_Space0
  1

  0
ENDBLK
  5
25
330
23
100
AcDbEntity
  8
0
100
AcDbBlockEnd
  0
BLOCK
  5
77
330
76
100
AcDbEntity
  8
0
100
AcDbBlockBegin
  2
mm DIM NOTE
 70
     0
 10
0.0
 20
0.0
 30
0.0
  3
mm DIM NOTE
  1

  0
LINE
  5
79
330
76
100
AcDbEntity
  8
SLD-0
 62
     7
370
    25
100
AcDbLine
 10
0.0
 20
0.0
 30
0.0
 11
0.0
 21
0.3
 31
0.0
  0
LINE
  5
7A
330
76
100
AcDbEntity
  8
SLD-0
 62
     7
370
    25
100
AcDbLine
 10
0.0
 20
0.3
 30
0.0
 11
2.349998
 21
0.3
 31
0.0
  0
MTEXT
  5
7C
330
76
100
AcDbEntity
  8
SLD-0
 62
     7
100
AcDbMText
 10
0.0157191834
 20
0.1945490608
 30
0.0
 40
0.09375
 41
0.0
 71
     1
 72
     1
  1
DIMENSIONS IN [   ] ARE MILLIMETERS
  7
SLDTEXTSTYLE0
 73
     1
 44
1.0
  0
ENDBLK
  5
78
330
76
100
AcDbEntity
  8
0
100
AcDbBlockEnd
  0
BLOCK
  5
7E
330
7D
100
AcDbEntity
  8
0
100
AcDbBlockBegin
  2
Mersen-Logo
 70
     0
 10
0.0
 20
0.0
 30
0.0
  3
Mersen-Logo
  1

  0
LINE
  5
80
330
7D
100
AcDbEntity
  8
0
  6
Continuous
 62
     7
370
    18
100
AcDbLine
 10
-0.5664201869
 20
-0.0462748515
 30
0.0
 11
-0.5664201869
 21
-0.0147060915
 31
0.0
  0
LINE
  5
81
330
7D
100
AcDbEntity
  8
0
  6
Continuous
 62
     7
370
    18
100
AcDbLine
 10
-0.5904070191
 20
0.0092807407
 30
0.0
 11
-0.7299470417
 21
0.0092807407
 31
0.0
  0
LINE
  5
82
330
7D
100
AcDbEntity
  8
0
  6
Continuous
 62
     7
370
    18
100
AcDbLine
 10
-0.7299470417
 20
0.0092807407
 30
0.0
 11
-0.7299470417
 21
0.0090908534
 31
0.0
  0
LINE
  5
83
330
7D
100
AcDbEntity
  8
0
  6
Continuous
 62
     7
370
    18
100
AcDbLine
 10
-0.7299470417
 20
0.0090908534
 30
0.0
 11
-0.7299470417
 21
-0.0214199631
 31
0.0
  0
LINE
  5
84
330
7D
100
AcDbEntity
  8
0
  6
Continuous
 62
     7
370
    18
100
AcDbLine
 10
-0.7299470417
 20
-0.0214199631
 30
0.0
 11
-0.6122779645
 21
-0.0214199631
 31
0.0
  0
LINE
  5
85
330
7D
100
AcDbEntity
  8
0
  6
Continuous
 62
     7
370
    18
100
AcDbLine
 10
-0.6122983096
 20
-0.0395609799
 30
0.0
 11
-0.7299470417
 21
-0.0395609799
 31
0.0
  0
LINE
  5
86
330
7D
100
AcDbEntity
  8
0
  6
Continuous
 62
     7
370
    18
100
AcDbLine
 10
-0.7299470417
 20
-0.0395609799
 30
0.0
 11
-0.7299470417
 21
-0.0884298272
 31
0.0
  0
LINE
  5
87
330
7D
100
AcDbEntity
  8
0
  6
Continuous
 62
     7
370
    18
100
AcDbLine
 10
-0.7299470417
 20
-0.0884298272
 30
0.0
 11
-0.873434007
 21
-0.0884298272
 31
0.0
  0
LINE
  5
88
330
7D
100
AcDbEntity
  8
0
  6
Continuous
 62
     7
370
    18
100
AcDbLine
 10
-0.8825146879
 20
-0.0793016745
 30
0.0
 11
-0.8825146879
 21
-0.070254902
 31
0.0
  0
LINE
  5
89
330
7D
100
AcDbEntity
  8
0
  6
Continuous
 62
     7
370
    18
100
AcDbLine
 10
-0.8825146879
 20
-0.070254902
 30
0.0
 11
-0.7695249758
 21
-0.070254902
 31
0.0
  0
LINE
  5
8A
330
7D
100
AcDbEntity
  8
0
  6
Continuous
 62
     7
370
    18
100
AcDbLine
 10
-0.7455381436
 20
-0.0462748515
 30
0.0
 11
-0.7455381436
 21
-0.0255228847
 31
0.0
  0
LINE
  5
8B
330
7D
100
AcDbEntity
  8
0
  6
Continuous
 62
     7
370
    18
100
AcDbLine
 10
-0.7824440924
 20
0.0092671773
 30
0.0
 11
-0.7824508741
 21
0.0092671773
 31
0.0
  0
LINE
  5
8C
330
7D
100
AcDbEntity
  8
0
  6
Continuous
 62
     7
370
    18
100
AcDbLine
 10
-0.7824508741
 20
0.0092671773
 30
0.0
 11
-0.8823926175
 21
0.0092671773
 31
0.0
  0
LINE
  5
8D
330
7D
100
AcDbEntity
  8
0
  6
Continuous
 62
     7
370
    18
100
AcDbLine
 10
-0.8823926175
 20
0.0092671773
 30
0.0
 11
-0.8823993992
 21
0.0092671773
 31
0.0
  0
LINE
  5
8E
330
7D
100
AcDbEntity
  8
0
  6
Continuous
 62
     7
370
    18
100
AcDbLine
 10
-0.9193121297
 20
-0.0255228847
 30
0.0
 11
-0.9193189114
 21
-0.0255567931
 31
0.0
  0
LINE
  5
8F
330
7D
100
AcDbEntity
  8
0
  6
Continuous
 62
     7
370
    18
100
AcDbLine
 10
-0.9193189114
 20
-0.0255567931
 30
0.0
 11
-0.9193189114
 21
-0.0842523071
 31
0.0
  0
LINE
  5
90
330
7D
100
AcDbEntity
  8
0
  6
Continuous
 62
     7
370
    18
100
AcDbLine
 10
-0.9193189114
 20
-0.0842523071
 30
0.0
 11
-0.9193121297
 21
-0.0842794338
 31
0.0
  0
LINE
  5
91
330
7D
100
AcDbEntity
  8
0
  6
Continuous
 62
     7
370
    18
100
AcDbLine
 10
-0.8823993992
 20
-0.1190830592
 30
0.0
 11
-0.7299470417
 21
-0.1190830592
 31
0.0
  0
LINE
  5
92
330
7D
100
AcDbEntity
  8
0
  6
Continuous
 62
     7
370
    18
100
AcDbLine
 10
-0.7299470417
 20
-0.1190830592
 30
0.0
 11
-0.6931292548
 21
-0.1190830592
 31
0.0
  0
LINE
  5
93
330
7D
100
AcDbEntity
  8
0
  6
Continuous
 62
     7
370
    18
100
AcDbLine
 10
-0.6931292548
 20
-0.1190830592
 30
0.0
 11
-0.6931292548
 21
-0.070254902
 31
0.0
  0
LINE
  5
94
330
7D
100
AcDbEntity
  8
0
  6
Continuous
 62
     7
370
    18
100
AcDbLine
 10
-0.6931292548
 20
-0.070254902
 30
0.0
 11
-0.6373363035
 21
-0.070254902
 31
0.0
  0
LINE
  5
95
330
7D
100
AcDbEntity
  8
0
  6
Continuous
 62
     7
370
    18
100
AcDbLine
 10
-0.6373363035
 20
-0.070254902
 30
0.0
 11
-0.6055030577
 21
-0.1190830592
 31
0.0
  0
LINE
  5
96
330
7D
100
AcDbEntity
  8
0
  6
Continuous
 62
     7
370
    18
100
AcDbLine
 10
-0.6055030577
 20
-0.1190830592
 30
0.0
 11
-0.5603709207
 21
-0.1190830592
 31
0.0
  0
LINE
  5
97
330
7D
100
AcDbEntity
  8
0
  6
Continuous
 62
     7
370
    18
100
AcDbLine
 10
-0.5603709207
 20
-0.1190830592
 30
0.0
 11
-0.5964223768
 21
-0.070254902
 31
0.0
  0
LINE
  5
98
330
7D
100
AcDbEntity
  8
0
  6
Continuous
 62
     7
370
    18
100
AcDbLine
 10
-0.5964223768
 20
-0.070254902
 30
0.0
 11
-0.5904070191
 21
-0.070254902
 31
0.0
  0
LINE
  5
99
330
7D
100
AcDbEntity
  8
0
  6
Continuous
 62
     7
370
    18
100
AcDbLine
 10
-0.8735018239
 20
-0.0214267448
 30
0.0
 11
-0.7913552311
 21
-0.0214267448
 31
0.0
  0
LINE
  5
9A
330
7D
100
AcDbEntity
  8
0
  6
Continuous
 62
     7
370
    18
100
AcDbLine
 10
-0.782342367
 20
-0.0304938623
 30
0.0
 11
-0.782342367
 21
-0.0395609799
 31
0.0
  0
LINE
  5
9B
330
7D
100
AcDbEntity
  8
0
  6
Continuous
 62
     7
370
    18
100
AcDbLine
 10
-0.782342367
 20
-0.0395609799
 30
0.0
 11
-0.8825146879
 21
-0.0395609799
 31
0.0
  0
LINE
  5
9C
330
7D
100
AcDbEntity
  8
0
  6
Continuous
 62
     7
370
    18
100
AcDbLine
 10
-0.8825146879
 20
-0.0395609799
 30
0.0
 11
-0.8825146879
 21
-0.0304938623
 31
0.0
  0
LINE
  5
9D
330
7D
100
AcDbEntity
  8
0
  6
Continuous
 62
     7
370
    18
100
AcDbLine
 10
-0.5447866006
 20
-0.0147060915
 30
0.0
 11
-0.5447866006
 21
-0.0462748515
 31
0.0
  0
LINE
  5
9E
330
7D
100
AcDbEntity
  8
0
  6
Continuous
 62
     7
370
    18
100
AcDbLine
 10
-0.5207794233
 20
-0.070254902
 30
0.0
 11
-0.429063868
 21
-0.070254902
 31
0.0
  0
LINE
  5
9F
330
7D
100
AcDbEntity
  8
0
  6
Continuous
 62
     7
370
    18
100
AcDbLine
 10
-0.4291316849
 20
-0.0884298272
 30
0.0
 11
-0.5447866006
 21
-0.0884298272
 31
0.0
  0
LINE
  5
A0
330
7D
100
AcDbEntity
  8
0
  6
Continuous
 62
     7
370
    18
100
AcDbLine
 10
-0.5447866006
 20
-0.0884298272
 30
0.0
 11
-0.5447866006
 21
-0.1190830592
 31
0.0
  0
LINE
  5
A1
330
7D
100
AcDbEntity
  8
0
  6
Continuous
 62
     7
370
    18
100
AcDbLine
 10
-0.5447866006
 20
-0.1190830592
 30
0.0
 11
-0.4072539578
 21
-0.1190830592
 31
0.0
  0
LINE
  5
A2
330
7D
100
AcDbEntity
  8
0
  6
Continuous
 62
     7
370
    18
100
AcDbLine
 10
-0.3832467805
 20
-0.0951030087
 30
0.0
 11
-0.3832467805
 21
-0.0635478121
 31
0.0
  0
LINE
  5
A3
330
7D
100
AcDbEntity
  8
0
  6
Continuous
 62
     7
370
    18
100
AcDbLine
 10
-0.4071318874
 20
-0.0395609799
 30
0.0
 11
-0.4989016962
 21
-0.0395609799
 31
0.0
  0
LINE
  5
A4
330
7D
100
AcDbEntity
  8
0
  6
Continuous
 62
     7
370
    18
100
AcDbLine
 10
-0.4989288229
 20
-0.0214199631
 30
0.0
 11
-0.3832467805
 21
-0.0214199631
 31
0.0
  0
LINE
  5
A5
330
7D
100
AcDbEntity
  8
0
  6
Continuous
 62
     7
370
    18
100
AcDbLine
 10
-0.3832467805
 20
-0.0214199631
 30
0.0
 11
-0.3832467805
 21
0.0092807407
 31
0.0
  0
LINE
  5
A6
330
7D
100
AcDbEntity
  8
0
  6
Continuous
 62
     7
370
    18
100
AcDbLine
 10
-0.3832467805
 20
0.0092807407
 30
0.0
 11
-0.5207794233
 21
0.0092807407
 31
0.0
  0
LINE
  5
A7
330
7D
100
AcDbEntity
  8
0
  6
Continuous
 62
     7
370
    18
100
AcDbLine
 10
-1.0018995322
 20
-0.0065951921
 30
0.0
 11
-1.0464620074
 21
-0.0853509406
 31
0.0
  0
LINE
  5
A8
330
7D
100
AcDbEntity
  8
0
  6
Continuous
 62
     7
370
    18
100
AcDbLine
 10
-1.0464620074
 20
-0.0853509406
 30
0.0
 11
-1.0910177008
 21
-0.0071173821
 31
0.0
  0
LINE
  5
A9
330
7D
100
AcDbEntity
  8
0
  6
Continuous
 62
     7
370
    18
100
AcDbLine
 10
-1.1580072198
 20
-0.0239224062
 30
0.0
 11
-1.1580072198
 21
-0.1188931719
 31
0.0
  0
LINE
  5
AA
330
7D
100
AcDbEntity
  8
0
  6
Continuous
 62
     7
370
    18
100
AcDbLine
 10
-1.1580072198
 20
-0.1188931719
 30
0.0
 11
-1.1212029963
 21
-0.1188931719
 31
0.0
  0
LINE
  5
AB
330
7D
100
AcDbEntity
  8
0
  6
Continuous
 62
     7
370
    18
100
AcDbLine
 10
-1.1212029963
 20
-0.1188931719
 30
0.0
 11
-1.1212029963
 21
-0.0399204094
 31
0.0
  0
LINE
  5
AC
330
7D
100
AcDbEntity
  8
0
  6
Continuous
 62
     7
370
    18
100
AcDbLine
 10
-1.1110101185
 20
-0.0373637128
 30
0.0
 11
-1.0648675099
 21
-0.1188931719
 31
0.0
  0
LINE
  5
AD
330
7D
100
AcDbEntity
  8
0
  6
Continuous
 62
     7
370
    18
100
AcDbLine
 10
-1.0648675099
 20
-0.1188931719
 30
0.0
 11
-1.0280632865
 21
-0.1188931719
 31
0.0
  0
LINE
  5
AE
330
7D
100
AcDbEntity
  8
0
  6
Continuous
 62
     7
370
    18
100
AcDbLine
 10
-0.9717210184
 20
-0.0399204094
 30
0.0
 11
-0.9717210184
 21
-0.1188931719
 31
0.0
  0
LINE
  5
AF
330
7D
100
AcDbEntity
  8
0
  6
Continuous
 62
     7
370
    18
100
AcDbLine
 10
-0.9717210184
 20
-0.1188931719
 30
0.0
 11
-0.9349167949
 21
-0.1188931719
 31
0.0
  0
LINE
  5
B0
330
7D
100
AcDbEntity
  8
0
  6
Continuous
 62
     7
370
    18
100
AcDbLine
 10
-0.9349167949
 20
-0.1188931719
 30
0.0
 11
-0.9349167949
 21
-0.0239224062
 31
0.0
  0
LINE
  5
B1
330
7D
100
AcDbEntity
  8
0
  6
Continuous
 62
     7
370
    18
100
AcDbLine
 10
-0.0367974418
 20
0.0640225303
 30
0.0
 11
-0.0367974418
 21
-0.0789218999
 31
0.0
  0
LINE
  5
B2
330
7D
100
AcDbEntity
  8
0
  6
Continuous
 62
     7
370
    18
100
AcDbLine
 10
-0.178304154
 20
-0.0219082447
 30
0.0
 11
-0.178304154
 21
-0.0884298272
 31
0.0
  0
LINE
  5
B3
330
7D
100
AcDbEntity
  8
0
  6
Continuous
 62
     7
370
    18
100
AcDbLine
 10
-0.178304154
 20
-0.0884298272
 30
0.0
 11
-0.3217911193
 21
-0.0884298272
 31
0.0
  0
LINE
  5
B4
330
7D
100
AcDbEntity
  8
0
  6
Continuous
 62
     7
370
    18
100
AcDbLine
 10
-0.3308514552
 20
-0.0793016745
 30
0.0
 11
-0.3308514552
 21
-0.070254902
 31
0.0
  0
LINE
  5
B5
330
7D
100
AcDbEntity
  8
0
  6
Continuous
 62
     7
370
    18
100
AcDbLine
 10
-0.3308514552
 20
-0.070254902
 30
0.0
 11
-0.2178685247
 21
-0.070254902
 31
0.0
  0
LINE
  5
B6
330
7D
100
AcDbEntity
  8
0
  6
Continuous
 62
     7
370
    18
100
AcDbLine
 10
-0.1938749108
 20
-0.0462748515
 30
0.0
 11
-0.1938749108
 21
-0.0255228847
 31
0.0
  0
LINE
  5
B7
330
7D
100
AcDbEntity
  8
0
  6
Continuous
 62
     7
370
    18
100
AcDbLine
 10
-0.230794423
 20
0.0092671773
 30
0.0
 11
-0.3307158214
 21
0.0092671773
 31
0.0
  0
LINE
  5
B8
330
7D
100
AcDbEntity
  8
0
  6
Continuous
 62
     7
370
    18
100
AcDbLine
 10
-0.3307158214
 20
0.0092671773
 30
0.0
 11
-0.3307429481
 21
0.0092671773
 31
0.0
  0
LINE
  5
B9
330
7D
100
AcDbEntity
  8
0
  6
Continuous
 62
     7
370
    18
100
AcDbLine
 10
-0.3676624603
 20
-0.0255228847
 30
0.0
 11
-0.3676624603
 21
-0.0255567931
 31
0.0
  0
LINE
  5
BA
330
7D
100
AcDbEntity
  8
0
  6
Continuous
 62
     7
370
    18
100
AcDbLine
 10
-0.3676624603
 20
-0.0255567931
 30
0.0
 11
-0.3676624603
 21
-0.0842523071
 31
0.0
  0
LINE
  5
BB
330
7D
100
AcDbEntity
  8
0
  6
Continuous
 62
     7
370
    18
100
AcDbLine
 10
-0.3676624603
 20
-0.0842523071
 30
0.0
 11
-0.3676624603
 21
-0.0842794338
 31
0.0
  0
LINE
  5
BC
330
7D
100
AcDbEntity
  8
0
  6
Continuous
 62
     7
370
    18
100
AcDbLine
 10
-0.3307429481
 20
-0.1190830592
 30
0.0
 11
-0.178304154
 21
-0.1190830592
 31
0.0
  0
LINE
  5
BD
330
7D
100
AcDbEntity
  8
0
  6
Continuous
 62
     7
370
    18
100
AcDbLine
 10
-0.178304154
 20
-0.1190830592
 30
0.0
 11
-0.178304154
 21
-0.2189366407
 31
0.0
  0
LINE
  5
BE
330
7D
100
AcDbEntity
  8
0
  6
Continuous
 62
     7
370
    18
100
AcDbLine
 10
-0.178304154
 20
-0.2189366407
 30
0.0
 11
-0.1414931489
 21
-0.1950379704
 31
0.0
  0
LINE
  5
BF
330
7D
100
AcDbEntity
  8
0
  6
Continuous
 62
     7
370
    18
100
AcDbLine
 10
-0.1414931489
 20
-0.1950379704
 30
0.0
 11
-0.1414931489
 21
-0.030914327
 31
0.0
  0
LINE
  5
C0
330
7D
100
AcDbEntity
  8
0
  6
Continuous
 62
     7
370
    18
100
AcDbLine
 10
0.0
 20
-0.0879279822
 30
0.0
 11
0.0
 21
0.0879279822
 31
0.0
  0
LINE
  5
C1
330
7D
100
AcDbEntity
  8
0
  6
Continuous
 62
     7
370
    18
100
AcDbLine
 10
0.0
 20
0.0879279822
 30
0.0
 11
-0.0367974418
 21
0.0640225303
 31
0.0
  0
LINE
  5
C2
330
7D
100
AcDbEntity
  8
0
  6
Continuous
 62
     7
370
    18
100
AcDbLine
 10
-0.3218453728
 20
-0.0214267448
 30
0.0
 11
-0.2396919983
 21
-0.0214267448
 31
0.0
  0
LINE
  5
C3
330
7D
100
AcDbEntity
  8
0
  6
Continuous
 62
     7
370
    18
100
AcDbLine
 10
-0.2306723526
 20
-0.0304938623
 30
0.0
 11
-0.2306723526
 21
-0.0395609799
 31
0.0
  0
LINE
  5
C4
330
7D
100
AcDbEntity
  8
0
  6
Continuous
 62
     7
370
    18
100
AcDbLine
 10
-0.2306723526
 20
-0.0395609799
 30
0.0
 11
-0.3308514552
 21
-0.0395609799
 31
0.0
  0
LINE
  5
C5
330
7D
100
AcDbEntity
  8
0
  6
Continuous
 62
     7
370
    18
100
AcDbLine
 10
-0.3308514552
 20
-0.0395609799
 30
0.0
 11
-0.3308514552
 21
-0.0304938623
 31
0.0
  0
SPLINE
  5
C6
330
7D
100
AcDbEntity
  8
0
  6
Continuous
 62
     8
370
     0
100
AcDbSpline
210
0.0
220
0.0
230
1.0
 70
     8
 71
     3
 72
     8
 73
     4
 74
     0
 42
0.000000001
 43
0.00000001
 40
0.0
 40
0.0
 40
0.0
 40
0.0
 40
1.0
 40
1.0
 40
1.0
 40
1.0
 10
-0.5904070191149344
 20
-0.0702549020149688
 30
0.0
 10
-0.5771623814745817
 20
-0.0702549020149688
 30
0.0
 10
-0.5664201868907013
 20
-0.0595059257425883
 30
0.0
 10
-0.5664201868907013
 20
-0.0462748514792354
 30
0.0
  0
SPLINE
  5
C7
330
7D
100
AcDbEntity
  8
0
  6
Continuous
 62
     8
370
     0
100
AcDbSpline
210
0.0
220
0.0
230
1.0
 70
     8
 71
     3
 72
     8
 73
     4
 74
     0
 42
0.000000001
 43
0.00000001
 40
2.0
 40
2.0
 40
2.0
 40
2.0
 40
3.0
 40
3.0
 40
3.0
 40
3.0
 10
-0.5664201868907013
 20
-0.0147060915120865
 30
0.0
 10
-0.5664201868907013
 20
-0.0014614538717338
 30
0.0
 10
-0.5771623814745817
 20
0.0092807407121468
 30
0.0
 10
-0.5904070191149344
 20
0.0092807407121468
 30
0.0
  0
SPLINE
  5
C8
330
7D
100
AcDbEntity
  8
0
  6
Continuous
 62
     8
370
     0
100
AcDbSpline
210
0.0
220
0.0
230
1.0
 70
     8
 71
     3
 72
     8
 73
     4
 74
     0
 42
0.000000001
 43
0.00000001
 40
7.0
 40
7.0
 40
7.0
 40
7.0
 40
8.0
 40
8.0
 40
8.0
 40
8.0
 10
-0.6122779645271912
 20
-0.0214199631270118
 30
0.0
 10
-0.6072798601027469
 20
-0.0214403081925116
 30
0.0
 10
-0.603210847002792
 20
-0.0254821945384667
 30
0.0
 10
-0.603210847002792
 20
-0.0304938623399109
 30
0.0
  0
SPLINE
  5
C9
330
7D
100
AcDbEntity
  8
0
  6
Continuous
 62
     8
370
     0
100
AcDbSpline
210
0.0
220
0.0
230
1.0
 70
     8
 71
     3
 72
     8
 73
     4
 74
     0
 42
0.000000001
 43
0.00000001
 40
8.0
 40
8.0
 40
8.0
 40
8.0
 40
9.0
 40
9.0
 40
9.0
 40
9.0
 10
-0.603210847002792
 20
-0.0304938623399109
 30
0.0
 10
-0.603210847002792
 20
-0.0355055301413552
 30
0.0
 10
-0.6072866417912467
 20
-0.0395609798643101
 30
0.0
 10
-0.612298309592691
 20
-0.0395609798643101
 30
0.0
  0
SPLINE
  5
CA
330
7D
100
AcDbEntity
  8
0
  6
Continuous
 62
     8
370
     0
100
AcDbSpline
210
0.0
220
0.0
230
1.0
 70
     8
 71
     3
 72
     8
 73
     4
 74
     0
 42
0.000000001
 43
0.00000001
 40
12.0
 40
12.0
 40
12.0
 40
12.0
 40
13.0
 40
13.0
 40
13.0
 40
13.0
 10
-0.8734340069707871
 20
-0.0884298271947667
 30
0.0
 10
-0.8784456747722312
 20
-0.0884298271947667
 30
0.0
 10
-0.8825146878721859
 20
-0.0843065605868125
 30
0.0
 10
-0.8825146878721859
 20
-0.0793016744738682
 30
0.0
  0
SPLINE
  5
CB
330
7D
100
AcDbEntity
  8
0
  6
Continuous
 62
     8
370
     0
100
AcDbSpline
210
0.0
220
0.0
230
1.0
 70
     8
 71
     3
 72
     8
 73
     4
 74
     0
 42
0.000000001
 43
0.00000001
 40
15.0
 40
15.0
 40
15.0
 40
15.0
 40
16.0
 40
16.0
 40
16.0
 40
16.0
 10
-0.7695249757749425
 20
-0.0702549020149688
 30
0.0
 10
-0.7562803381345898
 20
-0.0702549020149688
 30
0.0
 10
-0.7455381435507094
 20
-0.0595059257425883
 30
0.0
 10
-0.7455381435507094
 20
-0.0462748514792354
 30
0.0
  0
SPLINE
  5
CC
330
7D
100
AcDbEntity
  8
0
  6
Continuous
 62
     8
370
     0
100
AcDbSpline
210
0.0
220
0.0
230
1.0
 70
     8
 71
     3
 72
     8
 73
     4
 74
     0
 42
0.000000001
 43
0.00000001
 40
17.0
 40
17.0
 40
17.0
 40
17.0
 40
18.0
 40
18.0
 40
18.0
 40
18.0
 10
-0.7455381435507094
 20
-0.0255228846694662
 30
0.0
 10
-0.7455381435507094
 20
-0.00630357946068
 30
0.0
 10
-0.7620583367365256
 20
0.0092671773351469
 30
0.0
 10
-0.782444092367299
 20
0.0092671773351469
 30
0.0
  0
SPLINE
  5
CD
330
7D
100
AcDbEntity
  8
0
  6
Continuous
 62
     8
370
     0
100
AcDbSpline
210
0.0
220
0.0
230
1.0
 70
     8
 71
     3
 72
     8
 73
     4
 74
     0
 42
0.000000001
 43
0.00000001
 40
21.0
 40
21.0
 40
21.0
 40
21.0
 40
22.0
 40
22.0
 40
22.0
 40
22.0
 10
-0.8823993991676873
 20
0.0092671773351469
 30
0.0
 10
-0.9027851547984607
 20
0.0092671773351469
 30
0.0
 10
-0.9193121296727769
 20
-0.00630357946068
 30
0.0
 10
-0.9193121296727769
 20
-0.0255228846694662
 30
0.0
  0
SPLINE
  5
CE
330
7D
100
AcDbEntity
  8
0
  6
Continuous
 62
     8
370
     0
100
AcDbSpline
210
0.0
220
0.0
230
1.0
 70
     8
 71
     3
 72
     8
 73
     4
 74
     0
 42
0.000000001
 43
0.00000001
 40
25.0
 40
25.0
 40
25.0
 40
25.0
 40
26.0
 40
26.0
 40
26.0
 40
26.0
 10
-0.9193121296727769
 20
-0.0842794338328128
 30
0.0
 10
-0.9193121296727769
 20
-0.1035123024185989
 30
0.0
 10
-0.9027851547984607
 20
-0.1190830592144258
 30
0.0
 10
-0.8823993991676873
 20
-0.1190830592144258
 30
0.0
  0
SPLINE
  5
CF
330
7D
100
AcDbEntity
  8
0
  6
Continuous
 62
     8
370
     0
100
AcDbSpline
210
0.0
220
0.0
230
1.0
 70
     8
 71
     3
 72
     8
 73
     4
 74
     0
 42
0.000000001
 43
0.00000001
 40
0.0
 40
0.0
 40
0.0
 40
0.0
 40
1.0
 40
1.0
 40
1.0
 40
1.0
 10
-0.8825146878721859
 20
-0.0304938623399109
 30
0.0
 10
-0.8825146878721859
 20
-0.0255025396039664
 30
0.0
 10
-0.8784931465917307
 20
-0.0214674349465113
 30
0.0
 10
-0.8735018238557862
 20
-0.0214267448155118
 30
0.0
  0
SPLINE
  5
D0
330
7D
100
AcDbEntity
  8
0
  6
Continuous
 62
     8
370
     0
100
AcDbSpline
210
0.0
220
0.0
230
1.0
 70
     8
 71
     3
 72
     8
 73
     4
 74
     0
 42
0.000000001
 43
0.00000001
 40
2.0
 40
2.0
 40
2.0
 40
2.0
 40
3.0
 40
3.0
 40
3.0
 40
3.0
 10
-0.7913552310561999
 20
-0.0214267448155118
 30
0.0
 10
-0.7863639083202553
 20
-0.0214674349465113
 30
0.0
 10
-0.7823423670398
 20
-0.0255025396039664
 30
0.0
 10
-0.7823423670398
 20
-0.0304938623399109
 30
0.0
  0
SPLINE
  5
D1
330
7D
100
AcDbEntity
  8
0
  6
Continuous
 62
     8
370
     0
100
AcDbSpline
210
0.0
220
0.0
230
1.0
 70
     8
 71
     3
 72
     8
 73
     4
 74
     0
 42
0.000000001
 43
0.00000001
 40
1.0
 40
1.0
 40
1.0
 40
1.0
 40
2.0
 40
2.0
 40
2.0
 40
2.0
 10
-0.5447866005759417
 20
-0.0462748514792354
 30
0.0
 10
-0.5447866005759417
 20
-0.0595059257425883
 30
0.0
 10
-0.5340308426150613
 20
-0.0702549020149688
 30
0.0
 10
-0.5207794232862089
 20
-0.0702549020149688
 30
0.0
  0
SPLINE
  5
D2
330
7D
100
AcDbEntity
  8
0
  6
Continuous
 62
     8
370
     0
100
AcDbSpline
210
0.0
220
0.0
230
1.0
 70
     8
 71
     3
 72
     8
 73
     4
 74
     0
 42
0.000000001
 43
0.00000001
 40
3.0
 40
3.0
 40
3.0
 40
3.0
 40
4.0
 40
4.0
 40
4.0
 40
4.0
 10
-0.4290638680132287
 20
-0.0702549020149688
 30
0.0
 10
-0.4240725452772842
 20
-0.0702955921459683
 30
0.0
 10
-0.4200849124393285
 20
-0.0743374784919234
 30
0.0
 10
-0.4200849124393285
 20
-0.0793016744738682
 30
0.0
  0
SPLINE
  5
D3
330
7D
100
AcDbEntity
  8
0
  6
Continuous
 62
     8
370
     0
100
AcDbSpline
210
0.0
220
0.0
230
1.0
 70
     8
 71
     3
 72
     8
 73
     4
 74
     0
 42
0.000000001
 43
0.00000001
 40
4.0
 40
4.0
 40
4.0
 40
4.0
 40
5.0
 40
5.0
 40
5.0
 40
5.0
 10
-0.4200849124393285
 20
-0.0793016744738682
 30
0.0
 10
-0.4200849124393285
 20
-0.0843065605868125
 30
0.0
 10
-0.4240996720312838
 20
-0.0884298271947667
 30
0.0
 10
-0.4291316848982279
 20
-0.0884298271947667
 30
0.0
  0
SPLINE
  5
D4
330
7D
100
AcDbEntity
  8
0
  6
Continuous
 62
     8
370
     0
100
AcDbSpline
210
0.0
220
0.0
230
1.0
 70
     8
 71
     3
 72
     8
 73
     4
 74
     0
 42
0.000000001
 43
0.00000001
 40
8.0
 40
8.0
 40
8.0
 40
8.0
 40
9.0
 40
9.0
 40
9.0
 40
9.0
 10
-0.4072539577974712
 20
-0.1190830592144258
 30
0.0
 10
-0.3939889750916188
 20
-0.1190830592144258
 30
0.0
 10
-0.383246780507738
 20
-0.1083408646305452
 30
0.0
 10
-0.383246780507738
 20
-0.0951030086786924
 30
0.0
  0
SPLINE
  5
D5
330
7D
100
AcDbEntity
  8
0
  6
Continuous
 62
     8
370
     0
100
AcDbSpline
210
0.0
220
0.0
230
1.0
 70
     8
 71
     3
 72
     8
 73
     4
 74
     0
 42
0.000000001
 43
0.00000001
 40
10.0
 40
10.0
 40
10.0
 40
10.0
 40
11.0
 40
11.0
 40
11.0
 40
11.0
 10
-0.383246780507738
 20
-0.0635478120885434
 30
0.0
 10
-0.383246780507738
 20
-0.0503370828906903
 30
0.0
 10
-0.3939347215836189
 20
-0.0396220150608094
 30
0.0
 10
-0.4071318874044726
 20
-0.0395609798643101
 30
0.0
  0
SPLINE
  5
D6
330
7D
100
AcDbEntity
  8
0
  6
Continuous
 62
     8
370
     0
100
AcDbSpline
210
0.0
220
0.0
230
1.0
 70
     8
 71
     3
 72
     8
 73
     4
 74
     0
 42
0.000000001
 43
0.00000001
 40
12.0
 40
12.0
 40
12.0
 40
12.0
 40
13.0
 40
13.0
 40
13.0
 40
13.0
 10
-0.498901696185452
 20
-0.0395609798643101
 30
0.0
 10
-0.5038930189213965
 20
-0.0395609798643101
 30
0.0
 10
-0.507989158775351
 20
-0.0355055301413552
 30
0.0
 10
-0.507989158775351
 20
-0.0304938623399109
 30
0.0
  0
SPLINE
  5
D7
330
7D
100
AcDbEntity
  8
0
  6
Continuous
 62
     8
370
     0
100
AcDbSpline
210
0.0
220
0.0
230
1.0
 70
     8
 71
     3
 72
     8
 73
     4
 74
     0
 42
0.000000001
 43
0.00000001
 40
13.0
 40
13.0
 40
13.0
 40
13.0
 40
14.0
 40
14.0
 40
14.0
 40
14.0
 10
-0.507989158775351
 20
-0.0304938623399109
 30
0.0
 10
-0.507989158775351
 20
-0.0254821945384667
 30
0.0
 10
-0.5039201456753962
 20
-0.0214403081925116
 30
0.0
 10
-0.4989288229394518
 20
-0.0214199631270118
 30
0.0
  0
SPLINE
  5
D8
330
7D
100
AcDbEntity
  8
0
  6
Continuous
 62
     8
370
     0
100
AcDbSpline
210
0.0
220
0.0
230
1.0
 70
     8
 71
     3
 72
     8
 73
     4
 74
     0
 42
0.000000001
 43
0.00000001
 40
17.0
 40
17.0
 40
17.0
 40
17.0
 40
18.0
 40
18.0
 40
18.0
 40
18.0
 10
-0.5207794232862089
 20
0.0092807407121468
 30
0.0
 10
-0.5340308426150613
 20
0.0092807407121468
 30
0.0
 10
-0.5447866005759417
 20
-0.0014614538717338
 30
0.0
 10
-0.5447866005759417
 20
-0.0147060915120865
 30
0.0
  0
SPLINE
  5
D9
330
7D
100
AcDbEntity
  8
0
  6
Continuous
 62
     8
370
     0
100
AcDbSpline
210
0.0
220
0.0
230
1.0
 70
     8
 71
     3
 72
     8
 73
     4
 74
     0
 42
0.000000001
 43
0.00000001
 40
0.0
 40
0.0
 40
0.0
 40
0.0
 40
1.0
 40
1.0
 40
1.0
 40
1.0
 10
-0.9706495116172059
 20
0.0118238738996185
 30
0.0
 10
-0.9841111632895563
 20
0.0118238738996185
 30
0.0
 10
-0.9958027942634262
 20
0.0043911433037011
 30
0.0
 10
-1.001899532224858
 20
-0.0065951920661767
 30
0.0
  0
SPLINE
  5
DA
330
7D
100
AcDbEntity
  8
0
  6
Continuous
 62
     8
370
     0
100
AcDbSpline
210
0.0
220
0.0
230
1.0
 70
     8
 71
     3
 72
     8
 73
     4
 74
     0
 42
0.000000001
 43
0.00000001
 40
3.0
 40
3.0
 40
3.0
 40
3.0
 40
4.0
 40
4.0
 40
4.0
 40
4.0
 10
-1.091017700802367
 20
-0.0071173820806709
 30
0.0
 10
-1.097128002140799
 20
0.0038689532892069
 30
0.0
 10
-1.108819633114669
 20
0.0118238738996185
 30
0.0
 10
-1.12227450309852
 20
0.0118238738996185
 30
0.0
  0
SPLINE
  5
DB
330
7D
100
AcDbEntity
  8
0
  6
Continuous
 62
     8
370
     0
100
AcDbSpline
210
0.0
220
0.0
230
1.0
 70
     8
 71
     3
 72
     8
 73
     4
 74
     0
 42
0.000000001
 43
0.00000001
 40
4.0
 40
4.0
 40
4.0
 40
4.0
 40
5.0
 40
5.0
 40
5.0
 40
5.0
 10
-1.12227450309852
 20
0.0118238738996185
 30
0.0
 10
-1.1420159983218
 20
0.0118238738996185
 30
0.0
 10
-1.158007219804623
 20
-0.0041809109602036
 30
0.0
 10
-1.158007219804623
 20
-0.023922406183484
 30
0.0
  0
SPLINE
  5
DC
330
7D
100
AcDbEntity
  8
0
  6
Continuous
 62
     8
370
     0
100
AcDbSpline
210
0.0
220
0.0
230
1.0
 70
     8
 71
     3
 72
     8
 73
     4
 74
     0
 42
0.000000001
 43
0.00000001
 40
8.0
 40
8.0
 40
8.0
 40
8.0
 40
9.0
 40
9.0
 40
9.0
 40
9.0
 10
-1.121202996315532
 20
-0.0399204093548061
 30
0.0
 10
-1.121202996315532
 20
-0.0369229030378394
 30
0.0
 10
-1.118788715209559
 20
-0.0345086219318663
 30
0.0
 10
-1.115784427204092
 20
-0.0345086219318663
 30
0.0
  0
SPLINE
  5
DD
330
7D
100
AcDbEntity
  8
0
  6
Continuous
 62
     8
370
     0
100
AcDbSpline
210
0.0
220
0.0
230
1.0
 70
     8
 71
     3
 72
     8
 73
     4
 74
     0
 42
0.000000001
 43
0.00000001
 40
9.0
 40
9.0
 40
9.0
 40
9.0
 40
10.0
 40
10.0
 40
10.0
 40
10.0
 10
-1.115784427204092
 20
-0.0345086219318663
 30
0.0
 10
-1.113716012211615
 20
-0.0345086219318663
 30
0.0
 10
-1.111905301382135
 20
-0.0356682906653534
 30
0.0
 10
-1.111010118500145
 20
-0.0373637127903345
 30
0.0
  0
SPLINE
  5
DE
330
7D
100
AcDbEntity
  8
0
  6
Continuous
 62
     8
370
     0
100
AcDbSpline
210
0.0
220
0.0
230
1.0
 70
     8
 71
     2
 72
     6
 73
     3
 74
     0
 42
0.000000001
 43
0.00000001
 40
12.0
 40
12.0
 40
12.0
 40
13.0
 40
13.0
 40
13.0
 10
-1.028063286457567
 20
-0.1188931719364279
 30
0.0
 10
-0.9818325159535816
 20
-0.0371195720043373
 30
0.0
 10
-0.9816358469870836
 20
-0.0368483044643403
 30
0.0
  0
SPLINE
  5
DF
330
7D
100
AcDbEntity
  8
0
  6
Continuous
 62
     8
370
     0
100
AcDbSpline
210
0.0
220
0.0
230
1.0
 70
     8
 71
     3
 72
     8
 73
     4
 74
     0
 42
0.000000001
 43
0.00000001
 40
13.0
 40
13.0
 40
13.0
 40
13.0
 40
14.0
 40
14.0
 40
14.0
 40
14.0
 10
-0.9816358469870836
 20
-0.0368483044643403
 30
0.0
 10
-0.9806457204660948
 20
-0.035437713256356
 30
0.0
 10
-0.9789977701606131
 20
-0.0345086219318663
 30
0.0
 10
-0.9771395875116337
 20
-0.0345086219318663
 30
0.0
  0
SPLINE
  5
E0
330
7D
100
AcDbEntity
  8
0
  6
Continuous
 62
     8
370
     0
100
AcDbSpline
210
0.0
220
0.0
230
1.0
 70
     8
 71
     3
 72
     8
 73
     4
 74
     0
 42
0.000000001
 43
0.00000001
 40
14.0
 40
14.0
 40
14.0
 40
14.0
 40
15.0
 40
15.0
 40
15.0
 40
15.0
 10
-0.9771395875116337
 20
-0.0345086219318663
 30
0.0
 10
-0.974148862883167
 20
-0.0345086219318663
 30
0.0
 10
-0.971721018400194
 20
-0.0369229030378394
 30
0.0
 10
-0.971721018400194
 20
-0.0399204093548061
 30
0.0
  0
SPLINE
  5
E1
330
7D
100
AcDbEntity
  8
0
  6
Continuous
 62
     8
370
     0
100
AcDbSpline
210
0.0
220
0.0
230
1.0
 70
     8
 71
     3
 72
     8
 73
     4
 74
     0
 42
0.000000001
 43
0.00000001
 40
18.0
 40
18.0
 40
18.0
 40
18.0
 40
19.0
 40
19.0
 40
19.0
 40
19.0
 10
-0.9349167949111035
 20
-0.023922406183484
 30
0.0
 10
-0.9349167949111035
 20
-0.0041809109602036
 30
0.0
 10
-0.9509147980824254
 20
0.0118238738996185
 30
0.0
 10
-0.9706495116172059
 20
0.0118238738996185
 30
0.0
  0
SPLINE
  5
E2
330
7D
100
AcDbEntity
  8
0
  6
Continuous
 62
     8
370
     0
100
AcDbSpline
210
0.0
220
0.0
230
1.0
 70
     8
 71
     3
 72
     8
 73
     4
 74
     0
 42
0.000000001
 43
0.00000001
 40
1.0
 40
1.0
 40
1.0
 40
1.0
 40
2.0
 40
2.0
 40
2.0
 40
2.0
 10
-0.0367974418005909
 20
-0.0789218999178724
 30
0.0
 10
-0.0367974418005909
 20
-0.0819058428578392
 30
0.0
 10
-0.0392388496605639
 20
-0.0843336873408122
 30
0.0
 10
-0.042222792600531
 20
-0.0843336873408122
 30
0.0
  0
SPLINE
  5
E3
330
7D
100
AcDbEntity
  8
0
  6
Continuous
 62
     8
370
     0
100
AcDbSpline
210
0.0
220
0.0
230
1.0
 70
     8
 71
     3
 72
     8
 73
     4
 74
     0
 42
0.000000001
 43
0.00000001
 40
2.0
 40
2.0
 40
2.0
 40
2.0
 40
3.0
 40
3.0
 40
3.0
 40
3.0
 10
-0.042222792600531
 20
-0.0843336873408122
 30
0.0
 10
-0.0437012006935137
 20
-0.0843336873408122
 30
0.0
 10
-0.0450439750164989
 20
-0.0837368987528189
 30
0.0
 10
-0.046020538160488
 20
-0.0827874623628294
 30
0.0
  0
SPLINE
  5
E4
330
7D
100
AcDbEntity
  8
0
  6
Continuous
 62
     8
370
     0
100
AcDbSpline
210
0.0
220
0.0
230
1.0
 70
     8
 71
     3
 72
     8
 73
     4
 74
     0
 42
0.000000001
 43
0.00000001
 40
3.0
 40
3.0
 40
3.0
 40
3.0
 40
4.0
 40
4.0
 40
4.0
 40
4.0
 10
-0.046020538160488
 20
-0.0827874623628294
 30
0.0
 10
-0.0463053690774849
 20
-0.0824755046918329
 30
0.0
 10
-0.11511238059772
 20
0.0009935173652389
 30
0.0
 10
-0.115261577744718
 20
0.0011901863317367
 30
0.0
  0
SPLINE
  5
E5
330
7D
100
AcDbEntity
  8
0
  6
Continuous
 62
     8
370
     0
100
AcDbSpline
210
0.0
220
0.0
230
1.0
 70
     8
 71
     3
 72
     8
 73
     4
 74
     0
 42
0.000000001
 43
0.00000001
 40
4.0
 40
4.0
 40
4.0
 40
4.0
 40
5.0
 40
5.0
 40
5.0
 40
5.0
 10
-0.115261577744718
 20
0.0011901863317367
 30
0.0
 10
-0.121839815589645
 20
0.0089145295331508
 30
0.0
 10
-0.1316461371605359
 20
0.0138244720070962
 30
0.0
 10
-0.1425510922684149
 20
0.0138244720070962
 30
0.0
  0
SPLINE
  5
E6
330
7D
100
AcDbEntity
  8
0
  6
Continuous
 62
     8
370
     0
100
AcDbSpline
210
0.0
220
0.0
230
1.0
 70
     8
 71
     3
 72
     8
 73
     4
 74
     0
 42
0.000000001
 43
0.00000001
 40
5.0
 40
5.0
 40
5.0
 40
5.0
 40
6.0
 40
6.0
 40
6.0
 40
6.0
 10
-0.1425510922684149
 20
0.0138244720070962
 30
0.0
 10
-0.1622993691801948
 20
0.0138244720070962
 30
0.0
 10
-0.178304154040017
 20
-0.0021667494757259
 30
0.0
 10
-0.178304154040017
 20
-0.0219082446990064
 30
0.0
  0
SPLINE
  5
E7
330
7D
100
AcDbEntity
  8
0
  6
Continuous
 62
     8
370
     0
100
AcDbSpline
210
0.0
220
0.0
230
1.0
 70
     8
 71
     3
 72
     8
 73
     4
 74
     0
 42
0.000000001
 43
0.00000001
 40
8.0
 40
8.0
 40
8.0
 40
8.0
 40
9.0
 40
9.0
 40
9.0
 40
9.0
 10
-0.3217911193214218
 20
-0.0884298271947667
 30
0.0
 10
-0.326796005434366
 20
-0.0884298271947667
 30
0.0
 10
-0.330851455157321
 20
-0.0843065605868125
 30
0.0
 10
-0.330851455157321
 20
-0.0793016744738682
 30
0.0
  0
SPLINE
  5
E8
330
7D
100
AcDbEntity
  8
0
  6
Continuous
 62
     8
370
     0
100
AcDbSpline
210
0.0
220
0.0
230
1.0
 70
     8
 71
     3
 72
     8
 73
     4
 74
     0
 42
0.000000001
 43
0.00000001
 40
11.0
 40
11.0
 40
11.0
 40
11.0
 40
12.0
 40
12.0
 40
12.0
 40
12.0
 10
-0.217868524748577
 20
-0.0702549020149688
 30
0.0
 10
-0.204630668796725
 20
-0.0702549020149688
 30
0.0
 10
-0.193874910835844
 20
-0.0595059257425883
 30
0.0
 10
-0.193874910835844
 20
-0.0462748514792354
 30
0.0
  0
SPLINE
  5
E9
330
7D
100
AcDbEntity
  8
0
  6
Continuous
 62
     8
370
     0
100
AcDbSpline
210
0.0
220
0.0
230
1.0
 70
     8
 71
     3
 72
     8
 73
     4
 74
     0
 42
0.000000001
 43
0.00000001
 40
13.0
 40
13.0
 40
13.0
 40
13.0
 40
14.0
 40
14.0
 40
14.0
 40
14.0
 10
-0.193874910835844
 20
-0.0255228846694662
 30
0.0
 10
-0.193874910835844
 20
-0.00630357946068
 30
0.0
 10
-0.2103951040216598
 20
0.0092671773351469
 30
0.0
 10
-0.2307944230294339
 20
0.0092671773351469
 30
0.0
  0
SPLINE
  5
EA
330
7D
100
AcDbEntity
  8
0
  6
Continuous
 62
     8
370
     0
100
AcDbSpline
210
0.0
220
0.0
230
1.0
 70
     8
 71
     3
 72
     8
 73
     4
 74
     0
 42
0.000000001
 43
0.00000001
 40
17.0
 40
17.0
 40
17.0
 40
17.0
 40
18.0
 40
18.0
 40
18.0
 40
18.0
 10
-0.330742948141322
 20
0.0092671773351469
 30
0.0
 10
-0.3511151403950959
 20
0.0092671773351469
 30
0.0
 10
-0.367662460334912
 20
-0.00630357946068
 30
0.0
 10
-0.367662460334912
 20
-0.0255228846694662
 30
0.0
  0
SPLINE
  5
EB
330
7D
100
AcDbEntity
  8
0
  6
Continuous
 62
     8
370
     0
100
AcDbSpline
210
0.0
220
0.0
230
1.0
 70
     8
 71
     3
 72
     8
 73
     4
 74
     0
 42
0.000000001
 43
0.00000001
 40
21.0
 40
21.0
 40
21.0
 40
21.0
 40
22.0
 40
22.0
 40
22.0
 40
22.0
 10
-0.367662460334912
 20
-0.0842794338328128
 30
0.0
 10
-0.367662460334912
 20
-0.1035123024185989
 30
0.0
 10
-0.3511151403950959
 20
-0.1190830592144258
 30
0.0
 10
-0.330742948141322
 20
-0.1190830592144258
 30
0.0
  0
SPLINE
  5
EC
330
7D
100
AcDbEntity
  8
0
  6
Continuous
 62
     8
370
     0
100
AcDbSpline
210
0.0
220
0.0
230
1.0
 70
     8
 71
     3
 72
     8
 73
     4
 74
     0
 42
0.000000001
 43
0.00000001
 40
26.0
 40
26.0
 40
26.0
 40
26.0
 40
27.0
 40
27.0
 40
27.0
 40
27.0
 10
-0.141493148862427
 20
-0.0309143270269063
 30
0.0
 10
-0.141493148862427
 20
-0.0279303840869394
 30
0.0
 10
-0.1390653043794539
 20
-0.0254889762269666
 30
0.0
 10
-0.136081361439487
 20
-0.0254889762269666
 30
0.0
  0
SPLINE
  5
ED
330
7D
100
AcDbEntity
  8
0
  6
Continuous
 62
     8
370
     0
100
AcDbSpline
210
0.0
220
0.0
230
1.0
 70
     8
 71
     3
 72
     8
 73
     4
 74
     0
 42
0.000000001
 43
0.00000001
 40
27.0
 40
27.0
 40
27.0
 40
27.0
 40
28.0
 40
28.0
 40
28.0
 40
28.0
 10
-0.136081361439487
 20
-0.0254889762269666
 30
0.0
 10
-0.134508009707504
 20
-0.0254889762269666
 30
0.0
 10
-0.13312454525352
 20
-0.0261468000114593
 30
0.0
 10
-0.132134418732531
 20
-0.0271776166634478
 30
0.0
  0
SPLINE
  5
EE
330
7D
100
AcDbEntity
  8
0
  6
Continuous
 62
     8
370
     0
100
AcDbSpline
210
0.0
220
0.0
230
1.0
 70
     8
 71
     2
 72
     6
 73
     3
 74
     0
 42
0.000000001
 43
0.00000001
 40
28.0
 40
28.0
 40
28.0
 40
29.0
 40
29.0
 40
29.0
 10
-0.132134418732531
 20
-0.0271776166634478
 30
0.0
 10
-0.131917404700533
 20
-0.0274081940724453
 30
0.0
 10
-0.0631646466882977
 20
-0.1108093992445178
 30
0.0
  0
SPLINE
  5
EF
330
7D
100
AcDbEntity
  8
0
  6
Continuous
 62
     8
370
     0
100
AcDbSpline
210
0.0
220
0.0
230
1.0
 70
     8
 71
     3
 72
     8
 73
     4
 74
     0
 42
0.000000001
 43
0.00000001
 40
29.0
 40
29.0
 40
29.0
 40
29.0
 40
30.0
 40
30.0
 40
30.0
 40
30.0
 10
-0.0631646466882977
 20
-0.1108093992445178
 30
0.0
 10
-0.0566135355973711
 20
-0.1186761579044303
 30
0.0
 10
-0.04676652389548
 20
-0.1236674806403748
 30
0.0
 10
-0.0357530617716029
 20
-0.1236674806403748
 30
0.0
  0
SPLINE
  5
F0
330
7D
100
AcDbEntity
  8
0
  6
Continuous
 62
     8
370
     0
100
AcDbSpline
210
0.0
220
0.0
230
1.0
 70
     8
 71
     3
 72
     8
 73
     4
 74
     0
 42
0.000000001
 43
0.00000001
 40
30.0
 40
30.0
 40
30.0
 40
30.0
 40
31.0
 40
31.0
 40
31.0
 40
31.0
 10
-0.0357530617716029
 20
-0.1236674806403748
 30
0.0
 10
-0.0160183482368218
 20
-0.1236674806403748
 30
0.0
 10
0.0
 20
-0.1076355690265531
 30
0.0
 10
0.0
 20
-0.0879279822457722
 30
0.0
  0
SPLINE
  5
F1
330
7D
100
AcDbEntity
  8
0
  6
Continuous
 62
     8
370
     0
100
AcDbSpline
210
0.0
220
0.0
230
1.0
 70
     8
 71
     3
 72
     8
 73
     4
 74
     0
 42
0.000000001
 43
0.00000001
 40
0.0
 40
0.0
 40
0.0
 40
0.0
 40
1.0
 40
1.0
 40
1.0
 40
1.0
 10
-0.330851455157321
 20
-0.0304938623399109
 30
0.0
 10
-0.330851455157321
 20
-0.0255025396039664
 30
0.0
 10
-0.3268366955653659
 20
-0.0214674349465113
 30
0.0
 10
-0.3218453728294209
 20
-0.0214267448155118
 30
0.0
  0
SPLINE
  5
F2
330
7D
100
AcDbEntity
  8
0
  6
Continuous
 62
     8
370
     0
100
AcDbSpline
210
0.0
220
0.0
230
1.0
 70
     8
 71
     3
 72
     8
 73
     4
 74
     0
 42
0.000000001
 43
0.00000001
 40
2.0
 40
2.0
 40
2.0
 40
2.0
 40
3.0
 40
3.0
 40
3.0
 40
3.0
 10
-0.2396919983413349
 20
-0.0214267448155118
 30
0.0
 10
-0.2346871122283899
 20
-0.0214674349465113
 30
0.0
 10
-0.230672352636435
 20
-0.0255025396039664
 30
0.0
 10
-0.230672352636435
 20
-0.0304938623399109
 30
0.0
  0
HATCH
  5
F3
330
7D
100
AcDbEntity
  8
0
  6
Continuous
 62
     7
100
AcDbHatch
 10
0.0
 20
0.0
 30
0.0
210
0.0
220
0.0
230
1.0
  2
SOLID
 70
     1
 71
     0
 91
        1
 92
        0
 93
       19
 72
     1
 10
-0.971721018400194
 20
-0.1188931719364279
 11
-0.9349167949111035
 21
-0.1188931719364279
 72
     1
 10
-0.9349167949111035
 20
-0.1188931719364279
 11
-0.9349167949111035
 21
-0.023922406183484
 72
     4
 94
        3
 73
     1
 74
     0
 95
        8
 96
        4
 40
18.0
 40
18.0
 40
18.0
 40
18.0
 40
19.0
 40
19.0
 40
19.0
 40
19.0
 10
-0.9349167949111035
 20
-0.023922406183484
 42
1.0
 10
-0.9349167949111035
 20
-0.0041809109602036
 42
1.0
 10
-0.9509147980824254
 20
0.0118238738996185
 42
1.0
 10
-0.9706495116172059
 20
0.0118238738996185
 42
1.0
 72
     4
 94
        3
 73
     1
 74
     0
 95
        8
 96
        4
 40
0.0
 40
0.0
 40
0.0
 40
0.0
 40
1.0
 40
1.0
 40
1.0
 40
1.0
 10
-0.9706495116172059
 20
0.0118238738996185
 42
1.0
 10
-0.9841111632895563
 20
0.0118238738996185
 42
1.0
 10
-0.9958027942634262
 20
0.0043911433037011
 42
1.0
 10
-1.001899532224858
 20
-0.0065951920661767
 42
1.0
 72
     1
 10
-1.001899532224858
 20
-0.0065951920661767
 11
-1.046462007357863
 21
-0.0853509406158009
 72
     1
 10
-1.046462007357863
 20
-0.0853509406158009
 11
-1.091017700802367
 21
-0.0071173820806709
 72
     4
 94
        3
 73
     1
 74
     0
 95
        8
 96
        4
 40
3.0
 40
3.0
 40
3.0
 40
3.0
 40
4.0
 40
4.0
 40
4.0
 40
4.0
 10
-1.091017700802367
 20
-0.0071173820806709
 42
1.0
 10
-1.097128002140799
 20
0.0038689532892069
 42
1.0
 10
-1.108819633114669
 20
0.0118238738996185
 42
1.0
 10
-1.12227450309852
 20
0.0118238738996185
 42
1.0
 72
     4
 94
        3
 73
     1
 74
     0
 95
        8
 96
        4
 40
4.0
 40
4.0
 40
4.0
 40
4.0
 40
5.0
 40
5.0
 40
5.0
 40
5.0
 10
-1.12227450309852
 20
0.0118238738996185
 42
1.0
 10
-1.1420159983218
 20
0.0118238738996185
 42
1.0
 10
-1.158007219804623
 20
-0.0041809109602036
 42
1.0
 10
-1.158007219804623
 20
-0.023922406183484
 42
1.0
 72
     1
 10
-1.158007219804623
 20
-0.023922406183484
 11
-1.158007219804623
 21
-0.1188931719364279
 72
     1
 10
-1.158007219804623
 20
-0.1188931719364279
 11
-1.121202996315532
 21
-0.1188931719364279
 72
     1
 10
-1.121202996315532
 20
-0.1188931719364279
 11
-1.121202996315532
 21
-0.0399204093548061
 72
     4
 94
        3
 73
     1
 74
     0
 95
        8
 96
        4
 40
8.0
 40
8.0
 40
8.0
 40
8.0
 40
9.0
 40
9.0
 40
9.0
 40
9.0
 10
-1.121202996315532
 20
-0.0399204093548061
 42
1.0
 10
-1.121202996315532
 20
-0.0369229030378394
 42
1.0
 10
-1.118788715209559
 20
-0.0345086219318663
 42
1.0
 10
-1.115784427204092
 20
-0.0345086219318663
 42
1.0
 72
     4
 94
        3
 73
     1
 74
     0
 95
        8
 96
        4
 40
9.0
 40
9.0
 40
9.0
 40
9.0
 40
10.0
 40
10.0
 40
10.0
 40
10.0
 10
-1.115784427204092
 20
-0.0345086219318663
 42
1.0
 10
-1.113716012211615
 20
-0.0345086219318663
 42
1.0
 10
-1.111905301382135
 20
-0.0356682906653534
 42
1.0
 10
-1.111010118500145
 20
-0.0373637127903345
 42
1.0
 72
     1
 10
-1.111010118500145
 20
-0.0373637127903345
 11
-1.064867509946658
 21
-0.1188931719364279
 72
     1
 10
-1.064867509946658
 20
-0.1188931719364279
 11
-1.028063286457567
 21
-0.1188931719364279
 72
     4
 94
        2
 73
     1
 74
     0
 95
        6
 96
        3
 40
12.0
 40
12.0
 40
12.0
 40
13.0
 40
13.0
 40
13.0
 10
-1.028063286457567
 20
-0.1188931719364279
 42
1.0
 10
-0.9818325159535816
 20
-0.0371195720043373
 42
1.0
 10
-0.9816358469870836
 20
-0.0368483044643403
 42
1.0
 72
     4
 94
        3
 73
     1
 74
     0
 95
        8
 96
        4
 40
13.0
 40
13.0
 40
13.0
 40
13.0
 40
14.0
 40
14.0
 40
14.0
 40
14.0
 10
-0.9816358469870836
 20
-0.0368483044643403
 42
1.0
 10
-0.9806457204660948
 20
-0.035437713256356
 42
1.0
 10
-0.9789977701606131
 20
-0.0345086219318663
 42
1.0
 10
-0.9771395875116337
 20
-0.0345086219318663
 42
1.0
 72
     4
 94
        3
 73
     1
 74
     0
 95
        8
 96
        4
 40
14.0
 40
14.0
 40
14.0
 40
14.0
 40
15.0
 40
15.0
 40
15.0
 40
15.0
 10
-0.9771395875116337
 20
-0.0345086219318663
 42
1.0
 10
-0.974148862883167
 20
-0.0345086219318663
 42
1.0
 10
-0.971721018400194
 20
-0.0369229030378394
 42
1.0
 10
-0.971721018400194
 20
-0.0399204093548061
 42
1.0
 72
     1
 10
-0.971721018400194
 20
-0.0399204093548061
 11
-0.971721018400194
 21
-0.1188931719364279
 97
        0
 75
     0
 76
     1
 98
        1
 10
0.0
 20
0.0
  0
HATCH
  5
F4
330
7D
100
AcDbEntity
  8
0
  6
Continuous
 62
     7
100
AcDbHatch
 10
0.0
 20
0.0
 30
0.0
210
0.0
220
0.0
230
1.0
  2
SOLID
 70
     1
 71
     0
 91
        2
 92
        0
 93
       34
 72
     4
 94
        3
 73
     1
 74
     0
 95
        8
 96
        4
 40
8.0
 40
8.0
 40
8.0
 40
8.0
 40
9.0
 40
9.0
 40
9.0
 40
9.0
 10
-0.603210847002792
 20
-0.0304938623399109
 42
1.0
 10
-0.603210847002792
 20
-0.0355055301413552
 42
1.0
 10
-0.6072866417912467
 20
-0.0395609798643101
 42
1.0
 10
-0.612298309592691
 20
-0.0395609798643101
 42
1.0
 72
     1
 10
-0.612298309592691
 20
-0.0395609798643101
 11
-0.7299470416893826
 21
-0.0395609798643101
 72
     1
 10
-0.7299470416893826
 20
-0.0395609798643101
 11
-0.7299470416893826
 21
-0.0884298271947667
 72
     1
 10
-0.7299470416893826
 20
-0.0884298271947667
 11
-0.8734340069707871
 21
-0.0884298271947667
 72
     4
 94
        3
 73
     1
 74
     0
 95
        8
 96
        4
 40
12.0
 40
12.0
 40
12.0
 40
12.0
 40
13.0
 40
13.0
 40
13.0
 40
13.0
 10
-0.8734340069707871
 20
-0.0884298271947667
 42
1.0
 10
-0.8784456747722312
 20
-0.0884298271947667
 42
1.0
 10
-0.8825146878721859
 20
-0.0843065605868125
 42
1.0
 10
-0.8825146878721859
 20
-0.0793016744738682
 42
1.0
 72
     1
 10
-0.8825146878721859
 20
-0.0793016744738682
 11
-0.8825146878721859
 21
-0.0702549020149688
 72
     1
 10
-0.8825146878721859
 20
-0.0702549020149688
 11
-0.7695249757749425
 21
-0.0702549020149688
 72
     4
 94
        3
 73
     1
 74
     0
 95
        8
 96
        4
 40
15.0
 40
15.0
 40
15.0
 40
15.0
 40
16.0
 40
16.0
 40
16.0
 40
16.0
 10
-0.7695249757749425
 20
-0.0702549020149688
 42
1.0
 10
-0.7562803381345898
 20
-0.0702549020149688
 42
1.0
 10
-0.7455381435507094
 20
-0.0595059257425883
 42
1.0
 10
-0.7455381435507094
 20
-0.0462748514792354
 42
1.0
 72
     1
 10
-0.7455381435507094
 20
-0.0462748514792354
 11
-0.7455381435507094
 21
-0.0255228846694662
 72
     4
 94
        3
 73
     1
 74
     0
 95
        8
 96
        4
 40
17.0
 40
17.0
 40
17.0
 40
17.0
 40
18.0
 40
18.0
 40
18.0
 40
18.0
 10
-0.7455381435507094
 20
-0.0255228846694662
 42
1.0
 10
-0.7455381435507094
 20
-0.00630357946068
 42
1.0
 10
-0.7620583367365256
 20
0.0092671773351469
 42
1.0
 10
-0.782444092367299
 20
0.0092671773351469
 42
1.0
 72
     1
 10
-0.782444092367299
 20
0.0092671773351469
 11
-0.7824508740557987
 21
0.0092671773351469
 72
     1
 10
-0.7824508740557987
 20
0.0092671773351469
 11
-0.8823926174791874
 21
0.0092671773351469
 72
     1
 10
-0.8823926174791874
 20
0.0092671773351469
 11
-0.8823993991676873
 21
0.0092671773351469
 72
     4
 94
        3
 73
     1
 74
     0
 95
        8
 96
        4
 40
21.0
 40
21.0
 40
21.0
 40
21.0
 40
22.0
 40
22.0
 40
22.0
 40
22.0
 10
-0.8823993991676873
 20
0.0092671773351469
 42
1.0
 10
-0.9027851547984607
 20
0.0092671773351469
 42
1.0
 10
-0.9193121296727769
 20
-0.00630357946068
 42
1.0
 10
-0.9193121296727769
 20
-0.0255228846694662
 42
1.0
 72
     1
 10
-0.9193121296727769
 20
-0.0255228846694662
 11
-0.9193189113612766
 21
-0.0255567931119658
 72
     1
 10
-0.9193189113612766
 20
-0.0255567931119658
 11
-0.9193189113612766
 21
-0.0842523070788131
 72
     1
 10
-0.9193189113612766
 20
-0.0842523070788131
 11
-0.9193121296727769
 21
-0.0842794338328128
 72
     4
 94
        3
 73
     1
 74
     0
 95
        8
 96
        4
 40
25.0
 40
25.0
 40
25.0
 40
25.0
 40
26.0
 40
26.0
 40
26.0
 40
26.0
 10
-0.9193121296727769
 20
-0.0842794338328128
 42
1.0
 10
-0.9193121296727769
 20
-0.1035123024185989
 42
1.0
 10
-0.9027851547984607
 20
-0.1190830592144258
 42
1.0
 10
-0.8823993991676873
 20
-0.1190830592144258
 42
1.0
 72
     1
 10
-0.8823993991676873
 20
-0.1190830592144258
 11
-0.7299470416893826
 21
-0.1190830592144258
 72
     1
 10
-0.7299470416893826
 20
-0.1190830592144258
 11
-0.693129254823292
 21
-0.1190830592144258
 72
     1
 10
-0.693129254823292
 20
-0.1190830592144258
 11
-0.693129254823292
 21
-0.0702549020149688
 72
     1
 10
-0.693129254823292
 20
-0.0702549020149688
 11
-0.6373363035344125
 21
-0.0702549020149688
 72
     1
 10
-0.6373363035344125
 20
-0.0702549020149688
 11
-0.6055030577157665
 21
-0.1190830592144258
 72
     1
 10
-0.6055030577157665
 20
-0.1190830592144258
 11
-0.5603709207487685
 21
-0.1190830592144258
 72
     1
 10
-0.5603709207487685
 20
-0.1190830592144258
 11
-0.5964223768143675
 21
-0.0702549020149688
 72
     1
 10
-0.5964223768143675
 20
-0.0702549020149688
 11
-0.5904070191149344
 21
-0.0702549020149688
 72
     4
 94
        3
 73
     1
 74
     0
 95
        8
 96
        4
 40
0.0
 40
0.0
 40
0.0
 40
0.0
 40
1.0
 40
1.0
 40
1.0
 40
1.0
 10
-0.5904070191149344
 20
-0.0702549020149688
 42
1.0
 10
-0.5771623814745817
 20
-0.0702549020149688
 42
1.0
 10
-0.5664201868907013
 20
-0.0595059257425883
 42
1.0
 10
-0.5664201868907013
 20
-0.0462748514792354
 42
1.0
 72
     1
 10
-0.5664201868907013
 20
-0.0462748514792354
 11
-0.5664201868907013
 21
-0.0147060915120865
 72
     4
 94
        3
 73
     1
 74
     0
 95
        8
 96
        4
 40
2.0
 40
2.0
 40
2.0
 40
2.0
 40
3.0
 40
3.0
 40
3.0
 40
3.0
 10
-0.5664201868907013
 20
-0.0147060915120865
 42
1.0
 10
-0.5664201868907013
 20
-0.0014614538717338
 42
1.0
 10
-0.5771623814745817
 20
0.0092807407121468
 42
1.0
 10
-0.5904070191149344
 20
0.0092807407121468
 42
1.0
 72
     1
 10
-0.5904070191149344
 20
0.0092807407121468
 11
-0.7299470416893826
 21
0.0092807407121468
 72
     1
 10
-0.7299470416893826
 20
0.0092807407121468
 11
-0.7299470416893826
 21
0.0090908534341489
 72
     1
 10
-0.7299470416893826
 20
0.0090908534341489
 11
-0.7299470416893826
 21
-0.0214199631270118
 72
     1
 10
-0.7299470416893826
 20
-0.0214199631270118
 11
-0.6122779645271912
 21
-0.0214199631270118
 72
     4
 94
        3
 73
     1
 74
     0
 95
        8
 96
        4
 40
7.0
 40
7.0
 40
7.0
 40
7.0
 40
8.0
 40
8.0
 40
8.0
 40
8.0
 10
-0.6122779645271912
 20
-0.0214199631270118
 42
1.0
 10
-0.6072798601027469
 20
-0.0214403081925116
 42
1.0
 10
-0.603210847002792
 20
-0.0254821945384667
 42
1.0
 10
-0.603210847002792
 20
-0.0304938623399109
 42
1.0
 97
        0
 92
        0
 93
        6
 72
     1
 10
-0.8735018238557862
 20
-0.0214267448155118
 11
-0.7913552310561999
 21
-0.0214267448155118
 72
     4
 94
        3
 73
     1
 74
     0
 95
        8
 96
        4
 40
2.0
 40
2.0
 40
2.0
 40
2.0
 40
3.0
 40
3.0
 40
3.0
 40
3.0
 10
-0.7913552310561999
 20
-0.0214267448155118
 42
1.0
 10
-0.7863639083202553
 20
-0.0214674349465113
 42
1.0
 10
-0.7823423670398
 20
-0.0255025396039664
 42
1.0
 10
-0.7823423670398
 20
-0.0304938623399109
 42
1.0
 72
     1
 10
-0.7823423670398
 20
-0.0304938623399109
 11
-0.7823423670398
 21
-0.0395609798643101
 72
     1
 10
-0.7823423670398
 20
-0.0395609798643101
 11
-0.8825146878721859
 21
-0.0395609798643101
 72
     1
 10
-0.8825146878721859
 20
-0.0395609798643101
 11
-0.8825146878721859
 21
-0.0304938623399109
 72
     4
 94
        3
 73
     1
 74
     0
 95
        8
 96
        4
 40
0.0
 40
0.0
 40
0.0
 40
0.0
 40
1.0
 40
1.0
 40
1.0
 40
1.0
 10
-0.8825146878721859
 20
-0.0304938623399109
 42
1.0
 10
-0.8825146878721859
 20
-0.0255025396039664
 42
1.0
 10
-0.8784931465917307
 20
-0.0214674349465113
 42
1.0
 10
-0.8735018238557862
 20
-0.0214267448155118
 42
1.0
 97
        0
 75
     0
 76
     1
 98
        1
 10
0.0
 20
0.0
  0
HATCH
  5
F5
330
7D
100
AcDbEntity
  8
0
  6
Continuous
 62
     7
100
AcDbHatch
 10
0.0
 20
0.0
 30
0.0
210
0.0
220
0.0
230
1.0
  2
SOLID
 70
     1
 71
     0
 91
        1
 92
        0
 93
       18
 72
     4
 94
        3
 73
     1
 74
     0
 95
        8
 96
        4
 40
3.0
 40
3.0
 40
3.0
 40
3.0
 40
4.0
 40
4.0
 40
4.0
 40
4.0
 10
-0.4290638680132287
 20
-0.0702549020149688
 42
1.0
 10
-0.4240725452772842
 20
-0.0702955921459683
 42
1.0
 10
-0.4200849124393285
 20
-0.0743374784919234
 42
1.0
 10
-0.4200849124393285
 20
-0.0793016744738682
 42
1.0
 72
     4
 94
        3
 73
     1
 74
     0
 95
        8
 96
        4
 40
4.0
 40
4.0
 40
4.0
 40
4.0
 40
5.0
 40
5.0
 40
5.0
 40
5.0
 10
-0.4200849124393285
 20
-0.0793016744738682
 42
1.0
 10
-0.4200849124393285
 20
-0.0843065605868125
 42
1.0
 10
-0.4240996720312838
 20
-0.0884298271947667
 42
1.0
 10
-0.4291316848982279
 20
-0.0884298271947667
 42
1.0
 72
     1
 10
-0.4291316848982279
 20
-0.0884298271947667
 11
-0.5447866005759417
 21
-0.0884298271947667
 72
     1
 10
-0.5447866005759417
 20
-0.0884298271947667
 11
-0.5447866005759417
 21
-0.1190830592144258
 72
     1
 10
-0.5447866005759417
 20
-0.1190830592144258
 11
-0.4072539577974712
 21
-0.1190830592144258
 72
     4
 94
        3
 73
     1
 74
     0
 95
        8
 96
        4
 40
8.0
 40
8.0
 40
8.0
 40
8.0
 40
9.0
 40
9.0
 40
9.0
 40
9.0
 10
-0.4072539577974712
 20
-0.1190830592144258
 42
1.0
 10
-0.3939889750916188
 20
-0.1190830592144258
 42
1.0
 10
-0.383246780507738
 20
-0.1083408646305452
 42
1.0
 10
-0.383246780507738
 20
-0.0951030086786924
 42
1.0
 72
     1
 10
-0.383246780507738
 20
-0.0951030086786924
 11
-0.383246780507738
 21
-0.0635478120885434
 72
     4
 94
        3
 73
     1
 74
     0
 95
        8
 96
        4
 40
10.0
 40
10.0
 40
10.0
 40
10.0
 40
11.0
 40
11.0
 40
11.0
 40
11.0
 10
-0.383246780507738
 20
-0.0635478120885434
 42
1.0
 10
-0.383246780507738
 20
-0.0503370828906903
 42
1.0
 10
-0.3939347215836189
 20
-0.0396220150608094
 42
1.0
 10
-0.4071318874044726
 20
-0.0395609798643101
 42
1.0
 72
     1
 10
-0.4071318874044726
 20
-0.0395609798643101
 11
-0.498901696185452
 21
-0.0395609798643101
 72
     4
 94
        3
 73
     1
 74
     0
 95
        8
 96
        4
 40
12.0
 40
12.0
 40
12.0
 40
12.0
 40
13.0
 40
13.0
 40
13.0
 40
13.0
 10
-0.498901696185452
 20
-0.0395609798643101
 42
1.0
 10
-0.5038930189213965
 20
-0.0395609798643101
 42
1.0
 10
-0.507989158775351
 20
-0.0355055301413552
 42
1.0
 10
-0.507989158775351
 20
-0.0304938623399109
 42
1.0
 72
     4
 94
        3
 73
     1
 74
     0
 95
        8
 96
        4
 40
13.0
 40
13.0
 40
13.0
 40
13.0
 40
14.0
 40
14.0
 40
14.0
 40
14.0
 10
-0.507989158775351
 20
-0.0304938623399109
 42
1.0
 10
-0.507989158775351
 20
-0.0254821945384667
 42
1.0
 10
-0.5039201456753962
 20
-0.0214403081925116
 42
1.0
 10
-0.4989288229394518
 20
-0.0214199631270118
 42
1.0
 72
     1
 10
-0.4989288229394518
 20
-0.0214199631270118
 11
-0.383246780507738
 21
-0.0214199631270118
 72
     1
 10
-0.383246780507738
 20
-0.0214199631270118
 11
-0.383246780507738
 21
0.0092807407121468
 72
     1
 10
-0.383246780507738
 20
0.0092807407121468
 11
-0.5207794232862089
 21
0.0092807407121468
 72
     4
 94
        3
 73
     1
 74
     0
 95
        8
 96
        4
 40
17.0
 40
17.0
 40
17.0
 40
17.0
 40
18.0
 40
18.0
 40
18.0
 40
18.0
 10
-0.5207794232862089
 20
0.0092807407121468
 42
1.0
 10
-0.5340308426150613
 20
0.0092807407121468
 42
1.0
 10
-0.5447866005759417
 20
-0.0014614538717338
 42
1.0
 10
-0.5447866005759417
 20
-0.0147060915120865
 42
1.0
 72
     1
 10
-0.5447866005759417
 20
-0.0147060915120865
 11
-0.5447866005759417
 21
-0.0462748514792354
 72
     4
 94
        3
 73
     1
 74
     0
 95
        8
 96
        4
 40
1.0
 40
1.0
 40
1.0
 40
1.0
 40
2.0
 40
2.0
 40
2.0
 40
2.0
 10
-0.5447866005759417
 20
-0.0462748514792354
 42
1.0
 10
-0.5447866005759417
 20
-0.0595059257425883
 42
1.0
 10
-0.5340308426150613
 20
-0.0702549020149688
 42
1.0
 10
-0.5207794232862089
 20
-0.0702549020149688
 42
1.0
 72
     1
 10
-0.5207794232862089
 20
-0.0702549020149688
 11
-0.4290638680132287
 21
-0.0702549020149688
 97
        0
 75
     0
 76
     1
 98
        1
 10
0.0
 20
0.0
  0
HATCH
  5
F6
330
7D
100
AcDbEntity
  8
0
  6
Continuous
 62
     7
100
AcDbHatch
 10
0.0
 20
0.0
 30
0.0
210
0.0
220
0.0
230
1.0
  2
SOLID
 70
     1
 71
     0
 91
        2
 92
        0
 93
       32
 72
     4
 94
        3
 73
     1
 74
     0
 95
        8
 96
        4
 40
30.0
 40
30.0
 40
30.0
 40
30.0
 40
31.0
 40
31.0
 40
31.0
 40
31.0
 10
-0.0357530617716029
 20
-0.1236674806403748
 42
1.0
 10
-0.0160183482368218
 20
-0.1236674806403748
 42
1.0
 10
0.0
 20
-0.1076355690265531
 42
1.0
 10
0.0
 20
-0.0879279822457722
 42
1.0
 72
     1
 10
0.0
 20
-0.0879279822457722
 11
0.0
 21
0.0879279822457722
 72
     1
 10
0.0
 20
0.0879279822457722
 11
-0.0367974418005909
 21
0.064022530283538
 72
     1
 10
-0.0367974418005909
 20
0.064022530283538
 11
-0.0367974418005909
 21
-0.0789218999178724
 72
     4
 94
        3
 73
     1
 74
     0
 95
        8
 96
        4
 40
1.0
 40
1.0
 40
1.0
 40
1.0
 40
2.0
 40
2.0
 40
2.0
 40
2.0
 10
-0.0367974418005909
 20
-0.0789218999178724
 42
1.0
 10
-0.0367974418005909
 20
-0.0819058428578392
 42
1.0
 10
-0.0392388496605639
 20
-0.0843336873408122
 42
1.0
 10
-0.042222792600531
 20
-0.0843336873408122
 42
1.0
 72
     4
 94
        3
 73
     1
 74
     0
 95
        8
 96
        4
 40
2.0
 40
2.0
 40
2.0
 40
2.0
 40
3.0
 40
3.0
 40
3.0
 40
3.0
 10
-0.042222792600531
 20
-0.0843336873408122
 42
1.0
 10
-0.0437012006935137
 20
-0.0843336873408122
 42
1.0
 10
-0.0450439750164989
 20
-0.0837368987528189
 42
1.0
 10
-0.046020538160488
 20
-0.0827874623628294
 42
1.0
 72
     4
 94
        3
 73
     1
 74
     0
 95
        8
 96
        4
 40
3.0
 40
3.0
 40
3.0
 40
3.0
 40
4.0
 40
4.0
 40
4.0
 40
4.0
 10
-0.046020538160488
 20
-0.0827874623628294
 42
1.0
 10
-0.0463053690774849
 20
-0.0824755046918329
 42
1.0
 10
-0.11511238059772
 20
0.0009935173652389
 42
1.0
 10
-0.115261577744718
 20
0.0011901863317367
 42
1.0
 72
     4
 94
        3
 73
     1
 74
     0
 95
        8
 96
        4
 40
4.0
 40
4.0
 40
4.0
 40
4.0
 40
5.0
 40
5.0
 40
5.0
 40
5.0
 10
-0.115261577744718
 20
0.0011901863317367
 42
1.0
 10
-0.121839815589645
 20
0.0089145295331508
 42
1.0
 10
-0.1316461371605359
 20
0.0138244720070962
 42
1.0
 10
-0.1425510922684149
 20
0.0138244720070962
 42
1.0
 72
     4
 94
        3
 73
     1
 74
     0
 95
        8
 96
        4
 40
5.0
 40
5.0
 40
5.0
 40
5.0
 40
6.0
 40
6.0
 40
6.0
 40
6.0
 10
-0.1425510922684149
 20
0.0138244720070962
 42
1.0
 10
-0.1622993691801948
 20
0.0138244720070962
 42
1.0
 10
-0.178304154040017
 20
-0.0021667494757259
 42
1.0
 10
-0.178304154040017
 20
-0.0219082446990064
 42
1.0
 72
     1
 10
-0.178304154040017
 20
-0.0219082446990064
 11
-0.178304154040017
 21
-0.0884298271947667
 72
     1
 10
-0.178304154040017
 20
-0.0884298271947667
 11
-0.3217911193214218
 21
-0.0884298271947667
 72
     4
 94
        3
 73
     1
 74
     0
 95
        8
 96
        4
 40
8.0
 40
8.0
 40
8.0
 40
8.0
 40
9.0
 40
9.0
 40
9.0
 40
9.0
 10
-0.3217911193214218
 20
-0.0884298271947667
 42
1.0
 10
-0.326796005434366
 20
-0.0884298271947667
 42
1.0
 10
-0.330851455157321
 20
-0.0843065605868125
 42
1.0
 10
-0.330851455157321
 20
-0.0793016744738682
 42
1.0
 72
     1
 10
-0.330851455157321
 20
-0.0793016744738682
 11
-0.330851455157321
 21
-0.0702549020149688
 72
     1
 10
-0.330851455157321
 20
-0.0702549020149688
 11
-0.217868524748577
 21
-0.0702549020149688
 72
     4
 94
        3
 73
     1
 74
     0
 95
        8
 96
        4
 40
11.0
 40
11.0
 40
11.0
 40
11.0
 40
12.0
 40
12.0
 40
12.0
 40
12.0
 10
-0.217868524748577
 20
-0.0702549020149688
 42
1.0
 10
-0.204630668796725
 20
-0.0702549020149688
 42
1.0
 10
-0.193874910835844
 20
-0.0595059257425883
 42
1.0
 10
-0.193874910835844
 20
-0.0462748514792354
 42
1.0
 72
     1
 10
-0.193874910835844
 20
-0.0462748514792354
 11
-0.193874910835844
 21
-0.0255228846694662
 72
     4
 94
        3
 73
     1
 74
     0
 95
        8
 96
        4
 40
13.0
 40
13.0
 40
13.0
 40
13.0
 40
14.0
 40
14.0
 40
14.0
 40
14.0
 10
-0.193874910835844
 20
-0.0255228846694662
 42
1.0
 10
-0.193874910835844
 20
-0.00630357946068
 42
1.0
 10
-0.2103951040216598
 20
0.0092671773351469
 42
1.0
 10
-0.2307944230294339
 20
0.0092671773351469
 42
1.0
 72
     1
 10
-0.2307944230294339
 20
0.0092671773351469
 11
-0.3307158213873218
 21
0.0092671773351469
 72
     1
 10
-0.3307158213873218
 20
0.0092671773351469
 11
-0.330742948141322
 21
0.0092671773351469
 72
     4
 94
        3
 73
     1
 74
     0
 95
        8
 96
        4
 40
17.0
 40
17.0
 40
17.0
 40
17.0
 40
18.0
 40
18.0
 40
18.0
 40
18.0
 10
-0.330742948141322
 20
0.0092671773351469
 42
1.0
 10
-0.3511151403950959
 20
0.0092671773351469
 42
1.0
 10
-0.367662460334912
 20
-0.00630357946068
 42
1.0
 10
-0.367662460334912
 20
-0.0255228846694662
 42
1.0
 72
     1
 10
-0.367662460334912
 20
-0.0255228846694662
 11
-0.367662460334912
 21
-0.0255567931119658
 72
     1
 10
-0.367662460334912
 20
-0.0255567931119658
 11
-0.367662460334912
 21
-0.0842523070788131
 72
     1
 10
-0.367662460334912
 20
-0.0842523070788131
 11
-0.367662460334912
 21
-0.0842794338328128
 72
     4
 94
        3
 73
     1
 74
     0
 95
        8
 96
        4
 40
21.0
 40
21.0
 40
21.0
 40
21.0
 40
22.0
 40
22.0
 40
22.0
 40
22.0
 10
-0.367662460334912
 20
-0.0842794338328128
 42
1.0
 10
-0.367662460334912
 20
-0.1035123024185989
 42
1.0
 10
-0.3511151403950959
 20
-0.1190830592144258
 42
1.0
 10
-0.330742948141322
 20
-0.1190830592144258
 42
1.0
 72
     1
 10
-0.330742948141322
 20
-0.1190830592144258
 11
-0.178304154040017
 21
-0.1190830592144258
 72
     1
 10
-0.178304154040017
 20
-0.1190830592144258
 11
-0.178304154040017
 21
-0.2189366406873153
 72
     1
 10
-0.178304154040017
 20
-0.2189366406873153
 11
-0.141493148862427
 21
-0.1950379704135811
 72
     1
 10
-0.141493148862427
 20
-0.1950379704135811
 11
-0.141493148862427
 21
-0.0309143270269063
 72
     4
 94
        3
 73
     1
 74
     0
 95
        8
 96
        4
 40
26.0
 40
26.0
 40
26.0
 40
26.0
 40
27.0
 40
27.0
 40
27.0
 40
27.0
 10
-0.141493148862427
 20
-0.0309143270269063
 42
1.0
 10
-0.141493148862427
 20
-0.0279303840869394
 42
1.0
 10
-0.1390653043794539
 20
-0.0254889762269666
 42
1.0
 10
-0.136081361439487
 20
-0.0254889762269666
 42
1.0
 72
     4
 94
        3
 73
     1
 74
     0
 95
        8
 96
        4
 40
27.0
 40
27.0
 40
27.0
 40
27.0
 40
28.0
 40
28.0
 40
28.0
 40
28.0
 10
-0.136081361439487
 20
-0.0254889762269666
 42
1.0
 10
-0.134508009707504
 20
-0.0254889762269666
 42
1.0
 10
-0.13312454525352
 20
-0.0261468000114593
 42
1.0
 10
-0.132134418732531
 20
-0.0271776166634478
 42
1.0
 72
     4
 94
        2
 73
     1
 74
     0
 95
        6
 96
        3
 40
28.0
 40
28.0
 40
28.0
 40
29.0
 40
29.0
 40
29.0
 10
-0.132134418732531
 20
-0.0271776166634478
 42
1.0
 10
-0.131917404700533
 20
-0.0274081940724453
 42
1.0
 10
-0.0631646466882977
 20
-0.1108093992445178
 42
1.0
 72
     4
 94
        3
 73
     1
 74
     0
 95
        8
 96
        4
 40
29.0
 40
29.0
 40
29.0
 40
29.0
 40
30.0
 40
30.0
 40
30.0
 40
30.0
 10
-0.0631646466882977
 20
-0.1108093992445178
 42
1.0
 10
-0.0566135355973711
 20
-0.1186761579044303
 42
1.0
 10
-0.04676652389548
 20
-0.1236674806403748
 42
1.0
 10
-0.0357530617716029
 20
-0.1236674806403748
 42
1.0
 97
        0
 92
        0
 93
        6
 72
     1
 10
-0.3218453728294209
 20
-0.0214267448155118
 11
-0.2396919983413349
 21
-0.0214267448155118
 72
     4
 94
        3
 73
     1
 74
     0
 95
        8
 96
        4
 40
2.0
 40
2.0
 40
2.0
 40
2.0
 40
3.0
 40
3.0
 40
3.0
 40
3.0
 10
-0.2396919983413349
 20
-0.0214267448155118
 42
1.0
 10
-0.2346871122283899
 20
-0.0214674349465113
 42
1.0
 10
-0.230672352636435
 20
-0.0255025396039664
 42
1.0
 10
-0.230672352636435
 20
-0.0304938623399109
 42
1.0
 72
     1
 10
-0.230672352636435
 20
-0.0304938623399109
 11
-0.230672352636435
 21
-0.0395609798643101
 72
     1
 10
-0.230672352636435
 20
-0.0395609798643101
 11
-0.330851455157321
 21
-0.0395609798643101
 72
     1
 10
-0.330851455157321
 20
-0.0395609798643101
 11
-0.330851455157321
 21
-0.0304938623399109
 72
     4
 94
        3
 73
     1
 74
     0
 95
        8
 96
        4
 40
0.0
 40
0.0
 40
0.0
 40
0.0
 40
1.0
 40
1.0
 40
1.0
 40
1.0
 10
-0.330851455157321
 20
-0.0304938623399109
 42
1.0
 10
-0.330851455157321
 20
-0.0255025396039664
 42
1.0
 10
-0.3268366955653659
 20
-0.0214674349465113
 42
1.0
 10
-0.3218453728294209
 20
-0.0214267448155118
 42
1.0
 97
        0
 75
     0
 76
     1
 98
        1
 10
0.0
 20
0.0
  0
ENDBLK
  5
7F
330
7D
100
AcDbEntity
  8
0
100
AcDbBlockEnd
  0
BLOCK
  5
10B
330
10A
100
AcDbEntity
  8
0
100
AcDbBlockBegin
  2
SW_NOTE_0
 70
     0
 10
0.0
 20
0.0
 30
0.0
  3
SW_NOTE_0
  1

  0
MTEXT
  5
10D
330
10A
100
AcDbEntity
  8
0
  6
Continuous
 62
     0
370
     0
100
AcDbMText
 10
0.8430989583
 20
0.1879890454
 30
0.0
 40
0.1458333333
 41
0.0
 71
     2
 72
     1
  1
A70Q(125-200)-4IL
  7
SLDTEXTSTYLE0
 73
     1
 44
1.0
  0
MTEXT
  5
10F
330
10A
100
AcDbEntity
  8
0
  6
Continuous
 62
     0
370
     0
100
AcDbMText
 10
0.8431831863
 20
-0.2008998388
 30
0.0
 40
0.1458333333
 41
0.0
 71
     2
 72
     1
  1
FORM 101     TYPE 4IL
  7
SLDTEXTSTYLE2
 73
     1
 44
1.0
  0
MTEXT
  5
111
330
10A
100
AcDbEntity
  8
0
  6
Continuous
 62
     0
370
     0
100
AcDbMText
 10
0.8485845393
 20
-0.589788723
 30
0.0
 40
0.1458333333
 41
0.0
 71
     2
 72
     1
  1
125A-200A      700V
  7
SLDTEXTSTYLE3
 73
     1
 44
1.0
  0
ENDBLK
  5
10C
330
10A
100
AcDbEntity
  8
0
100
AcDbBlockEnd
  0
BLOCK
  5
118
330
117
100
AcDbEntity
  8
0
100
AcDbBlockBegin
  2
SW_NOTE_1
 70
     0
 10
0.0
 20
0.0
 30
0.0
  3
SW_NOTE_1
  1

  0
MTEXT
  5
11B
330
117
100
AcDbEntity
  8
0
  6
Continuous
 62
     0
370
    18
100
AcDbMText
 10
0.5928548177
 20
0.1208501006
 30
0.0
 40
0.09375
 41
0.0
 71
     2
 72
     1
  1
OUTLINE DIMENSIONS
  7
SLDTEXTSTYLE4
 73
     1
 44
1.0
  0
MTEXT
  5
11C
330
117
100
AcDbEntity
  8
0
  6
Continuous
 62
     0
370
    18
100
AcDbMText
 10
0.6122053954
 20
-0.0041498979
 30
0.0
 40
0.09375
 41
0.0
 71
     2
 72
     1
  1
NOT TO BE USED FOR PRODUCTION
  7
SLDTEXTSTYLE4
 73
     1
 44
1.0
  0
ENDBLK
  5
119
330
117
100
AcDbEntity
  8
0
100
AcDbBlockEnd
  0
BLOCK
  5
11F
330
11E
100
AcDbEntity
  8
0
100
AcDbBlockBegin
  2
SW_NOTE_2
 70
     0
 10
0.0
 20
0.0
 30
0.0
  3
SW_NOTE_2
  1

  0
MTEXT
  5
122
330
11E
100
AcDbEntity
  8
0
  6
Continuous
 62
     0
370
    18
100
AcDbMText
 10
0.0
 20
0.1208501006
 30
0.0
 40
0.09375
 41
0.0
 71
     1
 72
     1
  1
SIGN:
  7
SLDTEXTSTYLE5
 73
     1
 44
1.0
  0
MTEXT
  5
123
330
11E
100
AcDbEntity
  8
0
  6
Continuous
 62
     0
370
    18
100
AcDbMText
 10
0.0
 20
-0.1291498964
 30
0.0
 40
0.09375
 41
0.0
 71
     1
 72
     1
  1
DATE:
  7
SLDTEXTSTYLE5
 73
     1
 44
1.0
  0
ENDBLK
  5
120
330
11E
100
AcDbEntity
  8
0
100
AcDbBlockEnd
  0
BLOCK
  5
129
330
128
100
AcDbEntity
  8
0
100
AcDbBlockBegin
  2
SW_NOTE_3
 70
     0
 10
0.0
 20
0.0
 30
0.0
  3
SW_NOTE_3
  1

  0
MTEXT
  5
12B
330
128
100
AcDbEntity
  8
0
  6
Continuous
 62
     0
370
    18
100
AcDbMText
 10
0.0
 20
0.1208501006
 30
0.0
 40
0.09375
 41
0.0
 71
     1
 72
     1
  1
SIGN:
  7
SLDTEXTSTYLE5
 73
     1
 44
1.0
  0
MTEXT
  5
12C
330
128
100
AcDbEntity
  8
0
  6
Continuous
 62
     0
370
    18
100
AcDbMText
 10
0.0
 20
-0.1291498964
 30
0.0
 40
0.09375
 41
0.0
 71
     1
 72
     1
  1
DATE:
  7
SLDTEXTSTYLE5
 73
     1
 44
1.0
  0
ENDBLK
  5
12A
330
128
100
AcDbEntity
  8
0
100
AcDbBlockEnd
  0
BLOCK
  5
12F
330
12E
100
AcDbEntity
  8
0
100
AcDbBlockBegin
  2
SW_NOTE_4
 70
     0
 10
0.0
 20
0.0
 30
0.0
  3
SW_NOTE_4
  1

  0
MTEXT
  5
132
330
12E
100
AcDbEntity
  8
0
  6
Continuous
 62
     0
370
    18
100
AcDbMText
 10
0.0
 20
0.0805667337
 30
0.0
 40
0.0625
 41
0.0
 71
     1
 72
     1
  1
MERSEN USA NEWBURYPORT-MA, LLC
  7
SLDTEXTSTYLE7
 73
     1
 44
1.0
  0
MTEXT
  5
133
330
12E
100
AcDbEntity
  8
0
  6
Continuous
 62
     0
370
    18
100
AcDbMText
 10
0.0
 20
-0.0027665986
 30
0.0
 40
0.0625
 41
0.0
 71
     1
 72
     1
  1
374 MERRIMAC STREET
  7
SLDTEXTSTYLE7
 73
     1
 44
1.0
  0
MTEXT
  5
134
330
12E
100
AcDbEntity
  8
0
  6
Continuous
 62
     0
370
    18
100
AcDbMText
 10
0.0
 20
-0.0860999309
 30
0.0
 40
0.0625
 41
0.0
 71
     1
 72
     1
  1
NEWBURYPORT,MA 01950
  7
SLDTEXTSTYLE7
 73
     1
 44
1.0
  0
ENDBLK
  5
130
330
12E
100
AcDbEntity
  8
0
100
AcDbBlockEnd
  0
BLOCK
  5
13A
330
139
100
AcDbEntity
  8
0
100
AcDbBlockBegin
  2
SW_TABLEANNOTATION_0
 70
     0
 10
0.0
 20
0.0
 30
0.0
  3
SW_TABLEANNOTATION_0
  1

  0
LINE
  5
13C
330
139
100
AcDbEntity
  8
0
  6
Continuous
 62
     0
370
    18
100
AcDbLine
 10
0.0
 20
0.0
 30
0.0
 11
0.0
 21
-0.3591344204
 31
0.0
  0
LINE
  5
13D
330
139
100
AcDbEntity
  8
0
  6
Continuous
 62
     0
370
    18
100
AcDbLine
 10
0.0
 20
-0.3591344204
 30
0.0
 11
4.2147893114
 21
-0.3591344204
 31
0.0
  0
LINE
  5
13E
330
139
100
AcDbEntity
  8
0
  6
Continuous
 62
     0
370
    18
100
AcDbLine
 10
4.2147893114
 20
-0.3591344204
 30
0.0
 11
4.2147893114
 21
0.0
 31
0.0
  0
LINE
  5
13F
330
139
100
AcDbEntity
  8
0
  6
Continuous
 62
     0
370
    18
100
AcDbLine
 10
4.2147893114
 20
0.0
 30
0.0
 11
0.0
 21
0.0
 31
0.0
  0
LINE
  5
140
330
139
100
AcDbEntity
  8
0
  6
Continuous
 62
     0
370
    18
100
AcDbLine
 10
0.2685841479
 20
0.0
 30
0.0
 11
0.2685841479
 21
-0.1795672102
 31
0.0
  0
LINE
  5
141
330
139
100
AcDbEntity
  8
0
  6
Continuous
 62
     0
370
    18
100
AcDbLine
 10
0.859135329
 20
0.0
 30
0.0
 11
0.859135329
 21
-0.1795672102
 31
0.0
  0
LINE
  5
142
330
139
100
AcDbEntity
  8
0
  6
Continuous
 62
     0
370
    18
100
AcDbLine
 10
1.4496865101
 20
0.0
 30
0.0
 11
1.4496865101
 21
-0.1795672102
 31
0.0
  0
LINE
  5
143
330
139
100
AcDbEntity
  8
0
  6
Continuous
 62
     0
370
    18
100
AcDbLine
 10
3.4181904471
 20
0.0
 30
0.0
 11
3.4181904471
 21
-0.1795672102
 31
0.0
  0
LINE
  5
144
330
139
100
AcDbEntity
  8
0
  6
Continuous
 62
     0
370
    18
100
AcDbLine
 10
3.6740959589
 20
0.0
 30
0.0
 11
3.6740959589
 21
-0.1795672102
 31
0.0
  0
LINE
  5
145
330
139
100
AcDbEntity
  8
0
  6
Continuous
 62
     0
370
    18
100
AcDbLine
 10
3.9300014707
 20
0.0
 30
0.0
 11
3.9300014707
 21
-0.1795672102
 31
0.0
  0
LINE
  5
146
330
139
100
AcDbEntity
  8
0
  6
Continuous
 62
     0
370
    18
100
AcDbLine
 10
0.2685841479
 20
-0.1795672102
 30
0.0
 11
0.2685841479
 21
-0.3591344204
 31
0.0
  0
LINE
  5
147
330
139
100
AcDbEntity
  8
0
  6
Continuous
 62
     0
370
    18
100
AcDbLine
 10
0.859135329
 20
-0.1795672102
 30
0.0
 11
0.859135329
 21
-0.3591344204
 31
0.0
  0
LINE
  5
148
330
139
100
AcDbEntity
  8
0
  6
Continuous
 62
     0
370
    18
100
AcDbLine
 10
1.4496865101
 20
-0.1795672102
 30
0.0
 11
1.4496865101
 21
-0.3591344204
 31
0.0
  0
LINE
  5
149
330
139
100
AcDbEntity
  8
0
  6
Continuous
 62
     0
370
    18
100
AcDbLine
 10
3.4181904471
 20
-0.1795672102
 30
0.0
 11
3.4181904471
 21
-0.3591344204
 31
0.0
  0
LINE
  5
14A
330
139
100
AcDbEntity
  8
0
  6
Continuous
 62
     0
370
    18
100
AcDbLine
 10
3.6740959589
 20
-0.1795672102
 30
0.0
 11
3.6740959589
 21
-0.3591344204
 31
0.0
  0
LINE
  5
14B
330
139
100
AcDbEntity
  8
0
  6
Continuous
 62
     0
370
    18
100
AcDbLine
 10
3.9300014707
 20
-0.1795672102
 30
0.0
 11
3.9300014707
 21
-0.3591344204
 31
0.0
  0
LINE
  5
14C
330
139
100
AcDbEntity
  8
0
  6
Continuous
 62
     0
370
    18
100
AcDbLine
 10
0.0
 20
-0.1795672102
 30
0.0
 11
4.2147893114
 21
-0.1795672102
 31
0.0
  0
MTEXT
  5
14D
330
139
100
AcDbEntity
  8
0
  6
Continuous
 62
     0
370
    18
100
AcDbMText
 10
0.0208661417
 20
-0.0536117755
 30
0.0
 40
0.0729166667
 41
0.0
 71
     1
 72
     1
  1
REV.
  7
SLDTEXTSTYLE0
 73
     1
 44
1.0
  0
MTEXT
  5
14E
330
139
100
AcDbEntity
  8
0
  6
Continuous
 62
     0
370
    18
100
AcDbMText
 10
0.4342301042
 20
-0.0536117755
 30
0.0
 40
0.0729166667
 41
0.0
 71
     1
 72
     1
  1
DATE
  7
SLDTEXTSTYLE0
 73
     1
 44
1.0
  0
MTEXT
  5
14F
330
139
100
AcDbEntity
  8
0
  6
Continuous
 62
     0
370
    18
100
AcDbMText
 10
1.0490868429
 20
-0.0536117755
 30
0.0
 40
0.0729166667
 41
0.0
 71
     1
 72
     1
  1
ECO
  7
SLDTEXTSTYLE0
 73
     1
 44
1.0
  0
MTEXT
  5
150
330
139
100
AcDbEntity
  8
0
  6
Continuous
 62
     0
370
    18
100
AcDbMText
 10
2.1017625926
 20
-0.0536117755
 30
0.0
 40
0.0729166667
 41
0.0
 71
     1
 72
     1
  1
DESCRIPTION
  7
SLDTEXTSTYLE0
 73
     1
 44
1.0
  0
MTEXT
  5
151
330
139
100
AcDbEntity
  8
0
  6
Continuous
 62
     0
370
    18
100
AcDbMText
 10
3.4813283859
 20
-0.0536117755
 30
0.0
 40
0.0729166667
 41
0.0
 71
     1
 72
     1
  1
BY
  7
SLDTEXTSTYLE0
 73
     1
 44
1.0
  0
MTEXT
  5
152
330
139
100
AcDbEntity
  8
0
  6
Continuous
 62
     0
370
    18
100
AcDbMText
 10
3.7345332822
 20
-0.0536117755
 30
0.0
 40
0.0729166667
 41
0.0
 71
     1
 72
     1
  1
CK
  7
SLDTEXTSTYLE0
 73
     1
 44
1.0
  0
MTEXT
  5
153
330
139
100
AcDbEntity
  8
0
  6
Continuous
 62
     0
370
    18
100
AcDbMText
 10
3.9751731608
 20
-0.0536117755
 30
0.0
 40
0.0729166667
 41
0.0
 71
     1
 72
     1
  1
APP
  7
SLDTEXTSTYLE0
 73
     1
 44
1.0
  0
MTEXT
  5
154
330
139
100
AcDbEntity
  8
0
  6
Continuous
 62
     0
370
    18
100
AcDbMText
 10
0.1180883697
 20
-0.2331789857
 30
0.0
 40
0.0729166667
 41
0.0
 71
     1
 72
     1
  1
-
  7
SLDTEXTSTYLE0
 73
     1
 44
1.0
  0
MTEXT
  5
155
330
139
100
AcDbEntity
  8
0
  6
Continuous
 62
     0
370
    18
100
AcDbMText
 10
0.3748165272
 20
-0.2331789857
 30
0.0
 40
0.0729166667
 41
0.0
 71
     1
 72
     1
  1
10/23/19
  7
SLDTEXTSTYLE0
 73
     1
 44
1.0
  0
MTEXT
  5
156
330
139
100
AcDbEntity
  8
0
  6
Continuous
 62
     0
370
    18
100
AcDbMText
 10
1.0733924004
 20
-0.2331789857
 30
0.0
 40
0.0729166667
 41
0.0
 71
     1
 72
     1
  1
N/A
  7
SLDTEXTSTYLE0
 73
     1
 44
1.0
  0
MTEXT
  5
157
330
139
100
AcDbEntity
  8
0
  6
Continuous
 62
     0
370
    18
100
AcDbMText
 10
2.0315464804
 20
-0.2331789857
 30
0.0
 40
0.0729166667
 41
0.0
 71
     1
 72
     1
  1
INITIAL RELEASE
  7
SLDTEXTSTYLE0
 73
     1
 44
1.0
  0
MTEXT
  5
158
330
139
100
AcDbEntity
  8
0
  6
Continuous
 62
     0
370
    18
100
AcDbMText
 10
3.4381185109
 20
-0.2331789857
 30
0.0
 40
0.0729166667
 41
0.0
 71
     1
 72
     1
  1
GDR
  7
SLDTEXTSTYLE0
 73
     1
 44
1.0
  0
MTEXT
  5
159
330
139
100
AcDbEntity
  8
0
  6
Continuous
 62
     0
370
    18
100
AcDbMText
 10
3.7210301957
 20
-0.2331789857
 30
0.0
 40
0.0729166667
 41
0.0
 71
     1
 72
     1
  1
N/A
  7
SLDTEXTSTYLE0
 73
     1
 44
1.0
  0
MTEXT
  5
15A
330
139
100
AcDbEntity
  8
0
  6
Continuous
 62
     0
370
    18
100
AcDbMText
 10
3.991376872
 20
-0.2331789857
 30
0.0
 40
0.0729166667
 41
0.0
 71
     1
 72
     1
  1
N/A
  7
SLDTEXTSTYLE0
 73
     1
 44
1.0
  0
ENDBLK
  5
13B
330
139
100
AcDbEntity
  8
0
100
AcDbBlockEnd
  0
BLOCK
  5
1B6
330
1B5
100
AcDbEntity
  8
0
100
AcDbBlockBegin
  2
_D
 70
     0
 10
0.0
 20
0.0
 30
0.0
  3
_D
  1

  0
SOLID
  5
1B8
330
1B5
100
AcDbEntity
  8
DATA
 62
     7
100
AcDbTrace
 10
5.4053275862
 20
2.6019109422
 30
0.0
 11
5.3853275862
 21
2.5079109422
 31
0.0
 12
5.4253275862
 22
2.5079109422
 32
0.0
 13
5.4253275862
 23
2.5079109422
 33
0.0
  0
SOLID
  5
1B9
330
1B5
100
AcDbEntity
  8
DATA
 62
     7
100
AcDbTrace
 10
5.4053275862
 20
2.8519109422
 30
0.0
 11
5.4253275862
 21
2.9459109422
 31
0.0
 12
5.3853275862
 22
2.9459109422
 32
0.0
 13
5.3853275862
 23
2.9459109422
 33
0.0
  0
LINE
  5
1BA
330
1B5
100
AcDbEntity
  8
DATA
 62
     7
100
AcDbLine
 10
5.6900394288
 20
2.3366206988
 30
0.0
 11
5.6587894292
 21
2.3366206988
 31
0.0
  0
LINE
  5
1BB
330
1B5
100
AcDbEntity
  8
DATA
 62
     7
100
AcDbLine
 10
5.6587894292
 20
2.3366206988
 30
0.0
 11
5.6587894292
 21
2.1968637566
 31
0.0
  0
LINE
  5
1BC
330
1B5
100
AcDbEntity
  8
DATA
 62
     7
100
AcDbLine
 10
5.6587894292
 20
2.1968637566
 30
0.0
 11
5.6900394288
 21
2.1968637566
 31
0.0
  0
LINE
  5
1BD
330
1B5
100
AcDbEntity
  8
DATA
 62
     7
100
AcDbLine
 10
5.8636505332
 20
2.3366206988
 30
0.0
 11
5.8949005329
 21
2.3366206988
 31
0.0
  0
LINE
  5
1BE
330
1B5
100
AcDbEntity
  8
DATA
 62
     7
100
AcDbLine
 10
5.8949005329
 20
2.3366206988
 30
0.0
 11
5.8949005329
 21
2.1968637566
 31
0.0
  0
LINE
  5
1BF
330
1B5
100
AcDbEntity
  8
DATA
 62
     7
100
AcDbLine
 10
5.8949005329
 20
2.1968637566
 30
0.0
 11
5.8636505332
 21
2.1968637566
 31
0.0
  0
LINE
  5
1C0
330
1B5
100
AcDbEntity
  8
DATA
 62
     7
100
AcDbLine
 10
5.5303275862
 20
2.3366206897
 30
0.0
 11
5.4053275862
 21
2.3366206897
 31
0.0
  0
LINE
  5
1C1
330
1B5
100
AcDbEntity
  8
DATA
 62
     7
100
AcDbLine
 10
5.4053275862
 20
2.3366206897
 30
0.0
 11
5.4053275862
 21
2.6019109422
 31
0.0
  0
LINE
  5
1C2
330
1B5
100
AcDbEntity
  8
DATA
 62
     7
100
AcDbLine
 10
5.4053275862
 20
2.8519109422
 30
0.0
 11
5.4053275862
 21
3.0519109422
 31
0.0
  0
MTEXT
  5
1C3
330
1B5
100
AcDbEntity
  8
DATA
 62
     7
100
AcDbMText
 10
5.6279734578
 20
2.4783041302
 30
0.0
 40
0.09375
 41
0.0
 71
     1
 72
     1
  1

  7
SLDTEXTSTYLE0
 73
     1
 44
1.0
  0
MTEXT
  5
1C4
330
1B5
100
AcDbEntity
  8
DATA
 62
     7
100
AcDbMText
 10
5.6900394242
 20
2.4783041302
 30
0.0
 40
0.09375
 41
0.0
 71
     1
 72
     1
  1
.25
  7
SLDTEXTSTYLE0
 73
     1
 44
1.0
  0
MTEXT
  5
1C5
330
1B5
100
AcDbEntity
  8
DATA
 62
     7
100
AcDbMText
 10
5.6900394288
 20
2.3177138595
 30
0.0
 40
0.09375
 41
0.0
 71
     1
 72
     1
  1
6.4
  7
SLDTEXTSTYLE0
 73
     1
 44
1.0
  0
MTEXT
  5
1C6
330
1B5
100
AcDbEntity
  8
DATA
 62
     7
100
AcDbMText
 10
5.9613067871
 20
2.4783041302
 30
0.0
 40
0.09375
 41
0.0
 71
     1
 72
     1
  1

  7
SLDTEXTSTYLE0
 73
     1
 44
1.0
  0
ENDBLK
  5
1B7
330
1B5
100
AcDbEntity
  8
0
100
AcDbBlockEnd
  0
BLOCK
  5
1CA
330
1C9
100
AcDbEntity
  8
0
100
AcDbBlockBegin
  2
_D_1
 70
     0
 10
0.0
 20
0.0
 30
0.0
  3
_D_1
  1

  0
SOLID
  5
1CC
330
1C9
100
AcDbEntity
  8
DATA
 62
     7
100
AcDbTrace
 10
6.5223387184
 20
3.9109109422
 30
0.0
 11
6.5023387184
 21
3.8169109422
 31
0.0
 12
6.5423387184
 22
3.8169109422
 32
0.0
 13
6.5423387184
 23
3.8169109422
 33
0.0
  0
SOLID
  5
1CD
330
1C9
100
AcDbEntity
  8
DATA
 62
     7
100
AcDbTrace
 10
6.5223387184
 20
1.9769109422
 30
0.0
 11
6.5423387184
 21
2.0709109422
 31
0.0
 12
6.5023387184
 22
2.0709109422
 32
0.0
 13
6.5023387184
 23
2.0709109422
 33
0.0
  0
LINE
  5
1CE
330
1C9
100
AcDbEntity
  8
DATA
 62
     7
100
AcDbLine
 10
6.4008109398
 20
2.9439109513
 30
0.0
 11
6.3695609402
 21
2.9439109513
 31
0.0
  0
LINE
  5
1CF
330
1C9
100
AcDbEntity
  8
DATA
 62
     7
100
AcDbLine
 10
6.3695609402
 20
2.9439109513
 30
0.0
 11
6.3695609402
 21
2.8041540092
 31
0.0
  0
LINE
  5
1D0
330
1C9
100
AcDbEntity
  8
DATA
 62
     7
100
AcDbLine
 10
6.3695609402
 20
2.8041540092
 30
0.0
 11
6.4008109398
 21
2.8041540092
 31
0.0
  0
LINE
  5
1D1
330
1C9
100
AcDbEntity
  8
DATA
 62
     7
100
AcDbLine
 10
6.6438664787
 20
2.9439109513
 30
0.0
 11
6.6751164783
 21
2.9439109513
 31
0.0
  0
LINE
  5
1D2
330
1C9
100
AcDbEntity
  8
DATA
 62
     7
100
AcDbLine
 10
6.6751164783
 20
2.9439109513
 30
0.0
 11
6.6751164783
 21
2.8041540092
 31
0.0
  0
LINE
  5
1D3
330
1C9
100
AcDbEntity
  8
DATA
 62
     7
100
AcDbLine
 10
6.6751164783
 20
2.8041540092
 30
0.0
 11
6.6438664787
 21
2.8041540092
 31
0.0
  0
LINE
  5
1D4
330
1C9
100
AcDbEntity
  8
DATA
 62
     7
100
AcDbLine
 10
3.9634899262
 20
3.9109109422
 30
0.0
 11
6.6473387184
 21
3.9109109422
 31
0.0
  0
LINE
  5
1D5
330
1C9
100
AcDbEntity
  8
DATA
 62
     7
100
AcDbLine
 10
4.613637931
 20
1.9769109422
 30
0.0
 11
6.6473387184
 21
1.9769109422
 31
0.0
  0
LINE
  5
1D6
330
1C9
100
AcDbEntity
  8
DATA
 62
     7
100
AcDbLine
 10
6.5223387184
 20
3.9109109422
 30
0.0
 11
6.5223387184
 21
3.104501222
 31
0.0
  0
LINE
  5
1D7
330
1C9
100
AcDbEntity
  8
DATA
 62
     7
100
AcDbLine
 10
6.5223387184
 20
1.9769109422
 30
0.0
 11
6.5223387184
 21
2.7833206623
 31
0.0
  0
MTEXT
  5
1D8
330
1C9
100
AcDbEntity
  8
DATA
 62
     7
100
AcDbMText
 10
6.3387449688
 20
3.0855943827
 30
0.0
 40
0.09375
 41
0.0
 71
     1
 72
     1
  1

  7
SLDTEXTSTYLE0
 73
     1
 44
1.0
  0
MTEXT
  5
1D9
330
1C9
100
AcDbEntity
  8
DATA
 62
     7
100
AcDbMText
 10
6.4008109353
 20
3.0855943827
 30
0.0
 40
0.09375
 41
0.0
 71
     1
 72
     1
  1
1.93
  7
SLDTEXTSTYLE0
 73
     1
 44
1.0
  0
MTEXT
  5
1DA
330
1C9
100
AcDbEntity
  8
DATA
 62
     7
100
AcDbMText
 10
6.4008109398
 20
2.925004112
 30
0.0
 40
0.09375
 41
0.0
 71
     1
 72
     1
  1
49.1
  7
SLDTEXTSTYLE0
 73
     1
 44
1.0
  0
MTEXT
  5
1DB
330
1C9
100
AcDbEntity
  8
DATA
 62
     7
100
AcDbMText
 10
6.7415227325
 20
3.0855943827
 30
0.0
 40
0.09375
 41
0.0
 71
     1
 72
     1
  1

  7
SLDTEXTSTYLE0
 73
     1
 44
1.0
  0
ENDBLK
  5
1CB
330
1C9
100
AcDbEntity
  8
0
100
AcDbBlockEnd
  0
BLOCK
  5
1DE
330
1DD
100
AcDbEntity
  8
0
100
AcDbBlockBegin
  2
_D_2
 70
     0
 10
0.0
 20
0.0
 30
0.0
  3
_D_2
  1

  0
SOLID
  5
1E0
330
1DD
100
AcDbEntity
  8
DATA
 62
     7
100
AcDbTrace
 10
5.4053275862
 20
3.9109109422
 30
0.0
 11
5.4253275862
 21
4.0049109422
 31
0.0
 12
5.3853275862
 22
4.0049109422
 32
0.0
 13
5.3853275862
 23
4.0049109422
 33
0.0
  0
SOLID
  5
1E1
330
1DD
100
AcDbEntity
  8
DATA
 62
     7
100
AcDbTrace
 10
5.4053275862
 20
3.4769109422
 30
0.0
 11
5.3853275862
 21
3.3829109422
 31
0.0
 12
5.4253275862
 22
3.3829109422
 32
0.0
 13
5.4253275862
 23
3.3829109422
 33
0.0
  0
LINE
  5
1E2
330
1DD
100
AcDbEntity
  8
DATA
 62
     7
100
AcDbLine
 10
5.3358831426
 20
3.6939109513
 30
0.0
 11
5.304633143
 21
3.6939109513
 31
0.0
  0
LINE
  5
1E3
330
1DD
100
AcDbEntity
  8
DATA
 62
     7
100
AcDbLine
 10
5.304633143
 20
3.6939109513
 30
0.0
 11
5.304633143
 21
3.5541540092
 31
0.0
  0
LINE
  5
1E4
330
1DD
100
AcDbEntity
  8
DATA
 62
     7
100
AcDbLine
 10
5.304633143
 20
3.5541540092
 30
0.0
 11
5.3358831426
 21
3.5541540092
 31
0.0
  0
LINE
  5
1E5
330
1DD
100
AcDbEntity
  8
DATA
 62
     7
100
AcDbLine
 10
5.4747720298
 20
3.6939109513
 30
0.0
 11
5.5060220294
 21
3.6939109513
 31
0.0
  0
LINE
  5
1E6
330
1DD
100
AcDbEntity
  8
DATA
 62
     7
100
AcDbLine
 10
5.5060220294
 20
3.6939109513
 30
0.0
 11
5.5060220294
 21
3.5541540092
 31
0.0
  0
LINE
  5
1E7
330
1DD
100
AcDbEntity
  8
DATA
 62
     7
100
AcDbLine
 10
5.5060220294
 20
3.5541540092
 30
0.0
 11
5.4747720298
 21
3.5541540092
 31
0.0
  0
LINE
  5
1E8
330
1DD
100
AcDbEntity
  8
DATA
 62
     7
100
AcDbLine
 10
3.9634899262
 20
3.9109109422
 30
0.0
 11
5.5303275862
 21
3.9109109422
 31
0.0
  0
LINE
  5
1E9
330
1DD
100
AcDbEntity
  8
DATA
 62
     7
100
AcDbLine
 10
4.613637931
 20
3.4769109422
 30
0.0
 11
5.5303275862
 21
3.4769109422
 31
0.0
  0
LINE
  5
1EA
330
1DD
100
AcDbEntity
  8
DATA
 62
     7
100
AcDbLine
 10
5.4053275862
 20
3.9109109422
 30
0.0
 11
5.4053275862
 21
4.1109109422
 31
0.0
  0
LINE
  5
1EB
330
1DD
100
AcDbEntity
  8
DATA
 62
     7
100
AcDbLine
 10
5.4053275862
 20
3.4769109422
 30
0.0
 11
5.4053275862
 21
3.2769109422
 31
0.0
  0
MTEXT
  5
1EC
330
1DD
100
AcDbEntity
  8
DATA
 62
     7
100
AcDbMText
 10
5.2738171716
 20
3.8355943827
 30
0.0
 40
0.09375
 41
0.0
 71
     1
 72
     1
  1

  7
SLDTEXTSTYLE0
 73
     1
 44
1.0
  0
MTEXT
  5
1ED
330
1DD
100
AcDbEntity
  8
DATA
 62
     7
100
AcDbMText
 10
5.3185220386
 20
3.8355943827
 30
0.0
 40
0.09375
 41
0.0
 71
     1
 72
     1
  1
.43
  7
SLDTEXTSTYLE0
 73
     1
 44
1.0
  0
MTEXT
  5
1EE
330
1DD
100
AcDbEntity
  8
DATA
 62
     7
100
AcDbMText
 10
5.3358831426
 20
3.675004112
 30
0.0
 40
0.09375
 41
0.0
 71
     1
 72
     1
  1
11
  7
SLDTEXTSTYLE0
 73
     1
 44
1.0
  0
MTEXT
  5
1EF
330
1DD
100
AcDbEntity
  8
DATA
 62
     7
100
AcDbMText
 10
5.5724282836
 20
3.8355943827
 30
0.0
 40
0.09375
 41
0.0
 71
     1
 72
     1
  1

  7
SLDTEXTSTYLE0
 73
     1
 44
1.0
  0
ENDBLK
  5
1DF
330
1DD
100
AcDbEntity
  8
0
100
AcDbBlockEnd
  0
BLOCK
  5
262
330
261
100
AcDbEntity
  8
0
100
AcDbBlockBegin
  2
_D_3
 70
     0
 10
0.0
 20
0.0
 30
0.0
  3
_D_3
  1

  0
SOLID
  5
264
330
261
100
AcDbEntity
  8
DATA
 62
     7
100
AcDbTrace
 10
8.3326034483
 20
4.5420448004
 30
0.0
 11
8.4266034483
 21
4.5220448004
 31
0.0
 12
8.4266034483
 22
4.5620448004
 32
0.0
 13
8.4266034483
 23
4.5620448004
 33
0.0
  0
SOLID
  5
265
330
261
100
AcDbEntity
  8
DATA
 62
     7
100
AcDbTrace
 10
9.8326034483
 20
4.5420448004
 30
0.0
 11
9.7386034483
 21
4.5620448004
 31
0.0
 12
9.7386034483
 22
4.5220448004
 32
0.0
 13
9.7386034483
 23
4.5220448004
 33
0.0
  0
LINE
  5
266
330
261
100
AcDbEntity
  8
DATA
 62
     7
100
AcDbLine
 10
8.9610756834
 20
4.5494232769
 30
0.0
 11
8.9298256838
 21
4.5494232769
 31
0.0
  0
LINE
  5
267
330
261
100
AcDbEntity
  8
DATA
 62
     7
100
AcDbLine
 10
8.9298256838
 20
4.5494232769
 30
0.0
 11
8.9298256838
 21
4.4096663347
 31
0.0
  0
LINE
  5
268
330
261
100
AcDbEntity
  8
DATA
 62
     7
100
AcDbLine
 10
8.9298256838
 20
4.4096663347
 30
0.0
 11
8.9610756834
 21
4.4096663347
 31
0.0
  0
LINE
  5
269
330
261
100
AcDbEntity
  8
DATA
 62
     7
100
AcDbLine
 10
9.2041312223
 20
4.5494232769
 30
0.0
 11
9.2353812219
 21
4.5494232769
 31
0.0
  0
LINE
  5
26A
330
261
100
AcDbEntity
  8
DATA
 62
     7
100
AcDbLine
 10
9.2353812219
 20
4.5494232769
 30
0.0
 11
9.2353812219
 21
4.4096663347
 31
0.0
  0
LINE
  5
26B
330
261
100
AcDbEntity
  8
DATA
 62
     7
100
AcDbLine
 10
9.2353812219
 20
4.4096663347
 30
0.0
 11
9.2041312223
 21
4.4096663347
 31
0.0
  0
LINE
  5
26C
330
261
100
AcDbEntity
  8
DATA
 62
     7
100
AcDbLine
 10
8.3326034483
 20
2.7769109422
 30
0.0
 11
8.3326034483
 21
4.6670448004
 31
0.0
  0
LINE
  5
26D
330
261
100
AcDbEntity
  8
DATA
 62
     7
100
AcDbLine
 10
9.8326034483
 20
2.7769109422
 30
0.0
 11
9.8326034483
 21
4.6670448004
 31
0.0
  0
LINE
  5
26E
330
261
100
AcDbEntity
  8
DATA
 62
     7
100
AcDbLine
 10
8.3326034483
 20
4.5420448004
 30
0.0
 11
8.8738612602
 21
4.5420448004
 31
0.0
  0
LINE
  5
26F
330
261
100
AcDbEntity
  8
DATA
 62
     7
100
AcDbLine
 10
9.8326034483
 20
4.5420448004
 30
0.0
 11
9.2913456363
 21
4.5420448004
 31
0.0
  0
MTEXT
  5
270
330
261
100
AcDbEntity
  8
DATA
 62
     7
100
AcDbMText
 10
8.8946911341
 20
4.6911067083
 30
0.0
 40
0.09375
 41
0.0
 71
     1
 72
     1
  1
%%c
  7
SLDTEXTSTYLE0
 73
     1
 44
1.0
  0
MTEXT
  5
271
330
261
100
AcDbEntity
  8
DATA
 62
     7
100
AcDbMText
 10
9.0274602328
 20
4.6911067083
 30
0.0
 40
0.09375
 41
0.0
 71
     1
 72
     1
  1
1.50
  7
SLDTEXTSTYLE0
 73
     1
 44
1.0
  0
MTEXT
  5
272
330
261
100
AcDbEntity
  8
DATA
 62
     7
100
AcDbMText
 10
8.9610756834
 20
4.5305164376
 30
0.0
 40
0.09375
 41
0.0
 71
     1
 72
     1
  1
38.1
  7
SLDTEXTSTYLE0
 73
     1
 44
1.0
  0
ENDBLK
  5
263
330
261
100
AcDbEntity
  8
0
100
AcDbBlockEnd
  0
BLOCK
  5
274
330
273
100
AcDbEntity
  8
0
100
AcDbBlockBegin
  2
SW_CENTERMARKSYMBOL_0
 70
     0
 10
0.0
 20
0.0
 30
0.0
  3
SW_CENTERMARKSYMBOL_0
  1

  0
LINE
  5
276
330
273
100
AcDbEntity
  8
DATA
 62
     0
100
AcDbLine
 10
0.0
 20
0.0
 30
0.0
 11
0.0
 21
0.1
 31
0.0
  0
LINE
  5
277
330
273
100
AcDbEntity
  8
DATA
 62
     0
100
AcDbLine
 10
0.0
 20
0.0
 30
0.0
 11
-0.1
 21
0.0
 31
0.0
  0
LINE
  5
278
330
273
100
AcDbEntity
  8
DATA
 62
     0
100
AcDbLine
 10
0.0
 20
0.0
 30
0.0
 11
0.0
 21
-0.1
 31
0.0
  0
LINE
  5
279
330
273
100
AcDbEntity
  8
DATA
 62
     0
100
AcDbLine
 10
0.0
 20
0.0
 30
0.0
 11
0.1
 21
0.0
 31
0.0
  0
LINE
  5
27A
330
273
100
AcDbEntity
  8
DATA
 62
     0
100
AcDbLine
 10
0.0
 20
0.2
 30
0.0
 11
0.0
 21
0.85
 31
0.0
  0
LINE
  5
27B
330
273
100
AcDbEntity
  8
DATA
 62
     0
100
AcDbLine
 10
-0.2
 20
0.0
 30
0.0
 11
-0.85
 21
0.0
 31
0.0
  0
LINE
  5
27C
330
273
100
AcDbEntity
  8
DATA
 62
     0
100
AcDbLine
 10
0.0
 20
-0.2
 30
0.0
 11
0.0
 21
-0.85
 31
0.0
  0
LINE
  5
27D
330
273
100
AcDbEntity
  8
DATA
 62
     0
100
AcDbLine
 10
0.2
 20
0.0
 30
0.0
 11
0.85
 21
0.0
 31
0.0
  0
ENDBLK
  5
275
330
273
100
AcDbEntity
  8
0
100
AcDbBlockEnd
  0
BLOCK
  5
2EC
330
2EB
100
AcDbEntity
  8
0
100
AcDbBlockBegin
  2
_D_4
 70
     0
 10
0.0
 20
0.0
 30
0.0
  3
_D_4
  1

  0
SOLID
  5
2EE
330
2EB
100
AcDbEntity
  8
DATA
 62
     7
100
AcDbTrace
 10
2.599637931
 20
5.4159655172
 30
0.0
 11
2.693637931
 21
5.3959655172
 31
0.0
 12
2.693637931
 22
5.4359655172
 32
0.0
 13
2.693637931
 23
5.4359655172
 33
0.0
  0
SOLID
  5
2EF
330
2EB
100
AcDbEntity
  8
DATA
 62
     7
100
AcDbTrace
 10
4.563637931
 20
5.4159655172
 30
0.0
 11
4.469637931
 21
5.4359655172
 31
0.0
 12
4.469637931
 22
5.3959655172
 32
0.0
 13
4.469637931
 23
5.3959655172
 33
0.0
  0
LINE
  5
2F0
330
2EB
100
AcDbEntity
  8
DATA
 62
     7
100
AcDbLine
 10
3.440179118
 20
5.4159655264
 30
0.0
 11
3.4089291183
 21
5.4159655264
 31
0.0
  0
LINE
  5
2F1
330
2EB
100
AcDbEntity
  8
DATA
 62
     7
100
AcDbLine
 10
3.4089291183
 20
5.4159655264
 30
0.0
 11
3.4089291183
 21
5.2762085842
 31
0.0
  0
LINE
  5
2F2
330
2EB
100
AcDbEntity
  8
DATA
 62
     7
100
AcDbLine
 10
3.4089291183
 20
5.2762085842
 30
0.0
 11
3.440179118
 21
5.2762085842
 31
0.0
  0
LINE
  5
2F3
330
2EB
100
AcDbEntity
  8
DATA
 62
     7
100
AcDbLine
 10
3.6832346568
 20
5.4159655264
 30
0.0
 11
3.7144846564
 21
5.4159655264
 31
0.0
  0
LINE
  5
2F4
330
2EB
100
AcDbEntity
  8
DATA
 62
     7
100
AcDbLine
 10
3.7144846564
 20
5.4159655264
 30
0.0
 11
3.7144846564
 21
5.2762085842
 31
0.0
  0
LINE
  5
2F5
330
2EB
100
AcDbEntity
  8
DATA
 62
     7
100
AcDbLine
 10
3.7144846564
 20
5.2762085842
 30
0.0
 11
3.6832346568
 21
5.2762085842
 31
0.0
  0
LINE
  5
2F6
330
2EB
100
AcDbEntity
  8
DATA
 62
     7
100
AcDbLine
 10
2.599637931
 20
5.6424137931
 30
0.0
 11
2.599637931
 21
5.2909655172
 31
0.0
  0
LINE
  5
2F7
330
2EB
100
AcDbEntity
  8
DATA
 62
     7
100
AcDbLine
 10
4.563637931
 20
5.6424137931
 30
0.0
 11
4.563637931
 21
5.2909655172
 31
0.0
  0
LINE
  5
2F8
330
2EB
100
AcDbEntity
  8
DATA
 62
     7
100
AcDbLine
 10
2.599637931
 20
5.4159655172
 30
0.0
 11
3.3221270231
 21
5.4159655172
 31
0.0
  0
LINE
  5
2F9
330
2EB
100
AcDbEntity
  8
DATA
 62
     7
100
AcDbLine
 10
4.563637931
 20
5.4159655172
 30
0.0
 11
3.8012867701
 21
5.4159655172
 31
0.0
  0
MTEXT
  5
2FA
330
2EB
100
AcDbEntity
  8
DATA
 62
     7
100
AcDbMText
 10
3.3781131469
 20
5.5576489578
 30
0.0
 40
0.09375
 41
0.0
 71
     1
 72
     1
  1

  7
SLDTEXTSTYLE0
 73
     1
 44
1.0
  0
MTEXT
  5
2FB
330
2EB
100
AcDbEntity
  8
DATA
 62
     7
100
AcDbMText
 10
3.4401791134
 20
5.5576489578
 30
0.0
 40
0.09375
 41
0.0
 71
     1
 72
     1
  1
1.96
  7
SLDTEXTSTYLE0
 73
     1
 44
1.0
  0
MTEXT
  5
2FC
330
2EB
100
AcDbEntity
  8
DATA
 62
     7
100
AcDbMText
 10
3.440179118
 20
5.3970586871
 30
0.0
 40
0.09375
 41
0.0
 71
     1
 72
     1
  1
49.9
  7
SLDTEXTSTYLE0
 73
     1
 44
1.0
  0
MTEXT
  5
2FD
330
2EB
100
AcDbEntity
  8
DATA
 62
     7
100
AcDbMText
 10
3.7808909106
 20
5.5576489578
 30
0.0
 40
0.09375
 41
0.0
 71
     1
 72
     1
  1

  7
SLDTEXTSTYLE0
 73
     1
 44
1.0
  0
ENDBLK
  5
2ED
330
2EB
100
AcDbEntity
  8
0
100
AcDbBlockEnd
  0
BLOCK
  5
300
330
2FF
100
AcDbEntity
  8
0
100
AcDbBlockBegin
  2
_D_5
 70
     0
 10
0.0
 20
0.0
 30
0.0
  3
_D_5
  1

  0
SOLID
  5
302
330
2FF
100
AcDbEntity
  8
DATA
 62
     7
100
AcDbTrace
 10
5.034637931
 20
5.0624925333
 30
0.0
 11
4.940637931
 21
5.0824925333
 31
0.0
 12
4.940637931
 22
5.0424925333
 32
0.0
 13
4.940637931
 23
5.0424925333
 33
0.0
  0
SOLID
  5
303
330
2FF
100
AcDbEntity
  8
DATA
 62
     7
100
AcDbTrace
 10
2.128637931
 20
5.0624925333
 30
0.0
 11
2.222637931
 21
5.0424925333
 31
0.0
 12
2.222637931
 22
5.0824925333
 32
0.0
 13
2.222637931
 23
5.0824925333
 33
0.0
  0
LINE
  5
304
330
2FF
100
AcDbEntity
  8
DATA
 62
     7
100
AcDbLine
 10
3.440179118
 20
5.0624925424
 30
0.0
 11
3.4089291183
 21
5.0624925424
 31
0.0
  0
LINE
  5
305
330
2FF
100
AcDbEntity
  8
DATA
 62
     7
100
AcDbLine
 10
3.4089291183
 20
5.0624925424
 30
0.0
 11
3.4089291183
 21
4.9227356002
 31
0.0
  0
LINE
  5
306
330
2FF
100
AcDbEntity
  8
DATA
 62
     7
100
AcDbLine
 10
3.4089291183
 20
4.9227356002
 30
0.0
 11
3.440179118
 21
4.9227356002
 31
0.0
  0
LINE
  5
307
330
2FF
100
AcDbEntity
  8
DATA
 62
     7
100
AcDbLine
 10
3.6832346568
 20
5.0624925424
 30
0.0
 11
3.7144846564
 21
5.0624925424
 31
0.0
  0
LINE
  5
308
330
2FF
100
AcDbEntity
  8
DATA
 62
     7
100
AcDbLine
 10
3.7144846564
 20
5.0624925424
 30
0.0
 11
3.7144846564
 21
4.9227356002
 31
0.0
  0
LINE
  5
309
330
2FF
100
AcDbEntity
  8
DATA
 62
     7
100
AcDbLine
 10
3.7144846564
 20
4.9227356002
 30
0.0
 11
3.6832346568
 21
4.9227356002
 31
0.0
  0
LINE
  5
30A
330
2FF
100
AcDbEntity
  8
DATA
 62
     7
100
AcDbLine
 10
5.034637931
 20
6.0894137931
 30
0.0
 11
5.034637931
 21
4.9374925333
 31
0.0
  0
LINE
  5
30B
330
2FF
100
AcDbEntity
  8
DATA
 62
     7
100
AcDbLine
 10
2.128637931
 20
6.0894137931
 30
0.0
 11
2.128637931
 21
4.9374925333
 31
0.0
  0
LINE
  5
30C
330
2FF
100
AcDbEntity
  8
DATA
 62
     7
100
AcDbLine
 10
5.034637931
 20
5.0624925333
 30
0.0
 11
3.8012867701
 21
5.0624925333
 31
0.0
  0
LINE
  5
30D
330
2FF
100
AcDbEntity
  8
DATA
 62
     7
100
AcDbLine
 10
2.128637931
 20
5.0624925333
 30
0.0
 11
3.3221270231
 21
5.0624925333
 31
0.0
  0
MTEXT
  5
30E
330
2FF
100
AcDbEntity
  8
DATA
 62
     7
100
AcDbMText
 10
3.3781131469
 20
5.2041759738
 30
0.0
 40
0.09375
 41
0.0
 71
     1
 72
     1
  1

  7
SLDTEXTSTYLE0
 73
     1
 44
1.0
  0
MTEXT
  5
30F
330
2FF
100
AcDbEntity
  8
DATA
 62
     7
100
AcDbMText
 10
3.4401791134
 20
5.2041759738
 30
0.0
 40
0.09375
 41
0.0
 71
     1
 72
     1
  1
2.91
  7
SLDTEXTSTYLE0
 73
     1
 44
1.0
  0
MTEXT
  5
310
330
2FF
100
AcDbEntity
  8
DATA
 62
     7
100
AcDbMText
 10
3.440179118
 20
5.0435857031
 30
0.0
 40
0.09375
 41
0.0
 71
     1
 72
     1
  1
73.8
  7
SLDTEXTSTYLE0
 73
     1
 44
1.0
  0
MTEXT
  5
311
330
2FF
100
AcDbEntity
  8
DATA
 62
     7
100
AcDbMText
 10
3.7808909106
 20
5.2041759738
 30
0.0
 40
0.09375
 41
0.0
 71
     1
 72
     1
  1

  7
SLDTEXTSTYLE0
 73
     1
 44
1.0
  0
ENDBLK
  5
301
330
2FF
100
AcDbEntity
  8
0
100
AcDbBlockEnd
  0
BLOCK
  5
314
330
313
100
AcDbEntity
  8
0
100
AcDbBlockBegin
  2
_D_6
 70
     0
 10
0.0
 20
0.0
 30
0.0
  3
_D_6
  1

  0
SOLID
  5
316
330
313
100
AcDbEntity
  8
DATA
 62
     7
100
AcDbTrace
 10
5.659637931
 20
4.6884827586
 30
0.0
 11
5.565637931
 21
4.7084827586
 31
0.0
 12
5.565637931
 22
4.6684827586
 32
0.0
 13
5.565637931
 23
4.6684827586
 33
0.0
  0
SOLID
  5
317
330
313
100
AcDbEntity
  8
DATA
 62
     7
100
AcDbTrace
 10
1.503637931
 20
4.6884827586
 30
0.0
 11
1.597637931
 21
4.6684827586
 31
0.0
 12
1.597637931
 22
4.7084827586
 32
0.0
 13
1.597637931
 23
4.7084827586
 33
0.0
  0
LINE
  5
318
330
313
100
AcDbEntity
  8
DATA
 62
     7
100
AcDbLine
 10
3.4253879169
 20
4.6884827678
 30
0.0
 11
3.3941379173
 21
4.6884827678
 31
0.0
  0
LINE
  5
319
330
313
100
AcDbEntity
  8
DATA
 62
     7
100
AcDbLine
 10
3.3941379173
 20
4.6884827678
 30
0.0
 11
3.3941379173
 21
4.5487258256
 31
0.0
  0
LINE
  5
31A
330
313
100
AcDbEntity
  8
DATA
 62
     7
100
AcDbLine
 10
3.3941379173
 20
4.5487258256
 30
0.0
 11
3.4253879169
 21
4.5487258256
 31
0.0
  0
LINE
  5
31B
330
313
100
AcDbEntity
  8
DATA
 62
     7
100
AcDbLine
 10
3.7378879269
 20
4.6884827678
 30
0.0
 11
3.7691379265
 21
4.6884827678
 31
0.0
  0
LINE
  5
31C
330
313
100
AcDbEntity
  8
DATA
 62
     7
100
AcDbLine
 10
3.7691379265
 20
4.6884827678
 30
0.0
 11
3.7691379265
 21
4.5487258256
 31
0.0
  0
LINE
  5
31D
330
313
100
AcDbEntity
  8
DATA
 62
     7
100
AcDbLine
 10
3.7691379265
 20
4.5487258256
 30
0.0
 11
3.7378879269
 21
4.5487258256
 31
0.0
  0
LINE
  5
31E
330
313
100
AcDbEntity
  8
DATA
 62
     7
100
AcDbLine
 10
5.659637931
 20
6.0894137931
 30
0.0
 11
5.659637931
 21
4.5634827586
 31
0.0
  0
LINE
  5
31F
330
313
100
AcDbEntity
  8
DATA
 62
     7
100
AcDbLine
 10
1.503637931
 20
6.0894137931
 30
0.0
 11
1.503637931
 21
4.5634827586
 31
0.0
  0
LINE
  5
320
330
313
100
AcDbEntity
  8
DATA
 62
     7
100
AcDbLine
 10
5.659637931
 20
4.6884827586
 30
0.0
 11
3.8559400401
 21
4.6884827586
 31
0.0
  0
LINE
  5
321
330
313
100
AcDbEntity
  8
DATA
 62
     7
100
AcDbLine
 10
1.503637931
 20
4.6884827586
 30
0.0
 11
3.307335822
 21
4.6884827586
 31
0.0
  0
MTEXT
  5
322
330
313
100
AcDbEntity
  8
DATA
 62
     7
100
AcDbMText
 10
3.3633219458
 20
4.8301661992
 30
0.0
 40
0.09375
 41
0.0
 71
     1
 72
     1
  1

  7
SLDTEXTSTYLE0
 73
     1
 44
1.0
  0
MTEXT
  5
323
330
313
100
AcDbEntity
  8
DATA
 62
     7
100
AcDbMText
 10
3.4601101479
 20
4.8301661992
 30
0.0
 40
0.09375
 41
0.0
 71
     1
 72
     1
  1
4.16
  7
SLDTEXTSTYLE0
 73
     1
 44
1.0
  0
MTEXT
  5
324
330
313
100
AcDbEntity
  8
DATA
 62
     7
100
AcDbMText
 10
3.4253879169
 20
4.6695759285
 30
0.0
 40
0.09375
 41
0.0
 71
     1
 72
     1
  1
105.6
  7
SLDTEXTSTYLE0
 73
     1
 44
1.0
  0
MTEXT
  5
325
330
313
100
AcDbEntity
  8
DATA
 62
     7
100
AcDbMText
 10
3.8355441807
 20
4.8301661992
 30
0.0
 40
0.09375
 41
0.0
 71
     1
 72
     1
  1

  7
SLDTEXTSTYLE0
 73
     1
 44
1.0
  0
ENDBLK
  5
315
330
313
100
AcDbEntity
  8
0
100
AcDbBlockEnd
  0
BLOCK
  5
328
330
327
100
AcDbEntity
  8
0
100
AcDbBlockBegin
  2
_D_7
 70
     0
 10
0.0
 20
0.0
 30
0.0
  3
_D_7
  1

  0
SOLID
  5
32A
330
327
100
AcDbEntity
  8
DATA
 62
     7
100
AcDbTrace
 10
6.128637931
 20
4.25
 30
0.0
 11
6.034637931
 21
4.27
 31
0.0
 12
6.034637931
 22
4.23
 32
0.0
 13
6.034637931
 23
4.23
 33
0.0
  0
SOLID
  5
32B
330
327
100
AcDbEntity
  8
DATA
 62
     7
100
AcDbTrace
 10
1.034637931
 20
4.25
 30
0.0
 11
1.128637931
 21
4.23
 31
0.0
 12
1.128637931
 22
4.27
 32
0.0
 13
1.128637931
 23
4.27
 33
0.0
  0
LINE
  5
32C
330
327
100
AcDbEntity
  8
DATA
 62
     7
100
AcDbLine
 10
3.4253879169
 20
4.2500000092
 30
0.0
 11
3.3941379173
 21
4.2500000092
 31
0.0
  0
LINE
  5
32D
330
327
100
AcDbEntity
  8
DATA
 62
     7
100
AcDbLine
 10
3.3941379173
 20
4.2500000092
 30
0.0
 11
3.3941379173
 21
4.110243067
 31
0.0
  0
LINE
  5
32E
330
327
100
AcDbEntity
  8
DATA
 62
     7
100
AcDbLine
 10
3.3941379173
 20
4.110243067
 30
0.0
 11
3.4253879169
 21
4.110243067
 31
0.0
  0
LINE
  5
32F
330
327
100
AcDbEntity
  8
DATA
 62
     7
100
AcDbLine
 10
3.7378879269
 20
4.2500000092
 30
0.0
 11
3.7691379265
 21
4.2500000092
 31
0.0
  0
LINE
  5
330
330
327
100
AcDbEntity
  8
DATA
 62
     7
100
AcDbLine
 10
3.7691379265
 20
4.2500000092
 30
0.0
 11
3.7691379265
 21
4.110243067
 31
0.0
  0
LINE
  5
331
330
327
100
AcDbEntity
  8
DATA
 62
     7
100
AcDbLine
 10
3.7691379265
 20
4.110243067
 30
0.0
 11
3.7378879269
 21
4.110243067
 31
0.0
  0
LINE
  5
332
330
327
100
AcDbEntity
  8
DATA
 62
     7
100
AcDbLine
 10
6.128637931
 20
5.8924137931
 30
0.0
 11
6.128637931
 21
4.125
 31
0.0
  0
LINE
  5
333
330
327
100
AcDbEntity
  8
DATA
 62
     7
100
AcDbLine
 10
1.034637931
 20
5.8924137931
 30
0.0
 11
1.034637931
 21
4.125
 31
0.0
  0
LINE
  5
334
330
327
100
AcDbEntity
  8
DATA
 62
     7
100
AcDbLine
 10
6.128637931
 20
4.25
 30
0.0
 11
3.8559400401
 21
4.25
 31
0.0
  0
LINE
  5
335
330
327
100
AcDbEntity
  8
DATA
 62
     7
100
AcDbLine
 10
1.034637931
 20
4.25
 30
0.0
 11
3.307335822
 21
4.25
 31
0.0
  0
MTEXT
  5
336
330
327
100
AcDbEntity
  8
DATA
 62
     7
100
AcDbMText
 10
3.3633219458
 20
4.3916834406
 30
0.0
 40
0.09375
 41
0.0
 71
     1
 72
     1
  1

  7
SLDTEXTSTYLE0
 73
     1
 44
1.0
  0
MTEXT
  5
337
330
327
100
AcDbEntity
  8
DATA
 62
     7
100
AcDbMText
 10
3.4601101479
 20
4.3916834406
 30
0.0
 40
0.09375
 41
0.0
 71
     1
 72
     1
  1
5.09
  7
SLDTEXTSTYLE0
 73
     1
 44
1.0
  0
MTEXT
  5
338
330
327
100
AcDbEntity
  8
DATA
 62
     7
100
AcDbMText
 10
3.4253879169
 20
4.2310931699
 30
0.0
 40
0.09375
 41
0.0
 71
     1
 72
     1
  1
129.4
  7
SLDTEXTSTYLE0
 73
     1
 44
1.0
  0
MTEXT
  5
339
330
327
100
AcDbEntity
  8
DATA
 62
     7
100
AcDbMText
 10
3.8355441807
 20
4.3916834406
 30
0.0
 40
0.09375
 41
0.0
 71
     1
 72
     1
  1

  7
SLDTEXTSTYLE0
 73
     1
 44
1.0
  0
ENDBLK
  5
329
330
327
100
AcDbEntity
  8
0
100
AcDbBlockEnd
  0
BLOCK
  5
33C
330
33B
100
AcDbEntity
  8
0
100
AcDbBlockBegin
  2
_D_8
 70
     0
 10
0.0
 20
0.0
 30
0.0
  3
_D_8
  1

  0
SOLID
  5
33E
330
33B
100
AcDbEntity
  8
DATA
 62
     7
100
AcDbTrace
 10
7.2310001358
 20
7.0724137931
 30
0.0
 11
7.2110001358
 21
6.9784137931
 31
0.0
 12
7.2510001358
 22
6.9784137931
 32
0.0
 13
7.2510001358
 23
6.9784137931
 33
0.0
  0
SOLID
  5
33F
330
33B
100
AcDbEntity
  8
DATA
 62
     7
100
AcDbTrace
 10
7.2310001358
 20
5.8124137931
 30
0.0
 11
7.2510001358
 21
5.9064137931
 31
0.0
 12
7.2110001358
 22
5.9064137931
 32
0.0
 13
7.2110001358
 23
5.9064137931
 33
0.0
  0
LINE
  5
340
330
33B
100
AcDbEntity
  8
DATA
 62
     7
100
AcDbLine
 10
7.1615556922
 20
6.4424138023
 30
0.0
 11
7.1303056925
 21
6.4424138023
 31
0.0
  0
LINE
  5
341
330
33B
100
AcDbEntity
  8
DATA
 62
     7
100
AcDbLine
 10
7.1303056925
 20
6.4424138023
 30
0.0
 11
7.1303056925
 21
6.3026568601
 31
0.0
  0
LINE
  5
342
330
33B
100
AcDbEntity
  8
DATA
 62
     7
100
AcDbLine
 10
7.1303056925
 20
6.3026568601
 30
0.0
 11
7.1615556922
 21
6.3026568601
 31
0.0
  0
LINE
  5
343
330
33B
100
AcDbEntity
  8
DATA
 62
     7
100
AcDbLine
 10
7.3004445794
 20
6.4424138023
 30
0.0
 11
7.331694579
 21
6.4424138023
 31
0.0
  0
LINE
  5
344
330
33B
100
AcDbEntity
  8
DATA
 62
     7
100
AcDbLine
 10
7.331694579
 20
6.4424138023
 30
0.0
 11
7.331694579
 21
6.3026568601
 31
0.0
  0
LINE
  5
345
330
33B
100
AcDbEntity
  8
DATA
 62
     7
100
AcDbLine
 10
7.331694579
 20
6.3026568601
 30
0.0
 11
7.3004445794
 21
6.3026568601
 31
0.0
  0
LINE
  5
346
330
33B
100
AcDbEntity
  8
DATA
 62
     7
100
AcDbLine
 10
3.8446409771
 20
7.0724137931
 30
0.0
 11
7.3560001358
 21
7.0724137931
 31
0.0
  0
LINE
  5
347
330
33B
100
AcDbEntity
  8
DATA
 62
     7
100
AcDbLine
 10
3.8446409771
 20
5.8124137931
 30
0.0
 11
7.3560001358
 21
5.8124137931
 31
0.0
  0
LINE
  5
348
330
33B
100
AcDbEntity
  8
DATA
 62
     7
100
AcDbLine
 10
7.2310001358
 20
7.0724137931
 30
0.0
 11
7.2310001358
 21
6.603004073
 31
0.0
  0
LINE
  5
349
330
33B
100
AcDbEntity
  8
DATA
 62
     7
100
AcDbLine
 10
7.2310001358
 20
5.8124137931
 30
0.0
 11
7.2310001358
 21
6.2818235133
 31
0.0
  0
MTEXT
  5
34A
330
33B
100
AcDbEntity
  8
DATA
 62
     7
100
AcDbMText
 10
7.0994897211
 20
6.5840972337
 30
0.0
 40
0.09375
 41
0.0
 71
     1
 72
     1
  1

  7
SLDTEXTSTYLE0
 73
     1
 44
1.0
  0
MTEXT
  5
34B
330
33B
100
AcDbEntity
  8
DATA
 62
     7
100
AcDbMText
 10
7.1094723709
 20
6.5840972337
 30
0.0
 40
0.09375
 41
0.0
 71
     1
 72
     1
  1
1.26
  7
SLDTEXTSTYLE0
 73
     1
 44
1.0
  0
MTEXT
  5
34C
330
33B
100
AcDbEntity
  8
DATA
 62
     7
100
AcDbMText
 10
7.1615556922
 20
6.423506963
 30
0.0
 40
0.09375
 41
0.0
 71
     1
 72
     1
  1
32
  7
SLDTEXTSTYLE0
 73
     1
 44
1.0
  0
MTEXT
  5
34D
330
33B
100
AcDbEntity
  8
DATA
 62
     7
100
AcDbMText
 10
7.3981008332
 20
6.5840972337
 30
0.0
 40
0.09375
 41
0.0
 71
     1
 72
     1
  1

  7
SLDTEXTSTYLE0
 73
     1
 44
1.0
  0
ENDBLK
  5
33D
330
33B
100
AcDbEntity
  8
0
100
AcDbBlockEnd
  0
BLOCK
  5
350
330
34F
100
AcDbEntity
  8
0
100
AcDbBlockBegin
  2
_D_9
 70
     0
 10
0.0
 20
0.0
 30
0.0
  3
_D_9
  1

  0
SOLID
  5
352
330
34F
100
AcDbEntity
  8
DATA
 62
     7
100
AcDbTrace
 10
6.6510172414
 20
6.9424137931
 30
0.0
 11
6.6310172414
 21
6.8484137931
 31
0.0
 12
6.6710172414
 22
6.8484137931
 32
0.0
 13
6.6710172414
 23
6.8484137931
 33
0.0
  0
SOLID
  5
353
330
34F
100
AcDbEntity
  8
DATA
 62
     7
100
AcDbTrace
 10
6.6510172414
 20
5.9424137931
 30
0.0
 11
6.6710172414
 21
6.0364137931
 31
0.0
 12
6.6310172414
 22
6.0364137931
 32
0.0
 13
6.6310172414
 23
6.0364137931
 33
0.0
  0
LINE
  5
354
330
34F
100
AcDbEntity
  8
DATA
 62
     7
100
AcDbLine
 10
6.5294894628
 20
6.4424138023
 30
0.0
 11
6.4982394632
 21
6.4424138023
 31
0.0
  0
LINE
  5
355
330
34F
100
AcDbEntity
  8
DATA
 62
     7
100
AcDbLine
 10
6.4982394632
 20
6.4424138023
 30
0.0
 11
6.4982394632
 21
6.3026568601
 31
0.0
  0
LINE
  5
356
330
34F
100
AcDbEntity
  8
DATA
 62
     7
100
AcDbLine
 10
6.4982394632
 20
6.3026568601
 30
0.0
 11
6.5294894628
 21
6.3026568601
 31
0.0
  0
LINE
  5
357
330
34F
100
AcDbEntity
  8
DATA
 62
     7
100
AcDbLine
 10
6.7725450016
 20
6.4424138023
 30
0.0
 11
6.8037950013
 21
6.4424138023
 31
0.0
  0
LINE
  5
358
330
34F
100
AcDbEntity
  8
DATA
 62
     7
100
AcDbLine
 10
6.8037950013
 20
6.4424138023
 30
0.0
 11
6.8037950013
 21
6.3026568601
 31
0.0
  0
LINE
  5
359
330
34F
100
AcDbEntity
  8
DATA
 62
     7
100
AcDbLine
 10
6.8037950013
 20
6.3026568601
 30
0.0
 11
6.7725450016
 21
6.3026568601
 31
0.0
  0
LINE
  5
35A
330
34F
100
AcDbEntity
  8
DATA
 62
     7
100
AcDbLine
 10
6.178637931
 20
6.9424137931
 30
0.0
 11
6.7760172414
 21
6.9424137931
 31
0.0
  0
LINE
  5
35B
330
34F
100
AcDbEntity
  8
DATA
 62
     7
100
AcDbLine
 10
6.178637931
 20
5.9424137931
 30
0.0
 11
6.7760172414
 21
5.9424137931
 31
0.0
  0
LINE
  5
35C
330
34F
100
AcDbEntity
  8
DATA
 62
     7
100
AcDbLine
 10
6.6510172414
 20
6.9424137931
 30
0.0
 11
6.6510172414
 21
6.603004073
 31
0.0
  0
LINE
  5
35D
330
34F
100
AcDbEntity
  8
DATA
 62
     7
100
AcDbLine
 10
6.6510172414
 20
5.9424137931
 30
0.0
 11
6.6510172414
 21
6.2818235133
 31
0.0
  0
MTEXT
  5
35E
330
34F
100
AcDbEntity
  8
DATA
 62
     7
100
AcDbMText
 10
6.4674234917
 20
6.5840972337
 30
0.0
 40
0.09375
 41
0.0
 71
     1
 72
     1
  1

  7
SLDTEXTSTYLE0
 73
     1
 44
1.0
  0
MTEXT
  5
35F
330
34F
100
AcDbEntity
  8
DATA
 62
     7
100
AcDbMText
 10
6.5294894582
 20
6.5840972337
 30
0.0
 40
0.09375
 41
0.0
 71
     1
 72
     1
  1
1.00
  7
SLDTEXTSTYLE0
 73
     1
 44
1.0
  0
MTEXT
  5
360
330
34F
100
AcDbEntity
  8
DATA
 62
     7
100
AcDbMText
 10
6.5294894628
 20
6.423506963
 30
0.0
 40
0.09375
 41
0.0
 71
     1
 72
     1
  1
25.4
  7
SLDTEXTSTYLE0
 73
     1
 44
1.0
  0
MTEXT
  5
361
330
34F
100
AcDbEntity
  8
DATA
 62
     7
100
AcDbMText
 10
6.8702012555
 20
6.5840972337
 30
0.0
 40
0.09375
 41
0.0
 71
     1
 72
     1
  1

  7
SLDTEXTSTYLE0
 73
     1
 44
1.0
  0
ENDBLK
  5
351
330
34F
100
AcDbEntity
  8
0
100
AcDbBlockEnd
  0
BLOCK
  5
364
330
363
100
AcDbEntity
  8
0
100
AcDbBlockBegin
  2
_D_10
 70
     0
 10
0.0
 20
0.0
 30
0.0
  3
_D_10
  1

  0
SOLID
  5
366
330
363
100
AcDbEntity
  8
DATA
 62
     7
100
AcDbTrace
 10
3.956637931
 20
7.5087241379
 30
0.0
 11
4.050637931
 21
7.4887241379
 31
0.0
 12
4.050637931
 22
7.5287241379
 32
0.0
 13
4.050637931
 23
7.5287241379
 33
0.0
  0
SOLID
  5
367
330
363
100
AcDbEntity
  8
DATA
 62
     7
100
AcDbTrace
 10
3.206637931
 20
7.5087241379
 30
0.0
 11
3.112637931
 21
7.5287241379
 31
0.0
 12
3.112637931
 22
7.4887241379
 32
0.0
 13
3.112637931
 23
7.4887241379
 33
0.0
  0
LINE
  5
368
330
363
100
AcDbEntity
  8
DATA
 62
     7
100
AcDbLine
 10
3.4601101524
 20
7.5087241471
 30
0.0
 11
3.4288601528
 21
7.5087241471
 31
0.0
  0
LINE
  5
369
330
363
100
AcDbEntity
  8
DATA
 62
     7
100
AcDbLine
 10
3.4288601528
 20
7.5087241471
 30
0.0
 11
3.4288601528
 21
7.3689672049
 31
0.0
  0
LINE
  5
36A
330
363
100
AcDbEntity
  8
DATA
 62
     7
100
AcDbLine
 10
3.4288601528
 20
7.3689672049
 30
0.0
 11
3.4601101524
 21
7.3689672049
 31
0.0
  0
LINE
  5
36B
330
363
100
AcDbEntity
  8
DATA
 62
     7
100
AcDbLine
 10
3.7031656913
 20
7.5087241471
 30
0.0
 11
3.7344156909
 21
7.5087241471
 31
0.0
  0
LINE
  5
36C
330
363
100
AcDbEntity
  8
DATA
 62
     7
100
AcDbLine
 10
3.7344156909
 20
7.5087241471
 30
0.0
 11
3.7344156909
 21
7.3689672049
 31
0.0
  0
LINE
  5
36D
330
363
100
AcDbEntity
  8
DATA
 62
     7
100
AcDbLine
 10
3.7344156909
 20
7.3689672049
 30
0.0
 11
3.7031656913
 21
7.3689672049
 31
0.0
  0
LINE
  5
36E
330
363
100
AcDbEntity
  8
DATA
 62
     7
100
AcDbLine
 10
3.956637931
 20
7.0179701837
 30
0.0
 11
3.956637931
 21
7.6337241379
 31
0.0
  0
LINE
  5
36F
330
363
100
AcDbEntity
  8
DATA
 62
     7
100
AcDbLine
 10
3.206637931
 20
7.0179701837
 30
0.0
 11
3.206637931
 21
7.6337241379
 31
0.0
  0
LINE
  5
370
330
363
100
AcDbEntity
  8
DATA
 62
     7
100
AcDbLine
 10
3.956637931
 20
7.5087241379
 30
0.0
 11
4.156637931
 21
7.5087241379
 31
0.0
  0
LINE
  5
371
330
363
100
AcDbEntity
  8
DATA
 62
     7
100
AcDbLine
 10
3.206637931
 20
7.5087241379
 30
0.0
 11
3.006637931
 21
7.5087241379
 31
0.0
  0
MTEXT
  5
372
330
363
100
AcDbEntity
  8
DATA
 62
     7
100
AcDbMText
 10
3.3980441814
 20
7.6504075785
 30
0.0
 40
0.09375
 41
0.0
 71
     1
 72
     1
  1

  7
SLDTEXTSTYLE0
 73
     1
 44
1.0
  0
MTEXT
  5
373
330
363
100
AcDbEntity
  8
DATA
 62
     7
100
AcDbMText
 10
3.4948323651
 20
7.6504075785
 30
0.0
 40
0.09375
 41
0.0
 71
     1
 72
     1
  1
.75
  7
SLDTEXTSTYLE0
 73
     1
 44
1.0
  0
MTEXT
  5
374
330
363
100
AcDbEntity
  8
DATA
 62
     7
100
AcDbMText
 10
3.4601101524
 20
7.4898173078
 30
0.0
 40
0.09375
 41
0.0
 71
     1
 72
     1
  1
19.1
  7
SLDTEXTSTYLE0
 73
     1
 44
1.0
  0
MTEXT
  5
375
330
363
100
AcDbEntity
  8
DATA
 62
     7
100
AcDbMText
 10
3.8008219451
 20
7.6504075785
 30
0.0
 40
0.09375
 41
0.0
 71
     1
 72
     1
  1

  7
SLDTEXTSTYLE0
 73
     1
 44
1.0
  0
ENDBLK
  5
365
330
363
100
AcDbEntity
  8
0
100
AcDbBlockEnd
  0
BLOCK
  5
378
330
377
100
AcDbEntity
  8
0
100
AcDbBlockBegin
  2
_D_11
 70
     0
 10
0.0
 20
0.0
 30
0.0
  3
_D_11
  1

  0
SOLID
  5
37A
330
377
100
AcDbEntity
  8
DATA
 62
     7
100
AcDbTrace
 10
0.7514310345
 20
6.6454137931
 30
0.0
 11
0.7714310345
 21
6.7394137931
 31
0.0
 12
0.7314310345
 22
6.7394137931
 32
0.0
 13
0.7314310345
 23
6.7394137931
 33
0.0
  0
SOLID
  5
37B
330
377
100
AcDbEntity
  8
DATA
 62
     7
100
AcDbTrace
 10
0.7514310345
 20
6.2394137931
 30
0.0
 11
0.7314310345
 21
6.1454137931
 31
0.0
 12
0.7714310345
 22
6.1454137931
 32
0.0
 13
0.7714310345
 23
6.1454137931
 33
0.0
  0
LINE
  5
37C
330
377
100
AcDbEntity
  8
DATA
 62
     7
100
AcDbLine
 10
0.6299032559
 20
6.4424138023
 30
0.0
 11
0.5986532563
 21
6.4424138023
 31
0.0
  0
LINE
  5
37D
330
377
100
AcDbEntity
  8
DATA
 62
     7
100
AcDbLine
 10
0.5986532563
 20
6.4424138023
 30
0.0
 11
0.5986532563
 21
6.3026568601
 31
0.0
  0
LINE
  5
37E
330
377
100
AcDbEntity
  8
DATA
 62
     7
100
AcDbLine
 10
0.5986532563
 20
6.3026568601
 30
0.0
 11
0.6299032559
 21
6.3026568601
 31
0.0
  0
LINE
  5
37F
330
377
100
AcDbEntity
  8
DATA
 62
     7
100
AcDbLine
 10
0.8729587948
 20
6.4424138023
 30
0.0
 11
0.9042087944
 21
6.4424138023
 31
0.0
  0
LINE
  5
380
330
377
100
AcDbEntity
  8
DATA
 62
     7
100
AcDbLine
 10
0.9042087944
 20
6.4424138023
 30
0.0
 11
0.9042087944
 21
6.3026568601
 31
0.0
  0
LINE
  5
381
330
377
100
AcDbEntity
  8
DATA
 62
     7
100
AcDbLine
 10
0.9042087944
 20
6.3026568601
 30
0.0
 11
0.8729587948
 21
6.3026568601
 31
0.0
  0
LINE
  5
382
330
377
100
AcDbEntity
  8
DATA
 62
     7
100
AcDbLine
 10
1.453637931
 20
6.6454137931
 30
0.0
 11
0.6264310345
 21
6.6454137931
 31
0.0
  0
LINE
  5
383
330
377
100
AcDbEntity
  8
DATA
 62
     7
100
AcDbLine
 10
1.453637931
 20
6.2394137931
 30
0.0
 11
0.6264310345
 21
6.2394137931
 31
0.0
  0
LINE
  5
384
330
377
100
AcDbEntity
  8
DATA
 62
     7
100
AcDbLine
 10
0.7514310345
 20
6.6454137931
 30
0.0
 11
0.7514310345
 21
6.8454137931
 31
0.0
  0
LINE
  5
385
330
377
100
AcDbEntity
  8
DATA
 62
     7
100
AcDbLine
 10
0.7514310345
 20
6.2394137931
 30
0.0
 11
0.7514310345
 21
6.0394137931
 31
0.0
  0
MTEXT
  5
386
330
377
100
AcDbEntity
  8
DATA
 62
     7
100
AcDbMText
 10
0.5678372848
 20
6.5840972337
 30
0.0
 40
0.09375
 41
0.0
 71
     1
 72
     1
  1

  7
SLDTEXTSTYLE0
 73
     1
 44
1.0
  0
MTEXT
  5
387
330
377
100
AcDbEntity
  8
DATA
 62
     7
100
AcDbMText
 10
0.6646254685
 20
6.5840972337
 30
0.0
 40
0.09375
 41
0.0
 71
     1
 72
     1
  1
.41
  7
SLDTEXTSTYLE0
 73
     1
 44
1.0
  0
MTEXT
  5
388
330
377
100
AcDbEntity
  8
DATA
 62
     7
100
AcDbMText
 10
0.6299032559
 20
6.423506963
 30
0.0
 40
0.09375
 41
0.0
 71
     1
 72
     1
  1
10.3
  7
SLDTEXTSTYLE0
 73
     1
 44
1.0
  0
MTEXT
  5
389
330
377
100
AcDbEntity
  8
DATA
 62
     7
100
AcDbMText
 10
0.9706150486
 20
6.5840972337
 30
0.0
 40
0.09375
 41
0.0
 71
     1
 72
     1
  1

  7
SLDTEXTSTYLE0
 73
     1
 44
1.0
  0
ENDBLK
  5
379
330
377
100
AcDbEntity
  8
0
100
AcDbBlockEnd
  0
BLOCK
  5
38D
330
38C
100
AcDbEntity
  8
0
100
AcDbBlockBegin
  2
_D_12
 70
     0
 10
0.0
 20
0.0
 30
0.0
  3
_D_12
  1

  0
SOLID
  5
38F
330
38C
100
AcDbEntity
  8
DATA
 62
     7
100
AcDbTrace
 10
1.4242718561
 20
6.6292560425
 30
0.0
 11
1.4059291662
 21
6.7235934461
 31
0.0
 12
1.3691129595
 22
6.7079548107
 32
0.0
 13
1.3691129595
 23
6.7079548107
 33
0.0
  0
LINE
  5
390
330
38C
100
AcDbEntity
  8
DATA
 62
     7
100
AcDbLine
 10
0.7742461765
 20
7.3167922695
 30
0.0
 11
0.7429961769
 21
7.3167922695
 31
0.0
  0
LINE
  5
391
330
38C
100
AcDbEntity
  8
DATA
 62
     7
100
AcDbLine
 10
0.7429961769
 20
7.3167922695
 30
0.0
 11
0.7429961769
 21
7.1770353274
 31
0.0
  0
LINE
  5
392
330
38C
100
AcDbEntity
  8
DATA
 62
     7
100
AcDbLine
 10
0.7429961769
 20
7.1770353274
 30
0.0
 11
0.7742461765
 21
7.1770353274
 31
0.0
  0
LINE
  5
393
330
38C
100
AcDbEntity
  8
DATA
 62
     7
100
AcDbLine
 10
0.9478572809
 20
7.3167922695
 30
0.0
 11
0.9791072806
 21
7.3167922695
 31
0.0
  0
LINE
  5
394
330
38C
100
AcDbEntity
  8
DATA
 62
     7
100
AcDbLine
 10
0.9791072806
 20
7.3167922695
 30
0.0
 11
0.9791072806
 21
7.1770353274
 31
0.0
  0
LINE
  5
395
330
38C
100
AcDbEntity
  8
DATA
 62
     7
100
AcDbLine
 10
0.9791072806
 20
7.1770353274
 30
0.0
 11
0.9478572809
 21
7.1770353274
 31
0.0
  0
LINE
  5
396
330
38C
100
AcDbEntity
  8
DATA
 62
     7
100
AcDbLine
 10
1.4242718561
 20
6.6292560425
 30
0.0
 11
1.135357271
 21
7.3094137931
 31
0.0
  0
LINE
  5
397
330
38C
100
AcDbEntity
  8
DATA
 62
     7
100
AcDbLine
 10
1.135357271
 20
7.3094137931
 30
0.0
 11
1.010357271
 21
7.3094137931
 31
0.0
  0
MTEXT
  5
398
330
38C
100
AcDbEntity
  8
DATA
 62
     7
100
AcDbMText
 10
0.7291072767
 20
7.4584757009
 30
0.0
 40
0.09375
 41
0.0
 71
     1
 72
     1
  1
R.20
  7
SLDTEXTSTYLE0
 73
     1
 44
1.0
  0
MTEXT
  5
399
330
38C
100
AcDbEntity
  8
DATA
 62
     7
100
AcDbMText
 10
0.7742461765
 20
7.2978854302
 30
0.0
 40
0.09375
 41
0.0
 71
     1
 72
     1
  1
5.2
  7
SLDTEXTSTYLE0
 73
     1
 44
1.0
  0
ENDBLK
  5
38E
330
38C
100
AcDbEntity
  8
0
100
AcDbBlockEnd
  0
BLOCK
  5
39B
330
39A
100
AcDbEntity
  8
0
100
AcDbBlockBegin
  2
SW_CENTERMARKSYMBOL_1
 70
     0
 10
0.0
 20
0.0
 30
0.0
  3
SW_CENTERMARKSYMBOL_1
  1

  0
LINE
  5
39D
330
39A
100
AcDbEntity
  8
DATA
 62
     0
100
AcDbLine
 10
0.0
 20
0.0
 30
0.0
 11
0.0
 21
0.1
 31
0.0
  0
LINE
  5
39E
330
39A
100
AcDbEntity
  8
DATA
 62
     0
100
AcDbLine
 10
0.0
 20
0.0
 30
0.0
 11
-0.1
 21
0.0
 31
0.0
  0
LINE
  5
39F
330
39A
100
AcDbEntity
  8
DATA
 62
     0
100
AcDbLine
 10
0.0
 20
0.0
 30
0.0
 11
0.0
 21
-0.1
 31
0.0
  0
LINE
  5
3A0
330
39A
100
AcDbEntity
  8
DATA
 62
     0
100
AcDbLine
 10
0.0
 20
0.0
 30
0.0
 11
0.1
 21
0.0
 31
0.0
  0
LINE
  5
3A1
330
39A
100
AcDbEntity
  8
DATA
 62
     0
100
AcDbLine
 10
0.0
 20
0.2
 30
0.0
 11
0.0
 21
0.303
 31
0.0
  0
LINE
  5
3A2
330
39A
100
AcDbEntity
  8
DATA
 62
     0
100
AcDbLine
 10
-0.2
 20
0.0
 30
0.0
 11
-0.303
 21
0.0
 31
0.0
  0
LINE
  5
3A3
330
39A
100
AcDbEntity
  8
DATA
 62
     0
100
AcDbLine
 10
0.0
 20
-0.2
 30
0.0
 11
0.0
 21
-0.303
 31
0.0
  0
LINE
  5
3A4
330
39A
100
AcDbEntity
  8
DATA
 62
     0
100
AcDbLine
 10
0.2
 20
0.0
 30
0.0
 11
0.303
 21
0.0
 31
0.0
  0
ENDBLK
  5
39C
330
39A
100
AcDbEntity
  8
0
100
AcDbBlockEnd
  0
BLOCK
  5
3A7
330
3A6
100
AcDbEntity
  8
0
100
AcDbBlockBegin
  2
SW_CENTERMARKSYMBOL_2
 70
     0
 10
0.0
 20
0.0
 30
0.0
  3
SW_CENTERMARKSYMBOL_2
  1

  0
LINE
  5
3A9
330
3A6
100
AcDbEntity
  8
DATA
 62
     0
100
AcDbLine
 10
0.0
 20
0.0
 30
0.0
 11
0.0
 21
0.1
 31
0.0
  0
LINE
  5
3AA
330
3A6
100
AcDbEntity
  8
DATA
 62
     0
100
AcDbLine
 10
0.0
 20
0.0
 30
0.0
 11
-0.1
 21
0.0
 31
0.0
  0
LINE
  5
3AB
330
3A6
100
AcDbEntity
  8
DATA
 62
     0
100
AcDbLine
 10
0.0
 20
0.0
 30
0.0
 11
0.0
 21
-0.1
 31
0.0
  0
LINE
  5
3AC
330
3A6
100
AcDbEntity
  8
DATA
 62
     0
100
AcDbLine
 10
0.0
 20
0.0
 30
0.0
 11
0.1
 21
0.0
 31
0.0
  0
LINE
  5
3AD
330
3A6
100
AcDbEntity
  8
DATA
 62
     0
100
AcDbLine
 10
0.0
 20
0.2
 30
0.0
 11
0.0
 21
0.303
 31
0.0
  0
LINE
  5
3AE
330
3A6
100
AcDbEntity
  8
DATA
 62
     0
100
AcDbLine
 10
-0.2
 20
0.0
 30
0.0
 11
-0.303
 21
0.0
 31
0.0
  0
LINE
  5
3AF
330
3A6
100
AcDbEntity
  8
DATA
 62
     0
100
AcDbLine
 10
0.0
 20
-0.2
 30
0.0
 11
0.0
 21
-0.303
 31
0.0
  0
LINE
  5
3B0
330
3A6
100
AcDbEntity
  8
DATA
 62
     0
100
AcDbLine
 10
0.2
 20
0.0
 30
0.0
 11
0.303
 21
0.0
 31
0.0
  0
ENDBLK
  5
3A8
330
3A6
100
AcDbEntity
  8
0
100
AcDbBlockEnd
  0
BLOCK
  5
3B3
330
3B2
100
AcDbEntity
  8
0
100
AcDbBlockBegin
  2
SW_CENTERMARKSYMBOL_3
 70
     0
 10
0.0
 20
0.0
 30
0.0
  3
SW_CENTERMARKSYMBOL_3
  1

  0
LINE
  5
3B5
330
3B2
100
AcDbEntity
  8
DATA
 62
     0
100
AcDbLine
 10
0.0
 20
0.0
 30
0.0
 11
0.0
 21
0.1
 31
0.0
  0
LINE
  5
3B6
330
3B2
100
AcDbEntity
  8
DATA
 62
     0
100
AcDbLine
 10
0.0
 20
0.0
 30
0.0
 11
-0.1
 21
0.0
 31
0.0
  0
LINE
  5
3B7
330
3B2
100
AcDbEntity
  8
DATA
 62
     0
100
AcDbLine
 10
0.0
 20
0.0
 30
0.0
 11
0.0
 21
-0.1
 31
0.0
  0
LINE
  5
3B8
330
3B2
100
AcDbEntity
  8
DATA
 62
     0
100
AcDbLine
 10
0.0
 20
0.0
 30
0.0
 11
0.1
 21
0.0
 31
0.0
  0
LINE
  5
3B9
330
3B2
100
AcDbEntity
  8
DATA
 62
     0
100
AcDbLine
 10
0.0
 20
0.2
 30
0.0
 11
0.0
 21
0.303
 31
0.0
  0
LINE
  5
3BA
330
3B2
100
AcDbEntity
  8
DATA
 62
     0
100
AcDbLine
 10
-0.2
 20
0.0
 30
0.0
 11
-0.303
 21
0.0
 31
0.0
  0
LINE
  5
3BB
330
3B2
100
AcDbEntity
  8
DATA
 62
     0
100
AcDbLine
 10
0.0
 20
-0.2
 30
0.0
 11
0.0
 21
-0.303
 31
0.0
  0
LINE
  5
3BC
330
3B2
100
AcDbEntity
  8
DATA
 62
     0
100
AcDbLine
 10
0.2
 20
0.0
 30
0.0
 11
0.303
 21
0.0
 31
0.0
  0
ENDBLK
  5
3B4
330
3B2
100
AcDbEntity
  8
0
100
AcDbBlockEnd
  0
BLOCK
  5
3BF
330
3BE
100
AcDbEntity
  8
0
100
AcDbBlockBegin
  2
SW_CENTERMARKSYMBOL_4
 70
     0
 10
0.0
 20
0.0
 30
0.0
  3
SW_CENTERMARKSYMBOL_4
  1

  0
LINE
  5
3C1
330
3BE
100
AcDbEntity
  8
DATA
 62
     0
100
AcDbLine
 10
0.0
 20
0.0
 30
0.0
 11
0.0
 21
0.1
 31
0.0
  0
LINE
  5
3C2
330
3BE
100
AcDbEntity
  8
DATA
 62
     0
100
AcDbLine
 10
0.0
 20
0.0
 30
0.0
 11
-0.1
 21
0.0
 31
0.0
  0
LINE
  5
3C3
330
3BE
100
AcDbEntity
  8
DATA
 62
     0
100
AcDbLine
 10
0.0
 20
0.0
 30
0.0
 11
0.0
 21
-0.1
 31
0.0
  0
LINE
  5
3C4
330
3BE
100
AcDbEntity
  8
DATA
 62
     0
100
AcDbLine
 10
0.0
 20
0.0
 30
0.0
 11
0.1
 21
0.0
 31
0.0
  0
LINE
  5
3C5
330
3BE
100
AcDbEntity
  8
DATA
 62
     0
100
AcDbLine
 10
0.0
 20
0.2
 30
0.0
 11
0.0
 21
0.303
 31
0.0
  0
LINE
  5
3C6
330
3BE
100
AcDbEntity
  8
DATA
 62
     0
100
AcDbLine
 10
-0.2
 20
0.0
 30
0.0
 11
-0.303
 21
0.0
 31
0.0
  0
LINE
  5
3C7
330
3BE
100
AcDbEntity
  8
DATA
 62
     0
100
AcDbLine
 10
0.0
 20
-0.2
 30
0.0
 11
0.0
 21
-0.303
 31
0.0
  0
LINE
  5
3C8
330
3BE
100
AcDbEntity
  8
DATA
 62
     0
100
AcDbLine
 10
0.2
 20
0.0
 30
0.0
 11
0.303
 21
0.0
 31
0.0
  0
ENDBLK
  5
3C0
330
3BE
100
AcDbEntity
  8
0
100
AcDbBlockEnd
  0
ENDSEC
  0
SECTION
  2
ENTITIES
  0
LINE
  5
F7
330
1F
100
AcDbEntity
  8
0
  6
Continuous
 62
     7
370
    50
100
AcDbLine
 10
0.329927
 20
8.1295731707
 30
0.0
 11
10.629927
 21
8.1295731707
 31
0.0
  0
LINE
  5
F8
330
1F
100
AcDbEntity
  8
0
  6
Continuous
 62
     7
370
    50
100
AcDbLine
 10
0.329927
 20
8.1295731707
 30
0.0
 11
0.329927
 21
0.3295731707
 31
0.0
  0
LINE
  5
F9
330
1F
100
AcDbEntity
  8
0
  6
Continuous
 62
     7
370
    50
100
AcDbLine
 10
10.629927
 20
0.3295731707
 30
0.0
 11
0.329927
 21
0.3295731707
 31
0.0
  0
LINE
  5
FA
330
1F
100
AcDbEntity
  8
0
  6
Continuous
 62
     7
370
    50
100
AcDbLine
 10
10.629927
 20
0.3295731707
 30
0.0
 11
10.629927
 21
8.1295731707
 31
0.0
  0
LINE
  5
FB
330
1F
100
AcDbEntity
  8
0
  6
Continuous
 62
     7
370
    35
100
AcDbLine
 10
3.879927
 20
1.0338942145
 30
0.0
 11
0.379927
 21
1.0338942145
 31
0.0
  0
LINE
  5
FC
330
1F
100
AcDbEntity
  8
0
  6
Continuous
 62
     7
370
    35
100
AcDbLine
 10
2.129927
 20
0.3795731707
 30
0.0
 11
2.129927
 21
1.0338942145
 31
0.0
  0
LINE
  5
FD
330
1F
100
AcDbEntity
  8
0
  6
Continuous
 62
     7
370
    35
100
AcDbLine
 10
8.229929
 20
0.3795731707
 30
0.0
 11
8.229929
 21
1.4538942145
 31
0.0
  0
LINE
  5
FE
330
1F
100
AcDbEntity
  8
0
  6
Continuous
 62
     7
370
    35
100
AcDbLine
 10
8.229929
 20
1.0338942145
 30
0.0
 11
10.579927
 21
1.0338942145
 31
0.0
  0
LINE
  5
FF
330
1F
100
AcDbEntity
  8
0
  6
Continuous
 62
     7
370
    35
100
AcDbLine
 10
10.579927
 20
1.4538942145
 30
0.0
 11
0.379927
 21
1.4538942145
 31
0.0
  0
LINE
  5
100
330
1F
100
AcDbEntity
  8
0
  6
Continuous
 62
     7
370
    35
100
AcDbLine
 10
3.879927
 20
0.3795731707
 30
0.0
 11
3.879927
 21
1.4538942145
 31
0.0
  0
LINE
  5
101
330
1F
100
AcDbEntity
  8
0
  6
Continuous
 62
     7
370
    50
100
AcDbLine
 10
10.579927
 20
0.3795731707
 30
0.0
 11
10.579927
 21
8.0795731707
 31
0.0
  0
LINE
  5
102
330
1F
100
AcDbEntity
  8
0
  6
Continuous
 62
     7
370
    50
100
AcDbLine
 10
0.379927
 20
8.0795731707
 30
0.0
 11
10.579927
 21
8.0795731707
 31
0.0
  0
LINE
  5
103
330
1F
100
AcDbEntity
  8
0
  6
Continuous
 62
     7
370
    50
100
AcDbLine
 10
0.379927
 20
8.0795731707
 30
0.0
 11
0.379927
 21
0.3795731707
 31
0.0
  0
LINE
  5
104
330
1F
100
AcDbEntity
  8
0
  6
Continuous
 62
     7
370
    50
100
AcDbLine
 10
10.579927
 20
0.3795731707
 30
0.0
 11
0.379927
 21
0.3795731707
 31
0.0
  0
INSERT
  5
105
330
1F
100
AcDbEntity
  8
DATA
100
AcDbBlockReference
  2
mm DIM NOTE
 10
8.229929
 20
1.4538942145
 30
0.0
  0
INSERT
  5
106
330
1F
100
AcDbEntity
  8
DATA
100
AcDbBlockReference
  2
Mersen-Logo
 10
1.8248816143
 20
1.311322601
 30
0.0
  0
MTEXT
  5
108
330
1F
100
AcDbEntity
  8
0
  6
Continuous
 62
     7
370
    18
100
AcDbMText
 10
8.9846987881
 20
8.2496857838
 30
0.0
 40
0.09375
 41
0.0
 71
     1
 72
     1
  1
CONTROL No:____________
  7
SLDTEXTSTYLE1
 73
     1
 44
1.0
  0
MTEXT
  5
109
330
1F
100
AcDbEntity
  8
0
  6
Continuous
 62
     7
370
    18
100
AcDbMText
 10
10.2392243644
 20
8.2697418634
 30
0.0
 40
0.09375
 41
0.0
 71
     2
 72
     1
  1
2119
  7
SLDTEXTSTYLE0
 73
     1
 44
1.0
  0
INSERT
  5
112
330
1F
100
AcDbEntity
  8
0
  6
Continuous
 62
     7
370
     0
100
AcDbBlockReference
  2
SW_NOTE_0
 10
5.132739427
 20
1.2029494176
 30
0.0
  0
MTEXT
  5
113
330
1F
100
AcDbEntity
  8
0
  6
Continuous
 62
     7
370
    18
100
AcDbMText
 10
2.5317795679
 20
0.5349078544
 30
0.0
 40
0.09375
 41
0.0
 71
     1
 72
     1
  1
11/6/19
  7
SLDTEXTSTYLE0
 73
     1
 44
1.0
  0
MTEXT
  5
114
330
1F
100
AcDbEntity
  8
0
  6
Continuous
 62
     7
370
    18
100
AcDbMText
 10
2.5082412158
 20
0.7871044837
 30
0.0
 40
0.09375
 41
0.0
 71
     1
 72
     1
  1
K.HORNE
  7
SLDTEXTSTYLE0
 73
     1
 44
1.0
  0
MTEXT
  5
115
330
1F
100
AcDbEntity
  8
0
  6
Continuous
 62
     7
370
    18
100
AcDbMText
 10
0.7757881736
 20
0.5318845703
 30
0.0
 40
0.09375
 41
0.0
 71
     1
 72
     1
  1
11/6/19
  7
SLDTEXTSTYLE0
 73
     1
 44
1.0
  0
MTEXT
  5
116
330
1F
100
AcDbEntity
  8
0
  6
Continuous
 62
     7
370
    18
100
AcDbMText
 10
0.7456541234
 20
0.7826185477
 30
0.0
 40
0.09375
 41
0.0
 71
     1
 72
     1
  1
YICHI AU
  7
SLDTEXTSTYLE0
 73
     1
 44
1.0
  0
INSERT
  5
11D
330
1F
100
AcDbEntity
  8
0
  6
Continuous
 62
     7
370
    18
100
AcDbBlockReference
  2
SW_NOTE_1
 10
8.9113312396
 20
1.240466439
 30
0.0
  0
INSERT
  5
124
330
1F
100
AcDbEntity
  8
0
  6
Continuous
 62
     7
370
    18
100
AcDbBlockReference
  2
SW_NOTE_2
 10
2.1941247569
 20
0.651699477
 30
0.0
  0
MTEXT
  5
126
330
1F
100
AcDbEntity
  8
0
  6
Continuous
 62
     7
370
    18
100
AcDbMText
 10
2.6857290402
 20
0.9552904186
 30
0.0
 40
0.09375
 41
0.0
 71
     1
 72
     1
  1
\LDESIGN ENGINEER
  7
SLDTEXTSTYLE6
 73
     1
 44
1.0
  0
MTEXT
  5
127
330
1F
100
AcDbEntity
  8
0
  6
Continuous
 62
     7
370
    18
100
AcDbMText
 10
0.8245927509
 20
0.9517335566
 30
0.0
 40
0.09375
 41
0.0
 71
     1
 72
     1
  1
\LPRODUCT MANAGER
  7
SLDTEXTSTYLE6
 73
     1
 44
1.0
  0
INSERT
  5
12D
330
1F
100
AcDbEntity
  8
0
  6
Continuous
 62
     7
370
    18
100
AcDbBlockReference
  2
SW_NOTE_3
 10
0.434288295
 20
0.6500118561
 30
0.0
  0
INSERT
  5
135
330
1F
100
AcDbEntity
  8
0
  6
Continuous
 62
     7
370
    18
100
AcDbBlockReference
  2
SW_NOTE_4
 10
2.2935611234
 20
1.2753122985
 30
0.0
  0
MTEXT
  5
137
330
1F
100
AcDbEntity
  8
0
  6
Continuous
 62
     7
370
    18
100
AcDbMText
 10
9.7571632131
 20
0.5040024688
 30
0.0
 40
0.0729166667
 41
0.0
 71
     1
 72
     1
  1
SHEET 1   OF 1
  7
SLDTEXTSTYLE8
 73
     1
 44
1.0
  0
MTEXT
  5
138
330
1F
100
AcDbEntity
  8
0
  6
Continuous
 62
     7
370
     0
100
AcDbMText
 10
9.5227437222
 20
0.9116673761
 30
0.0
 40
0.25
 41
0.0
 71
     2
 72
     1
  1
702299
  7
SLDTEXTSTYLE0
 73
     1
 44
1.0
  0
INSERT
  5
15B
330
1F
100
AcDbEntity
  8
0
  6
Continuous
 62
     7
370
    18
100
AcDbBlockReference
  2
SW_TABLEANNOTATION_0
 10
6.3651376886
 20
8.0795731707
 30
0.0
  0
LINE
  5
15C
330
1F
100
AcDbEntity
  8
0
  6
Continuous
 62
     7
370
    25
100
AcDbLine
 10
3.2300272602
 20
3.4769109422
 30
0.0
 11
2.599637931
 21
3.4769109422
 31
0.0
  0
LINE
  5
15D
330
1F
100
AcDbEntity
  8
0
  6
Continuous
 62
     7
370
    25
100
AcDbLine
 10
4.563637931
 20
3.4769109422
 30
0.0
 11
3.9332486019
 21
3.4769109422
 31
0.0
  0
LINE
  5
15E
330
1F
100
AcDbEntity
  8
0
  6
Continuous
 62
     7
370
    25
100
AcDbLine
 10
2.599637931
 20
1.9769109422
 30
0.0
 11
4.563637931
 21
1.9769109422
 31
0.0
  0
LINE
  5
15F
330
1F
100
AcDbEntity
  8
0
  6
Continuous
 62
     7
370
    25
100
AcDbLine
 10
3.2988799218
 20
3.4769109422
 30
0.0
 11
3.2991229841
 21
3.4654200644
 31
0.0
  0
LINE
  5
160
330
1F
100
AcDbEntity
  8
0
  6
Continuous
 62
     7
370
    25
100
AcDbLine
 10
3.86415164
 20
3.4653821475
 30
0.0
 11
3.8643954938
 21
3.4769723407
 31
0.0
  0
ARC
  5
161
330
1F
100
AcDbEntity
  8
0
  6
Continuous
 62
     7
370
    25
100
AcDbCircle
 10
3.2905609584
 20
3.4669109422
 30
0.0
 40
0.0100000000000002
100
AcDbArc
 50
30.8069285535
 51
90.0
  0
ARC
  5
162
330
1F
100
AcDbEntity
  8
0
  6
Continuous
 62
     7
370
    25
100
AcDbCircle
 10
3.8727149037
 20
3.4669109422
 30
0.0
 40
0.0100000000000002
100
AcDbArc
 50
90.0
 51
148.8381065888
  0
LINE
  5
163
330
1F
100
AcDbEntity
  8
0
  6
Continuous
 62
     7
370
    25
100
AcDbLine
 10
3.298984523
 20
3.4719290184
 30
0.0
 11
3.299122198
 21
3.4654203576
 31
0.0
  0
ARC
  5
164
330
1F
100
AcDbEntity
  8
0
  6
Continuous
 62
     7
370
    25
100
AcDbCircle
 10
4.558637931
 20
3.0821609422
 30
0.0
 40
0.0322500000000001
100
AcDbArc
 50
278.919044194
 51
360.0
  0
ARC
  5
165
330
1F
100
AcDbEntity
  8
0
  6
Continuous
 62
     7
370
    25
100
AcDbCircle
 10
4.558637931
 20
3.3076609422
 30
0.0
 40
0.0322500000000004
100
AcDbArc
 50
0.0
 51
81.080955806
  0
LINE
  5
166
330
1F
100
AcDbEntity
  8
0
  6
Continuous
 62
     7
370
    25
100
AcDbLine
 10
4.590887931
 20
3.0821609422
 30
0.0
 11
4.590887931
 21
3.3076609422
 31
0.0
  0
ARC
  5
167
330
1F
100
AcDbEntity
  8
0
  6
Continuous
 62
     7
370
    25
100
AcDbCircle
 10
2.604637931
 20
3.3076609422
 30
0.0
 40
0.0322500000000005
100
AcDbArc
 50
98.919044194
 51
180.0
  0
ARC
  5
168
330
1F
100
AcDbEntity
  8
0
  6
Continuous
 62
     7
370
    25
100
AcDbCircle
 10
2.604637931
 20
3.0821609422
 30
0.0
 40
0.0322500000000003
100
AcDbArc
 50
180.0
 51
261.080955806
  0
LINE
  5
169
330
1F
100
AcDbEntity
  8
0
  6
Continuous
 62
     7
370
    25
100
AcDbLine
 10
2.572387931
 20
3.3076609422
 30
0.0
 11
2.572387931
 21
3.0821609422
 31
0.0
  0
LINE
  5
16A
330
1F
100
AcDbEntity
  8
0
  6
Continuous
 62
     7
370
    25
100
AcDbLine
 10
4.598637931
 20
2.8519109422
 30
0.0
 11
4.598637931
 21
2.6019109422
 31
0.0
  0
LINE
  5
16B
330
1F
100
AcDbEntity
  8
0
  6
Continuous
 62
     7
370
    25
100
AcDbLine
 10
4.598637931
 20
2.8519109422
 30
0.0
 11
4.563637931
 21
2.8869109422
 31
0.0
  0
LINE
  5
16C
330
1F
100
AcDbEntity
  8
0
  6
Continuous
 62
     7
370
    25
100
AcDbLine
 10
4.563637931
 20
2.5669109422
 30
0.0
 11
4.598637931
 21
2.6019109422
 31
0.0
  0
LINE
  5
16D
330
1F
100
AcDbEntity
  8
0
  6
Continuous
 62
     7
370
    25
100
AcDbLine
 10
6.128637931
 20
2.8519109422
 30
0.0
 11
6.128637931
 21
2.6019109422
 31
0.0
  0
LINE
  5
16E
330
1F
100
AcDbEntity
  8
0
  6
Continuous
 62
     7
370
    25
100
AcDbLine
 10
6.128637931
 20
2.8519109422
 30
0.0
 11
4.598637931
 21
2.8519109422
 31
0.0
  0
LINE
  5
16F
330
1F
100
AcDbEntity
  8
0
  6
Continuous
 62
     7
370
    25
100
AcDbLine
 10
6.128637931
 20
2.6019109422
 30
0.0
 11
4.598637931
 21
2.6019109422
 31
0.0
  0
LINE
  5
170
330
1F
100
AcDbEntity
  8
0
  6
Continuous
 62
     7
370
    25
100
AcDbLine
 10
2.564637931
 20
2.6019109422
 30
0.0
 11
2.564637931
 21
2.8519109422
 31
0.0
  0
LINE
  5
171
330
1F
100
AcDbEntity
  8
0
  6
Continuous
 62
     7
370
    25
100
AcDbLine
 10
2.599637931
 20
2.8869109422
 30
0.0
 11
2.564637931
 21
2.8519109422
 31
0.0
  0
LINE
  5
172
330
1F
100
AcDbEntity
  8
0
  6
Continuous
 62
     7
370
    25
100
AcDbLine
 10
2.564637931
 20
2.6019109422
 30
0.0
 11
2.599637931
 21
2.5669109422
 31
0.0
  0
LINE
  5
173
330
1F
100
AcDbEntity
  8
0
  6
Continuous
 62
     7
370
    25
100
AcDbLine
 10
1.034637931
 20
2.6019109422
 30
0.0
 11
1.034637931
 21
2.8519109422
 31
0.0
  0
LINE
  5
174
330
1F
100
AcDbEntity
  8
0
  6
Continuous
 62
     7
370
    25
100
AcDbLine
 10
1.034637931
 20
2.8519109422
 30
0.0
 11
2.564637931
 21
2.8519109422
 31
0.0
  0
LINE
  5
175
330
1F
100
AcDbEntity
  8
0
  6
Continuous
 62
     7
370
    25
100
AcDbLine
 10
1.034637931
 20
2.6019109422
 30
0.0
 11
2.564637931
 21
2.6019109422
 31
0.0
  0
LINE
  5
176
330
1F
100
AcDbEntity
  8
0
  6
Continuous
 62
     7
370
    25
100
AcDbLine
 10
2.599637931
 20
3.4769109422
 30
0.0
 11
2.599637931
 21
1.9769109422
 31
0.0
  0
SPLINE
  5
177
330
1F
100
AcDbEntity
  8
0
  6
Continuous
 62
     7
370
    25
100
AcDbSpline
210
0.0
220
0.0
230
1.0
 70
    11
 71
     3
 72
    56
 73
    52
 74
     0
 42
0.000000001
 43
0.00000001
 40
0.0
 40
0.0
 40
0.0
 40
0.0
 40
0.0312499999999999
 40
0.0312499999999999
 40
0.0624999999999998
 40
0.0624999999999998
 40
0.0937499999999998
 40
0.0937499999999998
 40
0.1249999999999997
 40
0.1249999999999997
 40
0.1874999999999998
 40
0.1874999999999998
 40
0.2499999999999998
 40
0.2499999999999998
 40
0.2812500000000003
 40
0.2812500000000003
 40
0.3125000000000007
 40
0.3125000000000007
 40
0.3437500000000011
 40
0.3437500000000011
 40
0.3750000000000015
 40
0.3750000000000015
 40
0.4062500000000019
 40
0.4062500000000019
 40
0.4375000000000024
 40
0.4375000000000024
 40
0.4687500000000028
 40
0.4687500000000028
 40
0.5000000000000032
 40
0.5000000000000032
 40
0.562500000000003
 40
0.562500000000003
 40
0.6250000000000027
 40
0.6250000000000027
 40
0.6562500000000027
 40
0.6562500000000027
 40
0.6875000000000026
 40
0.6875000000000026
 40
0.7187500000000024
 40
0.7187500000000024
 40
0.7500000000000023
 40
0.7500000000000023
 40
0.8125000000000021
 40
0.8125000000000021
 40
0.843750000000002
 40
0.843750000000002
 40
0.875000000000002
 40
0.875000000000002
 40
0.9375000000000009
 40
0.9375000000000009
 40
1.0
 40
1.0
 40
1.0
 40
1.0
 10
2.719637931034482
 20
2.154231314427304
 30
0.0
 10
2.723768900794886
 20
2.154231314427304
 30
0.0
 10
2.727830479730661
 20
2.154493863107123
 30
0.0
 10
2.735820642125316
 20
2.155525049226855
 30
0.0
 10
2.739790754093337
 20
2.156306326179087
 30
0.0
 10
2.747358735475071
 20
2.158353709442767
 30
0.0
 10
2.750947849623757
 20
2.159609761290282
 30
0.0
 10
2.757740395739275
 20
2.162593998579662
 30
0.0
 10
2.760955091956291
 20
2.1643377124197
 30
0.0
 10
2.76959905473603
 20
2.170090281837874
 30
0.0
 10
2.774255036525145
 20
2.174777972625446
 30
0.0
 10
2.780490264820285
 20
2.185072853819696
 30
0.0
 10
2.782133503427088
 20
2.190790115074151
 30
0.0
 10
2.782140131080683
 20
2.199440314390173
 30
0.0
 10
2.781734125143916
 20
2.202393531890234
 30
0.0
 10
2.780139176249132
 20
2.208154674726661
 30
0.0
 10
2.778959080570806
 20
2.210977666509423
 30
0.0
 10
2.775828934398333
 20
2.216500307680877
 30
0.0
 10
2.773872802090145
 20
2.219190076688282
 30
0.0
 10
2.769350307508221
 20
2.224199919397018
 30
0.0
 10
2.76676832191171
 20
2.22655164441722
 30
0.0
 10
2.760936324084129
 20
2.230922799269221
 30
0.0
 10
2.757779038717689
 20
2.232872029790162
 30
0.0
 10
2.751013192870687
 20
2.236295636255741
 30
0.0
 10
2.747360275239028
 20
2.237783506820455
 30
0.0
 10
2.739790035253262
 20
2.240174253554144
 30
0.0
 10
2.735894343293712
 20
2.241078758509758
 30
0.0
 10
2.72788368534867
 20
2.242303880114468
 30
0.0
 10
2.723740198796426
 20
2.242618523363414
 30
0.0
 10
2.7115015086673
 20
2.242621930020341
 30
0.0
 10
2.703275778294044
 20
2.24136520607014
 30
0.0
 10
2.688228673730999
 20
2.236625054119424
 30
0.0
 10
2.681254047403723
 20
2.233095249370284
 30
0.0
 10
2.67260266749647
 20
2.226628851195895
 30
0.0
 10
2.669961673213321
 20
2.224235965538553
 30
0.0
 10
2.66541885524506
 20
2.219211493682116
 30
0.0
 10
2.66349646023111
 20
2.216573738527215
 30
0.0
 10
2.660353884204842
 20
2.211056709232911
 30
0.0
 10
2.659146469939015
 20
2.20817866023122
 30
0.0
 10
2.657550628560973
 20
2.202436873034032
 30
0.0
 10
2.657141981908451
 20
2.199542116537343
 30
0.0
 10
2.657129918308013
 20
2.190787536675046
 30
0.0
 10
2.658748417076704
 20
2.18514808680962
 30
0.0
 10
2.663447765005984
 20
2.177368376106474
 30
0.0
 10
2.66536495624507
 20
2.174930261319117
 30
0.0
 10
2.669892284059961
 20
2.170348687655699
 30
0.0
 10
2.672528557138584
 20
2.168195194791949
 30
0.0
 10
2.68116940908161
 20
2.162436469918358
 30
0.0
 10
2.688133698513469
 20
2.159382339351291
 30
0.0
 10
2.703167920515241
 20
2.15530494996983
 30
0.0
 10
2.711375991513673
 20
2.154231314427304
 30
0.0
 10
2.719637931034481
 20
2.154231314427304
 30
0.0
  0
SPLINE
  5
178
330
1F
100
AcDbEntity
  8
0
  6
Continuous
 62
     7
370
    25
100
AcDbSpline
210
0.0
220
0.0
230
1.0
 70
    11
 71
     3
 72
    56
 73
    52
 74
     0
 42
0.000000001
 43
0.00000001
 40
0.0
 40
0.0
 40
0.0
 40
0.0
 40
0.0312499999999999
 40
0.0312499999999999
 40
0.0624999999999998
 40
0.0624999999999998
 40
0.0937499999999998
 40
0.0937499999999998
 40
0.1249999999999997
 40
0.1249999999999997
 40
0.1874999999999998
 40
0.1874999999999998
 40
0.2499999999999998
 40
0.2499999999999998
 40
0.2812500000000003
 40
0.2812500000000003
 40
0.3125000000000007
 40
0.3125000000000007
 40
0.3437500000000011
 40
0.3437500000000011
 40
0.3750000000000015
 40
0.3750000000000015
 40
0.4062500000000019
 40
0.4062500000000019
 40
0.4375000000000024
 40
0.4375000000000024
 40
0.4687500000000028
 40
0.4687500000000028
 40
0.5000000000000032
 40
0.5000000000000032
 40
0.562500000000003
 40
0.562500000000003
 40
0.6250000000000027
 40
0.6250000000000027
 40
0.6562500000000027
 40
0.6562500000000027
 40
0.6875000000000026
 40
0.6875000000000026
 40
0.7187500000000024
 40
0.7187500000000024
 40
0.7500000000000023
 40
0.7500000000000023
 40
0.8125000000000021
 40
0.8125000000000021
 40
0.843750000000002
 40
0.843750000000002
 40
0.875000000000002
 40
0.875000000000002
 40
0.9375000000000009
 40
0.9375000000000009
 40
1.0
 40
1.0
 40
1.0
 40
1.0
 10
4.443637931034482
 20
2.154231314427304
 30
0.0
 10
4.447768900794886
 20
2.154231314427304
 30
0.0
 10
4.451830479730662
 20
2.154493863107123
 30
0.0
 10
4.459820642125316
 20
2.155525049226855
 30
0.0
 10
4.463790754093337
 20
2.156306326179087
 30
0.0
 10
4.471358735475071
 20
2.158353709442767
 30
0.0
 10
4.474947849623758
 20
2.159609761290282
 30
0.0
 10
4.481740395739275
 20
2.162593998579662
 30
0.0
 10
4.484955091956291
 20
2.1643377124197
 30
0.0
 10
4.49359905473603
 20
2.170090281837874
 30
0.0
 10
4.498255036525145
 20
2.174777972625446
 30
0.0
 10
4.504490264820284
 20
2.185072853819696
 30
0.0
 10
4.506133503427089
 20
2.190790115074151
 30
0.0
 10
4.506140131080683
 20
2.199440314390173
 30
0.0
 10
4.505734125143916
 20
2.202393531890234
 30
0.0
 10
4.504139176249133
 20
2.208154674726661
 30
0.0
 10
4.502959080570806
 20
2.210977666509423
 30
0.0
 10
4.499828934398332
 20
2.216500307680877
 30
0.0
 10
4.497872802090146
 20
2.219190076688282
 30
0.0
 10
4.493350307508221
 20
2.224199919397018
 30
0.0
 10
4.49076832191171
 20
2.22655164441722
 30
0.0
 10
4.484936324084129
 20
2.230922799269221
 30
0.0
 10
4.48177903871769
 20
2.232872029790162
 30
0.0
 10
4.475013192870687
 20
2.236295636255741
 30
0.0
 10
4.471360275239028
 20
2.237783506820455
 30
0.0
 10
4.463790035253264
 20
2.240174253554144
 30
0.0
 10
4.459894343293713
 20
2.241078758509758
 30
0.0
 10
4.45188368534867
 20
2.242303880114468
 30
0.0
 10
4.447740198796427
 20
2.242618523363414
 30
0.0
 10
4.4355015086673
 20
2.242621930020341
 30
0.0
 10
4.427275778294044
 20
2.24136520607014
 30
0.0
 10
4.412228673730999
 20
2.236625054119424
 30
0.0
 10
4.405254047403723
 20
2.233095249370284
 30
0.0
 10
4.39660266749647
 20
2.226628851195895
 30
0.0
 10
4.393961673213322
 20
2.224235965538553
 30
0.0
 10
4.38941885524506
 20
2.219211493682116
 30
0.0
 10
4.387496460231111
 20
2.216573738527215
 30
0.0
 10
4.384353884204843
 20
2.211056709232911
 30
0.0
 10
4.383146469939017
 20
2.20817866023122
 30
0.0
 10
4.381550628560974
 20
2.202436873034032
 30
0.0
 10
4.381141981908452
 20
2.199542116537343
 30
0.0
 10
4.381129918308013
 20
2.190787536675046
 30
0.0
 10
4.382748417076704
 20
2.18514808680962
 30
0.0
 10
4.387447765005985
 20
2.177368376106474
 30
0.0
 10
4.389364956245069
 20
2.174930261319117
 30
0.0
 10
4.393892284059961
 20
2.170348687655699
 30
0.0
 10
4.396528557138584
 20
2.168195194791949
 30
0.0
 10
4.40516940908161
 20
2.162436469918358
 30
0.0
 10
4.41213369851347
 20
2.159382339351291
 30
0.0
 10
4.427167920515242
 20
2.15530494996983
 30
0.0
 10
4.435375991513674
 20
2.154231314427304
 30
0.0
 10
4.443637931034482
 20
2.154231314427304
 30
0.0
  0
SPLINE
  5
179
330
1F
100
AcDbEntity
  8
0
  6
Continuous
 62
     7
370
    25
100
AcDbSpline
210
0.0
220
0.0
230
1.0
 70
    11
 71
     3
 72
    56
 73
    52
 74
     0
 42
0.000000001
 43
0.00000001
 40
0.0
 40
0.0
 40
0.0
 40
0.0
 40
0.0312500000000005
 40
0.0312500000000005
 40
0.062500000000001
 40
0.062500000000001
 40
0.0937500000000015
 40
0.0937500000000015
 40
0.125000000000002
 40
0.125000000000002
 40
0.187500000000003
 40
0.187500000000003
 40
0.2500000000000041
 40
0.2500000000000041
 40
0.2812500000000044
 40
0.2812500000000044
 40
0.3125000000000047
 40
0.3125000000000047
 40
0.3437500000000051
 40
0.3437500000000051
 40
0.3750000000000054
 40
0.3750000000000054
 40
0.4062500000000057
 40
0.4062500000000057
 40
0.4375000000000061
 40
0.4375000000000061
 40
0.4687500000000064
 40
0.4687500000000064
 40
0.5000000000000067
 40
0.5000000000000067
 40
0.5625000000000063
 40
0.5625000000000063
 40
0.625000000000006
 40
0.625000000000006
 40
0.6562500000000053
 40
0.6562500000000053
 40
0.6875000000000048
 40
0.6875000000000048
 40
0.7187500000000041
 40
0.7187500000000041
 40
0.7500000000000036
 40
0.7500000000000036
 40
0.8125000000000028
 40
0.8125000000000028
 40
0.843750000000002
 40
0.843750000000002
 40
0.8750000000000013
 40
0.8750000000000013
 40
0.9375000000000007
 40
0.9375000000000007
 40
1.0
 40
1.0
 40
1.0
 40
1.0
 10
2.719637931034481
 20
3.211202222257783
 30
0.0
 10
2.723768900794886
 20
3.211202222257783
 30
0.0
 10
2.727830479730662
 20
3.211513173643511
 30
0.0
 10
2.735820642125316
 20
3.212728599833378
 30
0.0
 10
2.739790754093337
 20
3.213647881556308
 30
0.0
 10
2.747358735475071
 20
3.216037867483675
 30
0.0
 10
2.750947849623757
 20
3.217496854651918
 30
0.0
 10
2.757740395739275
 20
3.220926685370615
 30
0.0
 10
2.760955091956291
 20
3.222914667306623
 30
0.0
 10
2.769599054736029
 20
3.229388890890419
 30
0.0
 10
2.774255036525144
 20
3.234558248295319
 30
0.0
 10
2.780490264820284
 20
3.245532277526663
 30
0.0
 10
2.782133503427088
 20
3.251449765055507
 30
0.0
 10
2.782140131080683
 20
3.260100745447882
 30
0.0
 10
2.781734125143916
 20
3.263005671747956
 30
0.0
 10
2.780139176249132
 20
3.268582436487388
 30
0.0
 10
2.778959080570806
 20
3.271270375028306
 30
0.0
 10
2.775828934398332
 20
3.276451951809872
 30
0.0
 10
2.773872802090145
 20
3.278935407045348
 30
0.0
 10
2.769350307508221
 20
3.283501558915286
 30
0.0
 10
2.76676832191171
 20
3.285614013070682
 30
0.0
 10
2.760936324084129
 20
3.289498100202681
 30
0.0
 10
2.757779038717689
 20
3.29120758586481
 30
0.0
 10
2.751013192870688
 20
3.294186686965507
 30
0.0
 10
2.747360275239028
 20
3.295467737501962
 30
0.0
 10
2.739790035253263
 20
3.297515773454327
 30
0.0
 10
2.735894343293712
 20
3.298284493065446
 30
0.0
 10
2.72788368534867
 20
3.299323940580101
 30
0.0
 10
2.723740198796427
 20
3.299589606944662
 30
0.0
 10
2.7115015086673
 20
3.299592487812399
 30
0.0
 10
2.703275778294044
 20
3.298535886667586
 30
0.0
 10
2.688228673730998
 20
3.294475464488951
 30
0.0
 10
2.681254047403723
 20
3.291427827674797
 30
0.0
 10
2.672602667496471
 20
3.285682937324669
 30
0.0
 10
2.669961673213321
 20
3.283534172935336
 30
0.0
 10
2.66541885524506
 20
3.278955164279269
 30
0.0
 10
2.66349646023111
 20
3.276520114937286
 30
0.0
 10
2.660353884204843
 20
3.271345249109631
 30
0.0
 10
2.659146469939015
 20
3.268605304974658
 30
0.0
 10
2.657550628560973
 20
3.263047971131619
 30
0.0
 10
2.657141981908451
 20
3.260201810917308
 30
0.0
 10
2.657129918308013
 20
3.251448652763286
 30
0.0
 10
2.658748417076704
 20
3.245611689317618
 30
0.0
 10
2.663447765005984
 20
3.237319927415621
 30
0.0
 10
2.66536495624507
 20
3.234679482892065
 30
0.0
 10
2.669892284059961
 20
3.229653440701446
 30
0.0
 10
2.672528557138584
 20
3.22725588807126
 30
0.0
 10
2.68116940908161
 20
3.220775270911986
 30
0.0
 10
2.688133698513469
 20
3.217238490114981
 30
0.0
 10
2.703167920515241
 20
3.212479072273295
 30
0.0
 10
2.711375991513673
 20
3.211202222257783
 30
0.0
 10
2.719637931034481
 20
3.211202222257783
 30
0.0
  0
SPLINE
  5
17A
330
1F
100
AcDbEntity
  8
0
  6
Continuous
 62
     7
370
    25
100
AcDbSpline
210
0.0
220
0.0
230
1.0
 70
    11
 71
     3
 72
    56
 73
    52
 74
     0
 42
0.000000001
 43
0.00000001
 40
0.0
 40
0.0
 40
0.0
 40
0.0
 40
0.0312500000000005
 40
0.0312500000000005
 40
0.062500000000001
 40
0.062500000000001
 40
0.0937500000000015
 40
0.0937500000000015
 40
0.125000000000002
 40
0.125000000000002
 40
0.187500000000003
 40
0.187500000000003
 40
0.2500000000000041
 40
0.2500000000000041
 40
0.2812500000000044
 40
0.2812500000000044
 40
0.3125000000000047
 40
0.3125000000000047
 40
0.3437500000000051
 40
0.3437500000000051
 40
0.3750000000000054
 40
0.3750000000000054
 40
0.4062500000000057
 40
0.4062500000000057
 40
0.4375000000000061
 40
0.4375000000000061
 40
0.4687500000000064
 40
0.4687500000000064
 40
0.5000000000000067
 40
0.5000000000000067
 40
0.5625000000000063
 40
0.5625000000000063
 40
0.625000000000006
 40
0.625000000000006
 40
0.6562500000000053
 40
0.6562500000000053
 40
0.6875000000000048
 40
0.6875000000000048
 40
0.7187500000000041
 40
0.7187500000000041
 40
0.7500000000000036
 40
0.7500000000000036
 40
0.8125000000000028
 40
0.8125000000000028
 40
0.843750000000002
 40
0.843750000000002
 40
0.8750000000000013
 40
0.8750000000000013
 40
0.9375000000000007
 40
0.9375000000000007
 40
1.0
 40
1.0
 40
1.0
 40
1.0
 10
4.443637931034481
 20
3.211202222257783
 30
0.0
 10
4.447768900794886
 20
3.211202222257783
 30
0.0
 10
4.451830479730662
 20
3.211513173643511
 30
0.0
 10
4.459820642125316
 20
3.212728599833378
 30
0.0
 10
4.463790754093337
 20
3.213647881556308
 30
0.0
 10
4.471358735475071
 20
3.216037867483675
 30
0.0
 10
4.474947849623757
 20
3.217496854651918
 30
0.0
 10
4.481740395739275
 20
3.220926685370615
 30
0.0
 10
4.484955091956291
 20
3.222914667306623
 30
0.0
 10
4.49359905473603
 20
3.229388890890419
 30
0.0
 10
4.498255036525145
 20
3.234558248295319
 30
0.0
 10
4.504490264820284
 20
3.245532277526663
 30
0.0
 10
4.506133503427089
 20
3.251449765055507
 30
0.0
 10
4.506140131080683
 20
3.260100745447882
 30
0.0
 10
4.505734125143916
 20
3.263005671747956
 30
0.0
 10
4.504139176249133
 20
3.268582436487388
 30
0.0
 10
4.502959080570807
 20
3.271270375028306
 30
0.0
 10
4.499828934398332
 20
3.276451951809872
 30
0.0
 10
4.497872802090146
 20
3.278935407045348
 30
0.0
 10
4.493350307508221
 20
3.283501558915286
 30
0.0
 10
4.49076832191171
 20
3.285614013070682
 30
0.0
 10
4.484936324084129
 20
3.289498100202681
 30
0.0
 10
4.481779038717688
 20
3.29120758586481
 30
0.0
 10
4.475013192870687
 20
3.294186686965507
 30
0.0
 10
4.471360275239028
 20
3.295467737501962
 30
0.0
 10
4.463790035253263
 20
3.297515773454327
 30
0.0
 10
4.459894343293712
 20
3.298284493065446
 30
0.0
 10
4.45188368534867
 20
3.299323940580101
 30
0.0
 10
4.447740198796427
 20
3.299589606944662
 30
0.0
 10
4.4355015086673
 20
3.299592487812399
 30
0.0
 10
4.427275778294044
 20
3.298535886667586
 30
0.0
 10
4.412228673730999
 20
3.294475464488951
 30
0.0
 10
4.405254047403723
 20
3.291427827674797
 30
0.0
 10
4.396602667496471
 20
3.285682937324669
 30
0.0
 10
4.393961673213322
 20
3.283534172935336
 30
0.0
 10
4.38941885524506
 20
3.278955164279269
 30
0.0
 10
4.387496460231111
 20
3.276520114937286
 30
0.0
 10
4.384353884204843
 20
3.271345249109631
 30
0.0
 10
4.383146469939017
 20
3.268605304974658
 30
0.0
 10
4.381550628560973
 20
3.263047971131619
 30
0.0
 10
4.381141981908451
 20
3.260201810917308
 30
0.0
 10
4.381129918308013
 20
3.251448652763286
 30
0.0
 10
4.382748417076703
 20
3.245611689317618
 30
0.0
 10
4.387447765005984
 20
3.237319927415621
 30
0.0
 10
4.389364956245069
 20
3.234679482892065
 30
0.0
 10
4.393892284059961
 20
3.229653440701446
 30
0.0
 10
4.396528557138584
 20
3.22725588807126
 30
0.0
 10
4.40516940908161
 20
3.220775270911986
 30
0.0
 10
4.41213369851347
 20
3.217238490114981
 30
0.0
 10
4.427167920515243
 20
3.212479072273295
 30
0.0
 10
4.435375991513673
 20
3.211202222257783
 30
0.0
 10
4.443637931034482
 20
3.211202222257783
 30
0.0
  0
SPLINE
  5
17B
330
1F
100
AcDbEntity
  8
0
  6
Continuous
 62
     7
370
    25
100
AcDbSpline
210
0.0
220
0.0
230
1.0
 70
     8
 71
     3
 72
    27
 73
    23
 74
     0
 42
0.000000001
 43
0.00000001
 40
0.0
 40
0.0
 40
0.0
 40
0.0
 40
0.0499242156764483
 40
0.1013677709576418
 40
0.1512739315819261
 40
0.2025118326142171
 40
0.2547097550611699
 40
0.308282181246967
 40
0.3628812785796662
 40
0.4192138864645144
 40
0.4711116668194028
 40
0.5247721264305026
 40
0.5728559693882709
 40
0.6222857711669969
 40
0.6714819244929383
 40
0.7218967756228707
 40
0.7751620595215537
 40
0.8298977561918462
 40
0.8842274662450734
 40
0.940341960289758
 40
0.9912512184433513
 40
1.0
 40
1.0
 40
1.0
 40
1.0
 10
3.270187931034481
 20
3.476910942166707
 30
0.0
 10
3.27094668545673
 20
3.476594241041214
 30
0.0
 10
3.272487285412992
 20
3.475951200650576
 30
0.0
 10
3.28482280292648
 20
3.470905536686479
 30
0.0
 10
3.304160536238598
 20
3.463354011220659
 30
0.0
 10
3.330607292430286
 20
3.453721487320917
 30
0.0
 10
3.36406815713411
 20
3.442752044276159
 30
0.0
 10
3.404167165273819
 20
3.43147609729605
 30
0.0
 10
3.450594755357044
 20
3.4210943130797
 30
0.0
 10
3.500851853445905
 20
3.413308860290892
 30
0.0
 10
3.553508410609464
 20
3.409098381638553
 30
0.0
 10
3.604452870181787
 20
3.408945616181996
 30
0.0
 10
3.653775115150196
 20
3.412459169214349
 30
0.0
 10
3.699636058543858
 20
3.418845105592715
 30
0.0
 10
3.7430266915268
 20
3.427624869243629
 30
0.0
 10
3.78332034435179
 20
3.438050107809774
 30
0.0
 10
3.819729887353221
 20
3.44929881477052
 30
0.0
 10
3.850399711427936
 20
3.460067012667584
 30
0.0
 10
3.874176503558362
 20
3.469189806544194
 30
0.0
 10
3.888123203028641
 20
3.474845350077235
 30
0.0
 10
3.893984425669081
 20
3.477281859977853
 30
0.0
 10
3.892677911261226
 20
3.476741234190678
 30
0.0
 10
3.892486312455593
 20
3.476661952053033
 30
0.0
  0
LINE
  5
17C
330
1F
100
AcDbEntity
  8
0
  6
Continuous
 62
     7
370
    25
100
AcDbLine
 10
4.563637931
 20
3.4769109422
 30
0.0
 11
4.563637931
 21
1.9769109422
 31
0.0
  0
LINE
  5
17D
330
1F
100
AcDbEntity
  8
0
  6
Continuous
 62
     7
370
    25
100
AcDbLine
 10
3.4619331869
 20
3.9121235406
 30
0.0
 11
3.7013426752
 21
3.9121235406
 31
0.0
  0
LINE
  5
17E
330
1F
100
AcDbEntity
  8
0
  6
Continuous
 62
     7
370
    25
100
AcDbLine
 10
3.3686348849
 20
3.6909109422
 30
0.0
 11
3.7946409771
 21
3.6909109422
 31
0.0
  0
LINE
  5
17F
330
1F
100
AcDbEntity
  8
0
  6
Continuous
 62
     7
370
    25
100
AcDbLine
 10
3.3686348849
 20
3.6909109422
 30
0.0
 11
3.348637931
 21
3.6909109422
 31
0.0
  0
LINE
  5
180
330
1F
100
AcDbEntity
  8
0
  6
Continuous
 62
     7
370
    25
100
AcDbLine
 10
3.348637931
 20
3.6909109422
 30
0.0
 11
3.351792028
 21
3.8716090384
 31
0.0
  0
LINE
  5
181
330
1F
100
AcDbEntity
  8
0
  6
Continuous
 62
     7
370
    25
100
AcDbLine
 10
3.3520303063
 20
3.496561894
 30
0.0
 11
3.348637931
 21
3.6909109422
 31
0.0
  0
LINE
  5
182
330
1F
100
AcDbEntity
  8
0
  6
Continuous
 62
     7
370
    25
100
AcDbLine
 10
3.814637931
 20
3.6909109422
 30
0.0
 11
3.7946409771
 21
3.6909109422
 31
0.0
  0
LINE
  5
183
330
1F
100
AcDbEntity
  8
0
  6
Continuous
 62
     7
370
    25
100
AcDbLine
 10
3.811483834
 20
3.8716090384
 30
0.0
 11
3.814637931
 21
3.6909109422
 31
0.0
  0
LINE
  5
184
330
1F
100
AcDbEntity
  8
0
  6
Continuous
 62
     7
370
    25
100
AcDbLine
 10
3.814637931
 20
3.6909109422
 30
0.0
 11
3.8112455558
 21
3.496561894
 31
0.0
  0
ARC
  5
185
330
1F
100
AcDbEntity
  8
0
  6
Continuous
 62
     7
370
    25
100
AcDbCircle
 10
3.3917859358
 20
3.8709109422
 30
0.0
 40
0.04
100
AcDbArc
 50
90.0
 51
179.0
  0
LINE
  5
186
330
1F
100
AcDbEntity
  8
0
  6
Continuous
 62
     7
370
    25
100
AcDbLine
 10
3.3917859358
 20
3.9109109422
 30
0.0
 11
3.7714899262
 21
3.9109109422
 31
0.0
  0
ARC
  5
187
330
1F
100
AcDbEntity
  8
0
  6
Continuous
 62
     7
370
    25
100
AcDbCircle
 10
3.7714899262
 20
3.8709109422
 30
0.0
 40
0.0400000000000003
100
AcDbArc
 50
1.0
 51
90.0
  0
LINE
  5
188
330
1F
100
AcDbEntity
  8
0
  6
Continuous
 62
     7
370
    25
100
AcDbLine
 10
3.7912486019
 20
3.4769109422
 30
0.0
 11
3.3720272602
 21
3.4769109422
 31
0.0
  0
ARC
  5
189
330
1F
100
AcDbEntity
  8
0
  6
Continuous
 62
     7
370
    25
100
AcDbCircle
 10
3.3720272602
 20
3.4969109422
 30
0.0
 40
0.0199999999999997
100
AcDbArc
 50
181.0
 51
270.0
  0
ARC
  5
18A
330
1F
100
AcDbEntity
  8
0
  6
Continuous
 62
     7
370
    25
100
AcDbCircle
 10
3.7912486019
 20
3.4969109422
 30
0.0
 40
0.0200000000000001
100
AcDbArc
 50
270.0
 51
359.0
  0
SPLINE
  5
18B
330
1F
100
AcDbEntity
  8
0
  6
Continuous
 62
     7
370
    25
100
AcDbSpline
210
0.0
220
0.0
230
1.0
 70
     8
 71
     3
 72
    15
 73
    11
 74
     0
 42
0.000000001
 43
0.00000001
 40
0.0
 40
0.0
 40
0.0
 40
0.0
 40
0.0119107794961338
 40
0.0559574999983982
 40
0.1418791764324146
 40
0.2440268440921137
 40
0.4623384678481532
 40
0.6488550905617575
 40
0.82419749414301
 40
1.0
 40
1.0
 40
1.0
 40
1.0
 10
3.814756885966552
 20
3.684096018672464
 30
0.0
 10
3.814758525185648
 20
3.684044784665008
 30
0.0
 10
3.814766226327508
 20
3.683804084467921
 30
0.0
 10
3.814861644919949
 20
3.683601637333665
 30
0.0
 10
3.815248789582787
 20
3.684146315580445
 30
0.0
 10
3.816415855688006
 20
3.685559327532517
 30
0.0
 10
3.818919750281986
 20
3.687541625428605
 30
0.0
 10
3.823297636740834
 20
3.689425149304255
 30
0.0
 10
3.828505492452913
 20
3.690689474220667
 30
0.0
 10
3.832392573455388
 20
3.690837572711877
 30
0.0
 10
3.834338660561698
 20
3.690911718983597
 30
0.0
  0
LINE
  5
18C
330
1F
100
AcDbEntity
  8
0
  6
Continuous
 62
     7
370
    25
100
AcDbLine
 10
3.814637931
 20
3.6909109422
 30
0.0
 11
3.814756886
 21
3.6840960187
 31
0.0
  0
SPLINE
  5
18D
330
1F
100
AcDbEntity
  8
0
  6
Continuous
 62
     7
370
    25
100
AcDbSpline
210
0.0
220
0.0
230
1.0
 70
     8
 71
     3
 72
    14
 73
    10
 74
     0
 42
0.000000001
 43
0.00000001
 40
0.0
 40
0.0
 40
0.0
 40
0.0
 40
0.0518841352294911
 40
0.2502967472784384
 40
0.4477039987191931
 40
0.6743941900663106
 40
0.8871207286525542
 40
0.9545393061931678
 40
1.0
 40
1.0
 40
1.0
 40
1.0
 10
3.328937201507265
 20
3.690911718983597
 30
0.0
 10
3.329508618639831
 20
3.690907548014714
 30
0.0
 10
3.332265219457944
 20
3.690887426643514
 30
0.0
 10
3.337091575199898
 20
3.690255347519457
 30
0.0
 10
3.342523699193443
 20
3.688503730394757
 30
0.0
 10
3.346379100799466
 20
3.686161970504541
 30
0.0
 10
3.348003901653909
 20
3.68416669732639
 30
0.0
 10
3.348470298092017
 20
3.683562048893259
 30
0.0
 10
3.348505000249098
 20
3.683942711599022
 30
0.0
 10
3.348518976102403
 20
3.68409601867218
 30
0.0
  0
LINE
  5
18E
330
1F
100
AcDbEntity
  8
0
  6
Continuous
 62
     7
370
    25
100
AcDbLine
 10
3.3485189761
 20
3.6840960187
 30
0.0
 11
3.348637931
 21
3.6909109422
 31
0.0
  0
ELLIPSE
  5
18F
330
1F
100
AcDbEntity
  8
0
  6
Continuous
 62
     7
370
    25
100
AcDbEllipse
 10
3.3288206374
 20
3.7015527199
 30
0.0
 11
0.02000328511168448
 21
9.284637448914169E-5
 31
0.0
210
0.0
220
0.0
230
1.0
 40
0.5319812535
 41
4.703664164395375
 42
4.715747028135063
  0
ELLIPSE
  5
190
330
1F
100
AcDbEntity
  8
0
  6
Continuous
 62
     7
370
    25
100
AcDbEllipse
 10
3.8344552247
 20
3.7015527199
 30
0.0
 11
0.02000328511168403
 21
-9.284637448869758E-5
 31
0.0
210
0.0
220
0.0
230
1.0
 40
0.5319812535
 41
4.709030932634364
 42
4.721113796374029
  0
LINE
  5
191
330
1F
100
AcDbEntity
  8
0
  6
Continuous
 62
     7
370
    25
100
AcDbLine
 10
3.206637931
 20
3.6909109422
 30
0.0
 11
3.206756886
 21
3.6977258657
 31
0.0
  0
SPLINE
  5
192
330
1F
100
AcDbEntity
  8
0
  6
Continuous
 62
     7
370
    25
100
AcDbSpline
210
0.0
220
0.0
230
1.0
 70
     8
 71
     3
 72
    14
 73
    10
 74
     0
 42
0.000000001
 43
0.00000001
 40
0.0
 40
0.0
 40
0.0
 40
0.0
 40
0.0454606938068837
 40
0.1128792713475626
 40
0.3256058099340636
 40
0.5522960012813838
 40
0.7497032527220552
 40
0.9481158647709151
 40
0.9999999999999999
 40
0.9999999999999999
 40
0.9999999999999999
 40
0.9999999999999999
 10
3.206756885966559
 20
3.697725865661249
 30
0.0
 10
3.206770861819864
 20
3.6978791727344
 30
0.0
 10
3.206805563976945
 20
3.698259835440149
 30
0.0
 10
3.207271960415054
 20
3.697655187007027
 30
0.0
 10
3.208896761269501
 20
3.695659913828865
 30
0.0
 10
3.21275216287553
 20
3.69331815393865
 30
0.0
 10
3.218184286869079
 20
3.691566536813952
 30
0.0
 10
3.223010642611028
 20
3.690934457689897
 30
0.0
 10
3.225767243429134
 20
3.690914336318698
 30
0.0
 10
3.226338660561697
 20
3.690910165349816
 30
0.0
  0
ELLIPSE
  5
193
330
1F
100
AcDbEntity
  8
0
  6
Continuous
 62
     7
370
    25
100
AcDbEllipse
 10
3.2267932223
 20
3.6821888465
 30
0.0
 11
0.01999695390312839
 21
0.0003490481287458103
 31
0.0
210
0.0
220
0.0
230
1.0
 40
0.4416457031
 41
3.141592653589826
 42
4.697274177545006
  0
LINE
  5
194
330
1F
100
AcDbEntity
  8
0
  6
Continuous
 62
     7
370
    25
100
AcDbLine
 10
3.2067962684
 20
3.6818397984
 30
0.0
 11
3.206637931
 21
3.6909109422
 31
0.0
  0
ELLIPSE
  5
195
330
1F
100
AcDbEntity
  8
0
  6
Continuous
 62
     7
370
    25
100
AcDbEllipse
 10
3.2264552247
 20
3.6802691644
 30
0.0
 11
0.02000328511168359
 21
9.284637448958577E-5
 31
0.0
210
0.0
220
0.0
230
1.0
 40
0.5319812535
 41
1.562071510805564
 42
1.574154374545206
  0
LINE
  5
196
330
1F
100
AcDbEntity
  8
0
  6
Continuous
 62
     7
370
    25
100
AcDbLine
 10
3.206756886
 20
3.6977258657
 30
0.0
 11
3.209792028
 21
3.8716090384
 31
0.0
  0
SPLINE
  5
197
330
1F
100
AcDbEntity
  8
0
  6
Continuous
 62
     7
370
    25
100
AcDbSpline
210
0.0
220
0.0
230
1.0
 70
     8
 71
     3
 72
    15
 73
    11
 74
     0
 42
0.000000001
 43
0.00000001
 40
0.0
 40
0.0
 40
0.0
 40
0.0
 40
0.175802505857005
 40
0.3511449094382726
 40
0.5376615321518935
 40
0.7559731559079516
 40
0.8581208235675138
 40
0.944042500001794
 40
0.9880892205040357
 40
1.0
 40
1.0
 40
1.0
 40
1.0
 10
3.936937201507264
 20
3.690910165349816
 30
0.0
 10
3.938883288613575
 20
3.690984311621536
 30
0.0
 10
3.942770369616048
 20
3.691132410112745
 30
0.0
 10
3.947978225328128
 20
3.692396735029157
 30
0.0
 10
3.952356111786977
 20
3.694280258904808
 30
0.0
 10
3.954860006380955
 20
3.696262556800895
 30
0.0
 10
3.956027072486175
 20
3.697675568752967
 30
0.0
 10
3.956414217149013
 20
3.698220246999747
 30
0.0
 10
3.956509635741454
 20
3.69801779986549
 30
0.0
 10
3.956517336883314
 20
3.697777099668405
 30
0.0
 10
3.95651897610241
 20
3.697725865660949
 30
0.0
  0
LINE
  5
198
330
1F
100
AcDbEntity
  8
0
  6
Continuous
 62
     7
370
    25
100
AcDbLine
 10
3.9565189761
 20
3.6977258657
 30
0.0
 11
3.956637931
 21
3.6909109422
 31
0.0
  0
LINE
  5
199
330
1F
100
AcDbEntity
  8
0
  6
Continuous
 62
     7
370
    25
100
AcDbLine
 10
3.956637931
 20
3.6909109422
 30
0.0
 11
3.9564795936
 21
3.6818397984
 31
0.0
  0
ELLIPSE
  5
19A
330
1F
100
AcDbEntity
  8
0
  6
Continuous
 62
     7
370
    25
100
AcDbEllipse
 10
3.9364826397
 20
3.6821888465
 30
0.0
 11
0.01999695390312839
 21
-0.0003490481287458103
 31
0.0
210
0.0
220
0.0
230
1.0
 40
0.4416457031
 41
4.727503783224408
 42
6.283185307179586
  0
LINE
  5
19B
330
1F
100
AcDbEntity
  8
0
  6
Continuous
 62
     7
370
    25
100
AcDbLine
 10
3.953483834
 20
3.8716090384
 30
0.0
 11
3.9565189761
 21
3.6977258657
 31
0.0
  0
ELLIPSE
  5
19C
330
1F
100
AcDbEntity
  8
0
  6
Continuous
 62
     7
370
    25
100
AcDbEllipse
 10
3.9368206374
 20
3.6802691644
 30
0.0
 11
0.02000328511168359
 21
-9.284637448825350E-5
 31
0.0
210
0.0
220
0.0
230
1.0
 40
0.5319812535
 41
1.567438279044574
 42
1.579521142784216
  0
LINE
  5
19D
330
1F
100
AcDbEntity
  8
0
  6
Continuous
 62
     7
370
    25
100
AcDbLine
 10
3.2265803568
 20
3.6909109422
 30
0.0
 11
3.3286955053
 21
3.6909109422
 31
0.0
  0
LINE
  5
19E
330
1F
100
AcDbEntity
  8
0
  6
Continuous
 62
     7
370
    25
100
AcDbLine
 10
3.8345803568
 20
3.6909109422
 30
0.0
 11
3.9366955053
 21
3.6909109422
 31
0.0
  0
ARC
  5
19F
330
1F
100
AcDbEntity
  8
0
  6
Continuous
 62
     7
370
    25
100
AcDbCircle
 10
3.2497859358
 20
3.8709109422
 30
0.0
 40
0.0399999999999999
100
AcDbArc
 50
170.0
 51
179.0
  0
ARC
  5
1A0
330
1F
100
AcDbEntity
  8
0
  6
Continuous
 62
     7
370
    25
100
AcDbCircle
 10
3.9134899262
 20
3.8709109422
 30
0.0
 40
0.0399999999999999
100
AcDbArc
 50
1.0
 51
10.0
  0
ARC
  5
1A1
330
1F
100
AcDbEntity
  8
0
  6
Continuous
 62
     7
370
    25
100
AcDbCircle
 10
3.2497859358
 20
3.8709109422
 30
0.0
 40
0.04
100
AcDbArc
 50
90.0
 51
170.0
  0
LINE
  5
1A2
330
1F
100
AcDbEntity
  8
0
  6
Continuous
 62
     7
370
    25
100
AcDbLine
 10
3.2497859358
 20
3.9109109422
 30
0.0
 11
3.3917859358
 21
3.9109109422
 31
0.0
  0
LINE
  5
1A3
330
1F
100
AcDbEntity
  8
0
  6
Continuous
 62
     7
370
    25
100
AcDbLine
 10
3.7714899262
 20
3.9109109422
 30
0.0
 11
3.9134899262
 21
3.9109109422
 31
0.0
  0
ARC
  5
1A4
330
1F
100
AcDbEntity
  8
0
  6
Continuous
 62
     7
370
    25
100
AcDbCircle
 10
3.9134899262
 20
3.8709109422
 30
0.0
 40
0.04
100
AcDbArc
 50
10.0
 51
90.0
  0
LINE
  5
1A5
330
1F
100
AcDbEntity
  8
0
  6
Continuous
 62
     7
370
    25
100
AcDbLine
 10
3.2100303063
 20
3.496561894
 30
0.0
 11
3.2067962684
 21
3.6818397984
 31
0.0
  0
LINE
  5
1A6
330
1F
100
AcDbEntity
  8
0
  6
Continuous
 62
     7
370
    25
100
AcDbLine
 10
3.9564795936
 20
3.6818397984
 30
0.0
 11
3.9532455558
 21
3.496561894
 31
0.0
  0
LINE
  5
1A7
330
1F
100
AcDbEntity
  8
0
  6
Continuous
 62
     7
370
    25
100
AcDbLine
 10
3.3720272602
 20
3.4769109422
 30
0.0
 11
3.2300272602
 21
3.4769109422
 31
0.0
  0
ARC
  5
1A8
330
1F
100
AcDbEntity
  8
0
  6
Continuous
 62
     7
370
    25
100
AcDbCircle
 10
3.2300272602
 20
3.4969109422
 30
0.0
 40
0.0199999999999997
100
AcDbArc
 50
181.0
 51
270.0
  0
ARC
  5
1A9
330
1F
100
AcDbEntity
  8
0
  6
Continuous
 62
     7
370
    25
100
AcDbCircle
 10
3.9332486019
 20
3.4969109422
 30
0.0
 40
0.0199999999999997
100
AcDbArc
 50
270.0
 51
359.0
  0
LINE
  5
1AA
330
1F
100
AcDbEntity
  8
0
  6
Continuous
 62
     7
370
    25
100
AcDbLine
 10
3.9332486019
 20
3.4769109422
 30
0.0
 11
3.7912486019
 21
3.4769109422
 31
0.0
  0
LWPOLYLINE
  5
1AB
330
1F
100
AcDbEntity
  8
0
  6
Continuous
 62
     7
370
    25
100
AcDbPolyline
 90
       18
 70
   128
 43
0.0
 10
4.490137931
 20
3.2572410281
 10
4.4869978897
 20
3.2691188221
 10
4.4780018457
 20
3.2793924543
 10
4.4643647646
 20
3.2866744136
 10
4.4479284097
 20
3.2899812311
 10
4.430912602
 20
3.2888663028
 10
4.4156154204
 20
3.2834802058
 10
4.4041028342
 20
3.2745503625
 10
4.3979296819
 20
3.2632827977
 10
4.3979296819
 20
3.2511992584
 10
4.4041028342
 20
3.2399316936
 10
4.4156154204
 20
3.2310018503
 10
4.430912602
 20
3.2256157533
 10
4.4479284097
 20
3.224500825
 10
4.4643647646
 20
3.2278076425
 10
4.4780018457
 20
3.2350896018
 10
4.4869978897
 20
3.245363234
 10
4.490137931
 20
3.2572410281
  0
LWPOLYLINE
  5
1AC
330
1F
100
AcDbEntity
  8
0
  6
Continuous
 62
     7
370
    25
100
AcDbPolyline
 90
       11
 70
   128
 43
0.0
 10
4.3817176776
 20
3.2519328257
 10
4.3841968988
 20
3.2595840703
 10
4.3930743689
 20
3.2719040032
 10
4.4069013528
 20
3.2816811572
 10
4.4243243689
 20
3.2879584766
 10
4.443637931
 20
3.2901214934
 10
4.4629514932
 20
3.2879584766
 10
4.4803745093
 20
3.2816811572
 10
4.4942014932
 20
3.2719040032
 10
4.5030789633
 20
3.2595840703
 10
4.5055254355
 20
3.2520993044
  0
LWPOLYLINE
  5
1AD
330
1F
100
AcDbEntity
  8
0
  6
Continuous
 62
     7
370
    25
100
AcDbPolyline
 90
       18
 70
   128
 43
0.0
 10
4.490137931
 20
2.1965808563
 10
4.4869978897
 20
2.2084586504
 10
4.4780018457
 20
2.2187322825
 10
4.4643647646
 20
2.2260142418
 10
4.4479284097
 20
2.2293210593
 10
4.430912602
 20
2.228206131
 10
4.4156154204
 20
2.222820034
 10
4.4041028342
 20
2.2138901908
 10
4.3979296819
 20
2.2026226259
 10
4.3979296819
 20
2.1905390866
 10
4.4041028342
 20
2.1792715218
 10
4.4156154204
 20
2.1703416785
 10
4.430912602
 20
2.1649555816
 10
4.4479284097
 20
2.1638406532
 10
4.4643647646
 20
2.1671474707
 10
4.4780018457
 20
2.17442943
 10
4.4869978897
 20
2.1847030622
 10
4.490137931
 20
2.1965808563
  0
LWPOLYLINE
  5
1AE
330
1F
100
AcDbEntity
  8
0
  6
Continuous
 62
     7
370
    25
100
AcDbPolyline
 90
       11
 70
   128
 43
0.0
 10
4.5057880853
 20
2.2032250723
 10
4.5030789633
 20
2.194237814
 10
4.4942014932
 20
2.1819178812
 10
4.4803745093
 20
2.1721407271
 10
4.4629514932
 20
2.1658634078
 10
4.443637931
 20
2.163700391
 10
4.4243243689
 20
2.1658634078
 10
4.4069013528
 20
2.1721407271
 10
4.3930743689
 20
2.1819178812
 10
4.3841968988
 20
2.194237814
 10
4.381501631
 20
2.203133776
  0
LWPOLYLINE
  5
1AF
330
1F
100
AcDbEntity
  8
0
  6
Continuous
 62
     7
370
    25
100
AcDbPolyline
 90
       18
 70
   128
 43
0.0
 10
2.766137931
 20
2.1965808563
 10
2.7629978897
 20
2.2084586504
 10
2.7540018457
 20
2.2187322825
 10
2.7403647646
 20
2.2260142418
 10
2.7239284097
 20
2.2293210593
 10
2.706912602
 20
2.228206131
 10
2.6916154204
 20
2.222820034
 10
2.6801028342
 20
2.2138901908
 10
2.6739296819
 20
2.2026226259
 10
2.6739296819
 20
2.1905390866
 10
2.6801028342
 20
2.1792715218
 10
2.6916154204
 20
2.1703416785
 10
2.706912602
 20
2.1649555816
 10
2.7239284097
 20
2.1638406532
 10
2.7403647646
 20
2.1671474707
 10
2.7540018457
 20
2.17442943
 10
2.7629978897
 20
2.1847030622
 10
2.766137931
 20
2.1965808563
  0
LWPOLYLINE
  5
1B0
330
1F
100
AcDbEntity
  8
0
  6
Continuous
 62
     7
370
    25
100
AcDbPolyline
 90
       11
 70
   128
 43
0.0
 10
2.7817880853
 20
2.2032250723
 10
2.7790789633
 20
2.194237814
 10
2.7702014932
 20
2.1819178812
 10
2.7563745093
 20
2.1721407271
 10
2.7389514932
 20
2.1658634078
 10
2.719637931
 20
2.163700391
 10
2.7003243689
 20
2.1658634078
 10
2.6829013528
 20
2.1721407271
 10
2.6690743689
 20
2.1819178812
 10
2.6601968988
 20
2.194237814
 10
2.657501631
 20
2.203133776
  0
LWPOLYLINE
  5
1B1
330
1F
100
AcDbEntity
  8
0
  6
Continuous
 62
     7
370
    25
100
AcDbPolyline
 90
       18
 70
   128
 43
0.0
 10
2.766137931
 20
3.2572410281
 10
2.7629978897
 20
3.2691188221
 10
2.7540018457
 20
3.2793924543
 10
2.7403647646
 20
3.2866744136
 10
2.7239284097
 20
3.2899812311
 10
2.706912602
 20
3.2888663028
 10
2.6916154204
 20
3.2834802058
 10
2.6801028342
 20
3.2745503625
 10
2.6739296819
 20
3.2632827977
 10
2.6739296819
 20
3.2511992584
 10
2.6801028342
 20
3.2399316936
 10
2.6916154204
 20
3.2310018503
 10
2.706912602
 20
3.2256157533
 10
2.7239284097
 20
3.224500825
 10
2.7403647646
 20
3.2278076425
 10
2.7540018457
 20
3.2350896018
 10
2.7629978897
 20
3.245363234
 10
2.766137931
 20
3.2572410281
  0
LWPOLYLINE
  5
1B2
330
1F
100
AcDbEntity
  8
0
  6
Continuous
 62
     7
370
    25
100
AcDbPolyline
 90
       11
 70
   128
 43
0.0
 10
2.6577176776
 20
3.2519328257
 10
2.6601968988
 20
3.2595840703
 10
2.6690743689
 20
3.2719040032
 10
2.6829013528
 20
3.2816811572
 10
2.7003243689
 20
3.2879584766
 10
2.719637931
 20
3.2901214934
 10
2.7389514932
 20
3.2879584766
 10
2.7563745093
 20
3.2816811572
 10
2.7702014932
 20
3.2719040032
 10
2.7790789633
 20
3.2595840703
 10
2.7815254355
 20
3.2520993044
  0
DIMENSION
  5
1B3
330
1F
100
AcDbEntity
  8
DATA
 62
     7
100
AcDbDimension
  2
_D
 10
5.4053275862
 20
2.8519109422
 30
0.0
 11
5.4053275862
 21
2.3366206897
 31
0.0
 70
   160
  1
<>
 71
     2
 42
-1.0
  3
SLDDIMSTYLE0
100
AcDbAlignedDimension
 13
6.128637931
 23
2.6019109422
 33
0.0
 14
6.128637931
 24
2.8519109422
 34
0.0
 50
90.0
100
AcDbRotatedDimension
  0
DIMENSION
  5
1C7
330
1F
100
AcDbEntity
  8
DATA
 62
     7
100
AcDbDimension
  2
_D_1
 10
6.5223387184
 20
1.9769109422
 30
0.0
 11
6.5223387184
 21
2.9439109422
 31
0.0
 70
   160
  1
<>
 71
     2
 42
-1.0
  3
SLDDIMSTYLE1
100
AcDbAlignedDimension
 13
3.9134899262
 23
3.9109109422
 33
0.0
 14
4.563637931
 24
1.9769109422
 34
0.0
 50
90.0
100
AcDbRotatedDimension
  0
DIMENSION
  5
1DC
330
1F
100
AcDbEntity
  8
DATA
 62
     7
100
AcDbDimension
  2
_D_2
 10
5.4053275862
 20
3.4769109422
 30
0.0
 11
5.4053275862
 21
3.6939109422
 31
0.0
 70
   160
  1
<>
 71
     2
 42
-1.0
  3
SLDDIMSTYLE0
100
AcDbAlignedDimension
 13
3.9134899262
 23
3.9109109422
 33
0.0
 14
4.563637931
 24
3.4769109422
 34
0.0
 50
90.0
100
AcDbRotatedDimension
  0
LINE
  5
1F0
330
1F
100
AcDbEntity
  8
0
  6
Continuous
 62
     7
370
    25
100
AcDbLine
 10
9.5668947284
 20
2.1542313144
 30
0.0
 11
9.566939871
 21
2.1541861717
 31
0.0
  0
LINE
  5
1F1
330
1F
100
AcDbEntity
  8
0
  6
Continuous
 62
     7
370
    25
100
AcDbLine
 10
9.655283076
 20
3.2112022223
 30
0.0
 11
9.6553282187
 21
3.2112473649
 31
0.0
  0
LINE
  5
1F2
330
1F
100
AcDbEntity
  8
0
  6
Continuous
 62
     7
370
    25
100
AcDbLine
 10
8.5983121682
 20
3.2995905699
 30
0.0
 11
8.5982670255
 21
3.2996357126
 31
0.0
  0
LINE
  5
1F3
330
1F
100
AcDbEntity
  8
0
  6
Continuous
 62
     7
370
    25
100
AcDbLine
 10
8.5099238205
 20
2.2426196621
 30
0.0
 11
8.5098786779
 21
2.2425745194
 31
0.0
  0
LINE
  5
1F4
330
1F
100
AcDbEntity
  8
0
  6
Continuous
 62
     7
370
    25
100
AcDbLine
 10
9.2086731948
 20
3.9109109422
 30
0.0
 11
9.2074422575
 21
3.9121235406
 31
0.0
  0
LINE
  5
1F5
330
1F
100
AcDbEntity
  8
0
  6
Continuous
 62
     7
370
    25
100
AcDbLine
 10
8.9577646391
 20
3.9121235406
 30
0.0
 11
8.9565337018
 21
3.9109109422
 31
0.0
  0
SPLINE
  5
1F6
330
1F
100
AcDbEntity
  8
0
  6
Continuous
 62
     7
370
    25
100
AcDbSpline
210
0.0
220
0.0
230
1.0
 70
     8
 71
     3
 72
    11
 73
     7
 74
     0
 42
0.000000001
 43
0.00000001
 40
0.0
 40
0.0
 40
0.0
 40
0.0
 40
0.1415359330574113
 40
0.449195618238172
 40
0.7986993724608272
 40
1.0
 40
1.0
 40
1.0
 40
1.0
 10
8.798060556374374
 20
3.476910942166707
 30
0.0
 10
8.798181166999683
 20
3.476669919314245
 30
0.0
 10
8.798563951521123
 20
3.475904979931842
 30
0.0
 10
8.799324258911177
 20
3.473358098059631
 30
0.0
 10
8.79992149077582
 20
3.470132370668388
 30
0.0
 10
8.799942515869606
 20
3.467871597058374
 30
0.0
 10
8.799950199840021
 20
3.467045359719877
 30
0.0
  0
SPLINE
  5
1F7
330
1F
100
AcDbEntity
  8
0
  6
Continuous
 62
     7
370
    25
100
AcDbSpline
210
0.0
220
0.0
230
1.0
 70
     8
 71
     3
 72
    11
 73
     7
 74
     0
 42
0.000000001
 43
0.00000001
 40
0.0
 40
0.0
 40
0.0
 40
0.0
 40
0.0619249686921492
 40
0.4222122101321526
 40
0.7803253978546152
 40
1.0
 40
1.0
 40
1.0
 40
1.0
 10
9.36522062946631
 20
3.467054506996543
 30
0.0
 10
9.365215184106528
 20
3.467304772484797
 30
0.0
 10
9.365178056959971
 20
3.469011114000133
 30
0.0
 10
9.365619737648217
 20
3.472118117758751
 30
0.0
 10
9.366424724555152
 20
3.475364818957943
 30
0.0
 10
9.366950172142355
 20
3.476485036187749
 30
0.0
 10
9.367149947028032
 20
3.476910942166707
 30
0.0
  0
LINE
  5
1F8
330
1F
100
AcDbEntity
  8
0
  6
Continuous
 62
     7
370
    25
100
AcDbLine
 10
9.3641961419
 20
3.4215792113
 30
0.0
 11
9.3651524864
 21
3.4670497535
 31
0.0
  0
LINE
  5
1F9
330
1F
100
AcDbEntity
  8
0
  6
Continuous
 62
     7
370
    25
100
AcDbLine
 10
8.8000544934
 20
3.4670497665
 30
0.0
 11
8.8011147133
 21
3.4169089904
 31
0.0
  0
ARC
  5
1FA
330
1F
100
AcDbEntity
  8
0
  6
Continuous
 62
     7
370
    25
100
AcDbCircle
 10
9.3736804209
 20
3.4669109422
 30
0.0
 40
0.0100000000000002
100
AcDbArc
 50
90.0
 51
142.5466963834
  0
ARC
  5
1FB
330
1F
100
AcDbEntity
  8
0
  6
Continuous
 62
     7
370
    25
100
AcDbCircle
 10
8.7915264756
 20
3.4669109422
 30
0.0
 40
0.0100000000000002
100
AcDbArc
 50
37.6208462371
 51
90.0
  0
LINE
  5
1FC
330
1F
100
AcDbEntity
  8
0
  6
Continuous
 62
     7
370
    25
100
AcDbLine
 10
9.3605045658
 20
3.2850535932
 30
0.0
 11
9.3605335544
 21
3.2867143506
 31
0.0
  0
LINE
  5
1FD
330
1F
100
AcDbEntity
  8
0
  6
Continuous
 62
     7
370
    25
100
AcDbLine
 10
8.8046733421
 20
3.2867143506
 30
0.0
 11
8.8047023308
 21
3.2850535932
 31
0.0
  0
LINE
  5
1FE
330
1F
100
AcDbEntity
  8
0
  6
Continuous
 62
     7
370
    25
100
AcDbLine
 10
9.364196916
 20
3.4215788228
 30
0.0
 11
9.3651532662
 21
3.4670497517
 31
0.0
  0
LINE
  5
1FF
330
1F
100
AcDbEntity
  8
0
  6
Continuous
 62
     7
370
    25
100
AcDbLine
 10
8.6881371612
 20
3.2097655769
 30
0.0
 11
8.6870711446
 21
3.2108315935
 31
0.0
  0
LINE
  5
200
330
1F
100
AcDbEntity
  8
0
  6
Continuous
 62
     7
370
    25
100
AcDbLine
 10
8.598682797
 20
3.1224432458
 30
0.0
 11
8.5997488135
 21
3.1213772293
 31
0.0
  0
LINE
  5
201
330
1F
100
AcDbEntity
  8
0
  6
Continuous
 62
     7
370
    25
100
AcDbLine
 10
8.5873319318
 20
3.2901214934
 30
0.0
 11
8.5851538277
 21
3.2901214934
 31
0.0
  0
LINE
  5
202
330
1F
100
AcDbEntity
  8
0
  6
Continuous
 62
     7
370
    25
100
AcDbLine
 10
8.5193928971
 20
3.2243605627
 30
0.0
 11
8.5193928971
 21
3.2221824586
 31
0.0
  0
LINE
  5
203
330
1F
100
AcDbEntity
  8
0
  6
Continuous
 62
     7
370
    25
100
AcDbLine
 10
8.5997488135
 20
2.332444655
 30
0.0
 11
8.598682797
 21
2.3313786385
 31
0.0
  0
LINE
  5
204
330
1F
100
AcDbEntity
  8
0
  6
Continuous
 62
     7
370
    25
100
AcDbLine
 10
8.6870711446
 20
2.2429902909
 30
0.0
 11
8.6881371612
 21
2.2440563074
 31
0.0
  0
LINE
  5
205
330
1F
100
AcDbEntity
  8
0
  6
Continuous
 62
     7
370
    25
100
AcDbLine
 10
8.5193928971
 20
2.2316394257
 30
0.0
 11
8.5193928971
 21
2.2294613216
 31
0.0
  0
LINE
  5
206
330
1F
100
AcDbEntity
  8
0
  6
Continuous
 62
     7
370
    25
100
AcDbLine
 10
8.5851538277
 20
2.163700391
 30
0.0
 11
8.5873319318
 21
2.163700391
 31
0.0
  0
LINE
  5
207
330
1F
100
AcDbEntity
  8
0
  6
Continuous
 62
     7
370
    25
100
AcDbLine
 10
9.6458139995
 20
3.2221824586
 30
0.0
 11
9.6458139995
 21
3.2243605627
 31
0.0
  0
LINE
  5
208
330
1F
100
AcDbEntity
  8
0
  6
Continuous
 62
     7
370
    25
100
AcDbLine
 10
9.5800530688
 20
3.2901214934
 30
0.0
 11
9.5778749647
 21
3.2901214934
 31
0.0
  0
LINE
  5
209
330
1F
100
AcDbEntity
  8
0
  6
Continuous
 62
     7
370
    25
100
AcDbLine
 10
9.565458083
 20
3.1213772293
 30
0.0
 11
9.5665240996
 21
3.1224432458
 31
0.0
  0
LINE
  5
20A
330
1F
100
AcDbEntity
  8
0
  6
Continuous
 62
     7
370
    25
100
AcDbLine
 10
9.4781357519
 20
3.2108315935
 30
0.0
 11
9.4770697354
 21
3.2097655769
 31
0.0
  0
LINE
  5
20B
330
1F
100
AcDbEntity
  8
0
  6
Continuous
 62
     7
370
    25
100
AcDbLine
 10
9.5778749647
 20
2.163700391
 30
0.0
 11
9.5800530688
 21
2.163700391
 31
0.0
  0
LINE
  5
20C
330
1F
100
AcDbEntity
  8
0
  6
Continuous
 62
     7
370
    25
100
AcDbLine
 10
9.6458139995
 20
2.2294613216
 30
0.0
 11
9.6458139995
 21
2.2316394257
 31
0.0
  0
LINE
  5
20D
330
1F
100
AcDbEntity
  8
0
  6
Continuous
 62
     7
370
    25
100
AcDbLine
 10
9.4770697354
 20
2.2440563074
 30
0.0
 11
9.4781357519
 21
2.2429902909
 31
0.0
  0
LINE
  5
20E
330
1F
100
AcDbEntity
  8
0
  6
Continuous
 62
     7
370
    25
100
AcDbLine
 10
9.5665240996
 20
2.3313786385
 30
0.0
 11
9.565458083
 21
2.332444655
 31
0.0
  0
LINE
  5
20F
330
1F
100
AcDbEntity
  8
0
  6
Continuous
 62
     7
370
    25
100
AcDbLine
 10
8.5826034483
 20
2.8519109422
 30
0.0
 11
8.5826034483
 21
2.6019109422
 31
0.0
  0
LINE
  5
210
330
1F
100
AcDbEntity
  8
0
  6
Continuous
 62
     7
370
    25
100
AcDbLine
 10
9.5826034483
 20
2.8519109422
 30
0.0
 11
8.5826034483
 21
2.8519109422
 31
0.0
  0
LINE
  5
211
330
1F
100
AcDbEntity
  8
0
  6
Continuous
 62
     7
370
    25
100
AcDbLine
 10
9.5826034483
 20
2.6019109422
 30
0.0
 11
9.5826034483
 21
2.8519109422
 31
0.0
  0
LINE
  5
212
330
1F
100
AcDbEntity
  8
0
  6
Continuous
 62
     7
370
    25
100
AcDbLine
 10
8.5826034483
 20
2.6019109422
 30
0.0
 11
9.5826034483
 21
2.6019109422
 31
0.0
  0
LINE
  5
213
330
1F
100
AcDbEntity
  8
0
  6
Continuous
 62
     7
370
    25
100
AcDbLine
 10
9.5826034483
 20
2.8519109422
 30
0.0
 11
9.6226034483
 21
2.8919109422
 31
0.0
  0
LINE
  5
214
330
1F
100
AcDbEntity
  8
0
  6
Continuous
 62
     7
370
    25
100
AcDbLine
 10
9.6226034483
 20
2.8919109422
 30
0.0
 11
9.6226034483
 21
2.5619109422
 31
0.0
  0
LINE
  5
215
330
1F
100
AcDbEntity
  8
0
  6
Continuous
 62
     7
370
    25
100
AcDbLine
 10
9.6226034483
 20
2.5619109422
 30
0.0
 11
9.5826034483
 21
2.6019109422
 31
0.0
  0
LINE
  5
216
330
1F
100
AcDbEntity
  8
0
  6
Continuous
 62
     7
370
    25
100
AcDbLine
 10
8.5826034483
 20
2.8519109422
 30
0.0
 11
8.5426034483
 21
2.8919109422
 31
0.0
  0
LINE
  5
217
330
1F
100
AcDbEntity
  8
0
  6
Continuous
 62
     7
370
    25
100
AcDbLine
 10
8.5426034483
 20
2.8919109422
 30
0.0
 11
9.6226034483
 21
2.8919109422
 31
0.0
  0
LINE
  5
218
330
1F
100
AcDbEntity
  8
0
  6
Continuous
 62
     7
370
    25
100
AcDbLine
 10
9.6226034483
 20
2.5619109422
 30
0.0
 11
8.5426034483
 21
2.5619109422
 31
0.0
  0
LINE
  5
219
330
1F
100
AcDbEntity
  8
0
  6
Continuous
 62
     7
370
    25
100
AcDbLine
 10
8.5426034483
 20
2.5619109422
 30
0.0
 11
8.5826034483
 21
2.6019109422
 31
0.0
  0
LINE
  5
21A
330
1F
100
AcDbEntity
  8
0
  6
Continuous
 62
     7
370
    25
100
AcDbLine
 10
8.5426034483
 20
2.5619109422
 30
0.0
 11
8.5426034483
 21
2.8919109422
 31
0.0
  0
CIRCLE
  5
21B
330
1F
100
AcDbEntity
  8
0
  6
Continuous
 62
     7
370
    25
100
AcDbCircle
 10
9.0826034483
 20
2.7269109422
 30
0.0
 40
0.6234999999999999
  0
CIRCLE
  5
21C
330
1F
100
AcDbEntity
  8
0
  6
Continuous
 62
     7
370
    25
100
AcDbCircle
 10
9.0826034483
 20
2.2589109422
 30
0.0
 40
0.0925000000000002
  0
CIRCLE
  5
21D
330
1F
100
AcDbEntity
  8
0
  6
Continuous
 62
     7
370
    25
100
AcDbCircle
 10
9.0826034483
 20
2.7269109422
 30
0.0
 40
0.625
  0
CIRCLE
  5
21E
330
1F
100
AcDbEntity
  8
0
  6
Continuous
 62
     7
370
    25
100
AcDbCircle
 10
9.0826034483
 20
2.7269109422
 30
0.0
 40
0.75
  0
LINE
  5
21F
330
1F
100
AcDbEntity
  8
0
  6
Continuous
 62
     7
370
    25
100
AcDbLine
 10
9.1180365191
 20
3.9121235406
 30
0.0
 11
9.2074422575
 21
3.9121235406
 31
0.0
  0
LINE
  5
220
330
1F
100
AcDbEntity
  8
0
  6
Continuous
 62
     7
370
    25
100
AcDbLine
 10
8.9577646391
 20
3.9121235406
 30
0.0
 11
9.0471703774
 21
3.9121235406
 31
0.0
  0
ELLIPSE
  5
221
330
1F
100
AcDbEntity
  8
0
  6
Continuous
 62
     7
370
    25
100
AcDbEllipse
 10
10.5999976666
 20
4.2638978272
 30
0.0
 11
0.9925935851677252
 21
0.5727250191403144
 31
0.0
210
0.0
220
0.0
230
1.0
 40
0.0174504117
 41
3.171826863735439
 42
3.326211663117925
  0
SPLINE
  5
222
330
1F
100
AcDbEntity
  8
0
  6
Continuous
 62
     7
370
    25
100
AcDbSpline
210
0.0
220
0.0
230
1.0
 70
     8
 71
     3
 72
    14
 73
    10
 74
     0
 42
0.000000001
 43
0.00000001
 40
0.0
 40
0.0
 40
0.0
 40
0.0
 40
0.0454606938068816
 40
0.1128792713475515
 40
0.325605809934029
 40
0.5522960012813394
 40
0.7497032527220144
 40
0.948115864770878
 40
1.0
 40
1.0
 40
1.0
 40
1.0
 10
9.626106629228895
 20
3.697725865661249
 30
0.0
 10
9.626589286613568
 20
3.6978791727344
 30
0.0
 10
9.627787728813416
 20
3.698259835440149
 30
0.0
 10
9.631395352940086
 20
3.697655187007028
 30
0.0
 10
9.636394943946527
 20
3.695659913828865
 30
0.0
 10
9.641937351365623
 20
3.693318153938652
 30
0.0
 10
9.645930666916554
 20
3.691566536813952
 30
0.0
 10
9.64741911938957
 20
3.690934457689898
 30
0.0
 10
9.647530778408498
 20
3.690914336318698
 30
0.0
 10
9.647553924261175
 20
3.690910165349816
 30
0.0
  0
LINE
  5
223
330
1F
100
AcDbEntity
  8
0
  6
Continuous
 62
     7
370
    25
100
AcDbLine
 10
9.6475539243
 20
3.6909101653
 30
0.0
 11
9.6171440409
 21
3.673353011
 31
0.0
  0
LINE
  5
224
330
1F
100
AcDbEntity
  8
0
  6
Continuous
 62
     7
370
    25
100
AcDbLine
 10
9.6151424894
 20
3.8747329538
 30
0.0
 11
9.6475552697
 21
3.6909109422
 31
0.0
  0
LINE
  5
225
330
1F
100
AcDbEntity
  8
0
  6
Continuous
 62
     7
370
    25
100
AcDbLine
 10
9.6475552697
 20
3.6909109422
 30
0.0
 11
9.6475539243
 21
3.6909101653
 31
0.0
  0
LINE
  5
226
330
1F
100
AcDbEntity
  8
0
  6
Continuous
 62
     7
370
    25
100
AcDbLine
 10
8.5176516268
 20
3.6909109422
 30
0.0
 11
8.5500644071
 21
3.8747329538
 31
0.0
  0
SPLINE
  5
227
330
1F
100
AcDbEntity
  8
0
  6
Continuous
 62
     7
370
    25
100
AcDbSpline
210
0.0
220
0.0
230
1.0
 70
     8
 71
     3
 72
    15
 73
    11
 74
     0
 42
0.000000001
 43
0.00000001
 40
0.0
 40
0.0
 40
0.0
 40
0.0
 40
0.175802505857005
 40
0.3511449094382726
 40
0.5376615321518935
 40
0.7559731559079516
 40
0.8581208235675138
 40
0.944042500001794
 40
0.9880892205040357
 40
1.0
 40
1.0
 40
1.0
 40
1.0
 10
8.517652972290515
 20
3.690910165349816
 30
0.0
 10
8.517860598829682
 20
3.690984311621536
 30
0.0
 10
8.518275308517339
 20
3.691132410112745
 30
0.0
 10
8.5211686373187
 20
3.692396735029157
 30
0.0
 10
8.525520599701787
 20
3.694280258904808
 30
0.0
 10
8.53022780214227
 20
3.696262556800895
 30
0.0
 10
8.53431716688549
 20
3.697675568752967
 30
0.0
 10
8.536825304219509
 20
3.698220246999747
 30
0.0
 10
8.538410497820408
 20
3.69801779986549
 30
0.0
 10
8.538979213827508
 20
3.697777099668405
 30
0.0
 10
8.53910026732269
 20
3.697725865660949
 30
0.0
  0
LINE
  5
228
330
1F
100
AcDbEntity
  8
0
  6
Continuous
 62
     7
370
    25
100
AcDbLine
 10
8.5176529723
 20
3.6909101653
 30
0.0
 11
8.5176516268
 21
3.6909109422
 31
0.0
  0
ELLIPSE
  5
229
330
1F
100
AcDbEntity
  8
0
  6
Continuous
 62
     7
370
    25
100
AcDbEllipse
 10
7.5652092299
 20
4.2638978272
 30
0.0
 11
0.9925935851677776
 21
-0.5727250191403477
 31
0.0
210
0.0
220
0.0
230
1.0
 40
0.0174504117
 41
6.098566297653115
 42
6.252951097035548
  0
LINE
  5
22A
330
1F
100
AcDbEntity
  8
0
  6
Continuous
 62
     7
370
    25
100
AcDbLine
 10
8.5480628557
 20
3.673353011
 30
0.0
 11
8.5176529723
 21
3.6909101653
 31
0.0
  0
LINE
  5
22B
330
1F
100
AcDbEntity
  8
0
  6
Continuous
 62
     7
370
    25
100
AcDbLine
 10
8.5570470577
 20
3.6909109422
 30
0.0
 11
9.6081598388
 21
3.6909109422
 31
0.0
  0
LINE
  5
22C
330
1F
100
AcDbEntity
  8
0
  6
Continuous
 62
     7
370
    25
100
AcDbLine
 10
9.612148888
 20
3.6648692002
 30
0.0
 11
9.609211073
 21
3.496561894
 31
0.0
  0
LINE
  5
22D
330
1F
100
AcDbEntity
  8
0
  6
Continuous
 62
     7
370
    25
100
AcDbLine
 10
8.5559958235
 20
3.496561894
 30
0.0
 11
8.5530580086
 21
3.6648692002
 31
0.0
  0
LINE
  5
22E
330
1F
100
AcDbEntity
  8
0
  6
Continuous
 62
     7
370
    25
100
AcDbLine
 10
9.6145916589
 20
3.8778568693
 30
0.0
 11
9.6151424894
 21
3.8747329538
 31
0.0
  0
LINE
  5
22F
330
1F
100
AcDbEntity
  8
0
  6
Continuous
 62
     7
370
    25
100
AcDbLine
 10
8.5900075478
 20
3.9109109422
 30
0.0
 11
9.5751993487
 21
3.9109109422
 31
0.0
  0
LINE
  5
230
330
1F
100
AcDbEntity
  8
0
  6
Continuous
 62
     7
370
    25
100
AcDbLine
 10
8.5500644071
 20
3.8747329538
 30
0.0
 11
8.5506152377
 21
3.8778568693
 31
0.0
  0
ARC
  5
231
330
1F
100
AcDbEntity
  8
0
  6
Continuous
 62
     7
370
    25
100
AcDbCircle
 10
9.5892141191
 20
3.4969109422
 30
0.0
 40
0.0199999999999996
100
AcDbArc
 50
270.0
 51
359.0
  0
LINE
  5
232
330
1F
100
AcDbEntity
  8
0
  6
Continuous
 62
     7
370
    25
100
AcDbLine
 10
9.5892141191
 20
3.4769109422
 30
0.0
 11
8.5759927774
 21
3.4769109422
 31
0.0
  0
ARC
  5
233
330
1F
100
AcDbEntity
  8
0
  6
Continuous
 62
     7
370
    25
100
AcDbCircle
 10
8.5759927774
 20
3.4969109422
 30
0.0
 40
0.0200000000000001
100
AcDbArc
 50
181.0
 51
270.0
  0
ARC
  5
234
330
1F
100
AcDbEntity
  8
0
  6
Continuous
 62
     7
370
    25
100
AcDbCircle
 10
9.5751993487
 20
3.8709109422
 30
0.0
 40
0.0400000000000003
100
AcDbArc
 50
10.0
 51
90.0
  0
ARC
  5
235
330
1F
100
AcDbEntity
  8
0
  6
Continuous
 62
     7
370
    25
100
AcDbCircle
 10
8.5900075478
 20
3.8709109422
 30
0.0
 40
0.0400000000000003
100
AcDbArc
 50
90.0
 51
170.0
  0
ARC
  5
236
330
1F
100
AcDbEntity
  8
0
  6
Continuous
 62
     7
370
    25
100
AcDbCircle
 10
9.6221473649
 20
3.6646946761
 30
0.0
 40
0.0100000000000001
100
AcDbArc
 50
120.0
 51
179.0
  0
ARC
  5
237
330
1F
100
AcDbEntity
  8
0
  6
Continuous
 62
     7
370
    25
100
AcDbCircle
 10
8.5430595316
 20
3.6646946761
 30
0.0
 40
0.0100000000000001
100
AcDbArc
 50
1.0
 51
60.0
  0
LINE
  5
238
330
1F
100
AcDbEntity
  8
0
  6
Continuous
 62
     7
370
    25
100
AcDbLine
 10
8.846651255
 20
3.3056609422
 30
0.0
 11
8.8506536962
 21
3.3056609422
 31
0.0
  0
LINE
  5
239
330
1F
100
AcDbEntity
  8
0
  6
Continuous
 62
     7
370
    25
100
AcDbLine
 10
9.3145532004
 20
3.3056609422
 30
0.0
 11
9.3185556415
 21
3.3056609422
 31
0.0
  0
SPLINE
  5
23A
330
1F
100
AcDbEntity
  8
0
  6
Continuous
 62
     7
370
    25
100
AcDbSpline
210
0.0
220
0.0
230
1.0
 70
     8
 71
     3
 72
    14
 73
    10
 74
     0
 42
0.000000001
 43
0.00000001
 40
0.0
 40
0.0
 40
0.0
 40
0.0
 40
0.0518841352294898
 40
0.250296747278436
 40
0.4477039987191905
 40
0.67439419006631
 40
0.8871207286525511
 40
0.9545393061931668
 40
1.0
 40
1.0
 40
1.0
 40
1.0
 10
9.64755661523382
 20
3.690911718983597
 30
0.0
 10
9.647579761086494
 20
3.690907548014715
 30
0.0
 10
9.647691420105424
 20
3.690887426643515
 30
0.0
 10
9.649179872578445
 20
3.690255347519457
 30
0.0
 10
9.653173188129381
 20
3.688503730394757
 30
0.0
 10
9.658715595548475
 20
3.686161970504541
 30
0.0
 10
9.663715186554912
 20
3.684166697326391
 30
0.0
 10
9.66732281068158
 20
3.683562048893259
 30
0.0
 10
9.668521252881424
 20
3.683942711599023
 30
0.0
 10
9.669003910266097
 20
3.68409601867218
 30
0.0
  0
ELLIPSE
  5
23B
330
1F
100
AcDbEntity
  8
0
  6
Continuous
 62
     7
370
    25
100
AcDbEllipse
 10
8.6951128729
 20
3.1179240572
 30
0.0
 11
0.9925935851677252
 21
0.5727250191403144
 31
0.0
210
0.0
220
0.0
230
1.0
 40
0.0174504117
 41
0.03023421014482
 42
0.1846190095279859
  0
LINE
  5
23C
330
1F
100
AcDbEntity
  8
0
  6
Continuous
 62
     7
370
    25
100
AcDbLine
 10
9.6475566152
 20
3.690911719
 30
0.0
 11
9.6475552697
 21
3.6909109422
 31
0.0
  0
SPLINE
  5
23D
330
1F
100
AcDbEntity
  8
0
  6
Continuous
 62
     7
370
    25
100
AcDbSpline
210
0.0
220
0.0
230
1.0
 70
     8
 71
     3
 72
    15
 73
    11
 74
     0
 42
0.000000001
 43
0.00000001
 40
0.0
 40
0.0
 40
0.0
 40
0.0
 40
0.0119107794961338
 40
0.0559574999983982
 40
0.1418791764324146
 40
0.2440268440921137
 40
0.4623384678481532
 40
0.6488550905617575
 40
0.82419749414301
 40
1.0
 40
1.0
 40
1.0
 40
1.0
 10
8.496202986285688
 20
3.684096018672464
 30
0.0
 10
8.496324039780871
 20
3.684044784665008
 30
0.0
 10
8.496892755787977
 20
3.683804084467921
 30
0.0
 10
8.498477949388874
 20
3.683601637333665
 30
0.0
 10
8.500986086722893
 20
3.684146315580445
 30
0.0
 10
8.50507545146611
 20
3.685559327532517
 30
0.0
 10
8.509782653906596
 20
3.687541625428605
 30
0.0
 10
8.514134616289681
 20
3.689425149304255
 30
0.0
 10
8.517027945091042
 20
3.690689474220667
 30
0.0
 10
8.5174426547787
 20
3.690837572711877
 30
0.0
 10
8.517650281317868
 20
3.690911718983597
 30
0.0
  0
LINE
  5
23E
330
1F
100
AcDbEntity
  8
0
  6
Continuous
 62
     7
370
    25
100
AcDbLine
 10
8.5176516268
 20
3.6909109422
 30
0.0
 11
8.5176502813
 21
3.690911719
 31
0.0
  0
ELLIPSE
  5
23F
330
1F
100
AcDbEntity
  8
0
  6
Continuous
 62
     7
370
    25
100
AcDbEllipse
 10
9.4700940237
 20
3.1179240572
 30
0.0
 11
0.9925935851677767
 21
-0.5727250191403477
 31
0.0
210
0.0
220
0.0
230
1.0
 40
0.0174504117
 41
2.956973644061825
 42
3.111358443444973
  0
ARC
  5
240
330
1F
100
AcDbEntity
  8
0
  6
Continuous
 62
     7
370
    25
100
AcDbCircle
 10
9.6221478136
 20
3.6646969966
 30
0.0
 40
0.0099982147600758
100
AcDbArc
 50
120.0015435445
 51
178.994754938
  0
ARC
  5
241
330
1F
100
AcDbEntity
  8
0
  6
Continuous
 62
     7
370
    25
100
AcDbCircle
 10
8.543059083
 20
3.6646969966
 30
0.0
 40
0.0099982147600741
100
AcDbArc
 50
1.005245062
 51
59.9984564555
  0
LINE
  5
242
330
1F
100
AcDbEntity
  8
0
  6
Continuous
 62
     7
370
    25
100
AcDbLine
 10
9.6869507007
 20
3.6909109422
 30
0.0
 11
9.6926064944
 21
3.6909109422
 31
0.0
  0
LINE
  5
243
330
1F
100
AcDbEntity
  8
0
  6
Continuous
 62
     7
370
    25
100
AcDbLine
 10
8.4726004022
 20
3.6909109422
 30
0.0
 11
8.4782561959
 21
3.6909109422
 31
0.0
  0
LINE
  5
244
330
1F
100
AcDbEntity
  8
0
  6
Continuous
 62
     7
370
    25
100
AcDbLine
 10
9.7126034483
 20
3.6909109422
 30
0.0
 11
9.6926064944
 21
3.6909109422
 31
0.0
  0
LINE
  5
245
330
1F
100
AcDbEntity
  8
0
  6
Continuous
 62
     7
370
    25
100
AcDbLine
 10
9.7094493513
 20
3.8716090384
 30
0.0
 11
9.7126034483
 21
3.6909109422
 31
0.0
  0
LINE
  5
246
330
1F
100
AcDbEntity
  8
0
  6
Continuous
 62
     7
370
    25
100
AcDbLine
 10
9.7126034483
 20
3.6909109422
 30
0.0
 11
9.709211073
 21
3.496561894
 31
0.0
  0
LINE
  5
247
330
1F
100
AcDbEntity
  8
0
  6
Continuous
 62
     7
370
    25
100
AcDbLine
 10
8.4726004022
 20
3.6909109422
 30
0.0
 11
8.4526034483
 21
3.6909109422
 31
0.0
  0
LINE
  5
248
330
1F
100
AcDbEntity
  8
0
  6
Continuous
 62
     7
370
    25
100
AcDbLine
 10
8.4559958235
 20
3.496561894
 30
0.0
 11
8.4526034483
 21
3.6909109422
 31
0.0
  0
LINE
  5
249
330
1F
100
AcDbEntity
  8
0
  6
Continuous
 62
     7
370
    25
100
AcDbLine
 10
8.4526034483
 20
3.6909109422
 30
0.0
 11
8.4557575453
 21
3.8716090384
 31
0.0
  0
ARC
  5
24A
330
1F
100
AcDbEntity
  8
0
  6
Continuous
 62
     7
370
    25
100
AcDbCircle
 10
9.6694554435
 20
3.8709109422
 30
0.0
 40
0.04
100
AcDbArc
 50
1.0
 51
90.0
  0
LINE
  5
24B
330
1F
100
AcDbEntity
  8
0
  6
Continuous
 62
     7
370
    25
100
AcDbLine
 10
9.5751993487
 20
3.9109109422
 30
0.0
 11
9.6694554435
 21
3.9109109422
 31
0.0
  0
LINE
  5
24C
330
1F
100
AcDbEntity
  8
0
  6
Continuous
 62
     7
370
    25
100
AcDbLine
 10
8.4957514531
 20
3.9109109422
 30
0.0
 11
8.5900075478
 21
3.9109109422
 31
0.0
  0
ARC
  5
24D
330
1F
100
AcDbEntity
  8
0
  6
Continuous
 62
     7
370
    25
100
AcDbCircle
 10
8.4957514531
 20
3.8709109422
 30
0.0
 40
0.0400000000000003
100
AcDbArc
 50
90.0
 51
179.0
  0
ARC
  5
24E
330
1F
100
AcDbEntity
  8
0
  6
Continuous
 62
     7
370
    25
100
AcDbCircle
 10
9.6892141191
 20
3.4969109422
 30
0.0
 40
0.0200000000000001
100
AcDbArc
 50
270.0
 51
359.0
  0
LINE
  5
24F
330
1F
100
AcDbEntity
  8
0
  6
Continuous
 62
     7
370
    25
100
AcDbLine
 10
9.6892141191
 20
3.4769109422
 30
0.0
 11
9.5892141191
 21
3.4769109422
 31
0.0
  0
LINE
  5
250
330
1F
100
AcDbEntity
  8
0
  6
Continuous
 62
     7
370
    25
100
AcDbLine
 10
8.5759927774
 20
3.4769109422
 30
0.0
 11
8.4759927774
 21
3.4769109422
 31
0.0
  0
ARC
  5
251
330
1F
100
AcDbEntity
  8
0
  6
Continuous
 62
     7
370
    25
100
AcDbCircle
 10
8.4759927774
 20
3.4969109422
 30
0.0
 40
0.0199999999999996
100
AcDbArc
 50
181.0
 51
270.0
  0
CIRCLE
  5
252
330
1F
100
AcDbEntity
  8
0
  6
Continuous
 62
     7
370
    25
100
AcDbCircle
 10
9.0826034483
 20
3.1949109422
 30
0.0
 40
0.0685000000000002
  0
CIRCLE
  5
253
330
1F
100
AcDbEntity
  8
0
  6
Continuous
 62
     7
370
    25
100
AcDbCircle
 10
9.0826034483
 20
3.1949109422
 30
0.0
 40
0.1449999999999996
  0
CIRCLE
  5
254
330
1F
100
AcDbEntity
  8
0
  6
Continuous
 62
     7
370
    25
100
AcDbCircle
 10
9.0826034483
 20
3.1949109422
 30
0.0
 40
0.0804999999999998
  0
CIRCLE
  5
255
330
1F
100
AcDbEntity
  8
0
  6
Continuous
 62
     7
370
    25
100
AcDbCircle
 10
9.0826034483
 20
2.2589109422
 30
0.0
 40
0.073
  0
CIRCLE
  5
256
330
1F
100
AcDbEntity
  8
0
  6
Continuous
 62
     7
370
    25
100
AcDbCircle
 10
9.0826034483
 20
2.2589109422
 30
0.0
 40
0.0959999999999996
  0
LINE
  5
257
330
1F
100
AcDbEntity
  8
0
  6
Continuous
 62
     7
370
    25
100
AcDbLine
 10
8.5522733624
 20
3.2572410281
 30
0.0
 11
8.5851538277
 21
3.2901214934
 31
0.0
  0
LINE
  5
258
330
1F
100
AcDbEntity
  8
0
  6
Continuous
 62
     7
370
    25
100
AcDbLine
 10
8.5193928971
 20
3.2243605627
 30
0.0
 11
8.5522733624
 21
3.2572410281
 31
0.0
  0
LINE
  5
259
330
1F
100
AcDbEntity
  8
0
  6
Continuous
 62
     7
370
    25
100
AcDbLine
 10
8.5522733624
 20
2.1965808563
 30
0.0
 11
8.5193928971
 21
2.2294613216
 31
0.0
  0
LINE
  5
25A
330
1F
100
AcDbEntity
  8
0
  6
Continuous
 62
     7
370
    25
100
AcDbLine
 10
8.5851538277
 20
2.163700391
 30
0.0
 11
8.5522733624
 21
2.1965808563
 31
0.0
  0
LINE
  5
25B
330
1F
100
AcDbEntity
  8
0
  6
Continuous
 62
     7
370
    25
100
AcDbLine
 10
9.6129335342
 20
3.2572410281
 30
0.0
 11
9.6458139995
 21
3.2243605627
 31
0.0
  0
LINE
  5
25C
330
1F
100
AcDbEntity
  8
0
  6
Continuous
 62
     7
370
    25
100
AcDbLine
 10
9.5800530688
 20
3.2901214934
 30
0.0
 11
9.6129335342
 21
3.2572410281
 31
0.0
  0
LINE
  5
25D
330
1F
100
AcDbEntity
  8
0
  6
Continuous
 62
     7
370
    25
100
AcDbLine
 10
9.6129335342
 20
2.1965808563
 30
0.0
 11
9.5800530688
 21
2.163700391
 31
0.0
  0
LINE
  5
25E
330
1F
100
AcDbEntity
  8
0
  6
Continuous
 62
     7
370
    25
100
AcDbLine
 10
9.6458139995
 20
2.2294613216
 30
0.0
 11
9.6129335342
 21
2.1965808563
 31
0.0
  0
DIMENSION
  5
25F
330
1F
100
AcDbEntity
  8
DATA
 62
     7
100
AcDbDimension
  2
_D_3
 10
9.8326034483
 20
4.5420448004
 30
0.0
 11
9.0826034483
 21
4.5420448004
 31
0.0
 70
   160
  1
%%c<>
 71
     2
 42
-1.0
  3
SLDDIMSTYLE2
100
AcDbAlignedDimension
 13
8.3326034483
 23
2.7269109422
 33
0.0
 14
9.8326034483
 24
2.7269109422
 34
0.0
100
AcDbRotatedDimension
  0
INSERT
  5
27E
330
1F
100
AcDbEntity
  8
DATA
 62
     7
100
AcDbBlockReference
  2
SW_CENTERMARKSYMBOL_0
 10
9.0826034483
 20
2.7269109422
 30
0.0
  0
LINE
  5
27F
330
1F
100
AcDbEntity
  8
0
  6
Continuous
 62
     7
370
    25
100
AcDbLine
 10
2.599637931
 20
5.6924137931
 30
0.0
 11
4.563637931
 21
5.6924137931
 31
0.0
  0
LINE
  5
280
330
1F
100
AcDbEntity
  8
0
  6
Continuous
 62
     7
370
    25
100
AcDbLine
 10
4.563637931
 20
7.1924137931
 30
0.0
 11
2.599637931
 21
7.1924137931
 31
0.0
  0
ARC
  5
281
330
1F
100
AcDbEntity
  8
0
  6
Continuous
 62
     7
370
    25
100
AcDbCircle
 10
2.604637931
 20
6.5551637931
 30
0.0
 40
0.0322499999999999
100
AcDbArc
 50
98.919044194
 51
180.0
  0
ARC
  5
282
330
1F
100
AcDbEntity
  8
0
  6
Continuous
 62
     7
370
    25
100
AcDbCircle
 10
2.604637931
 20
6.3296637931
 30
0.0
 40
0.0322499999999999
100
AcDbArc
 50
180.0
 51
261.080955806
  0
LINE
  5
283
330
1F
100
AcDbEntity
  8
0
  6
Continuous
 62
     7
370
    25
100
AcDbLine
 10
2.572387931
 20
6.5551637931
 30
0.0
 11
2.572387931
 21
6.3296637931
 31
0.0
  0
ARC
  5
284
330
1F
100
AcDbEntity
  8
0
  6
Continuous
 62
     7
370
    25
100
AcDbCircle
 10
4.558637931
 20
6.3296637931
 30
0.0
 40
0.0322500000000003
100
AcDbArc
 50
278.919044194
 51
0.0
  0
ARC
  5
285
330
1F
100
AcDbEntity
  8
0
  6
Continuous
 62
     7
370
    25
100
AcDbCircle
 10
4.558637931
 20
6.5551637931
 30
0.0
 40
0.0322499999999997
100
AcDbArc
 50
0.0
 51
81.080955806
  0
LINE
  5
286
330
1F
100
AcDbEntity
  8
0
  6
Continuous
 62
     7
370
    25
100
AcDbLine
 10
4.590887931
 20
6.3296637931
 30
0.0
 11
4.590887931
 21
6.5551637931
 31
0.0
  0
LINE
  5
287
330
1F
100
AcDbEntity
  8
0
  6
Continuous
 62
     7
370
    25
100
AcDbLine
 10
2.564637931
 20
5.9424137931
 30
0.0
 11
2.564637931
 21
6.9424137931
 31
0.0
  0
LINE
  5
288
330
1F
100
AcDbEntity
  8
0
  6
Continuous
 62
     7
370
    25
100
AcDbLine
 10
2.564637931
 20
6.9424137931
 30
0.0
 11
2.599637931
 21
6.9774137931
 31
0.0
  0
LINE
  5
289
330
1F
100
AcDbEntity
  8
0
  6
Continuous
 62
     7
370
    25
100
AcDbLine
 10
2.564637931
 20
5.9424137931
 30
0.0
 11
2.599637931
 21
5.9074137931
 31
0.0
  0
LINE
  5
28A
330
1F
100
AcDbEntity
  8
0
  6
Continuous
 62
     7
370
    25
100
AcDbLine
 10
1.034637931
 20
5.9424137931
 30
0.0
 11
1.034637931
 21
6.9424137931
 31
0.0
  0
ARC
  5
28B
330
1F
100
AcDbEntity
  8
0
  6
Continuous
 62
     7
370
    25
100
AcDbCircle
 10
2.128637931
 20
6.4424137931
 30
0.0
 40
0.2030000000000003
100
AcDbArc
 50
270.0
 51
90.0
  0
LINE
  5
28C
330
1F
100
AcDbEntity
  8
0
  6
Continuous
 62
     7
370
    25
100
AcDbLine
 10
2.128637931
 20
6.6454137931
 30
0.0
 11
1.503637931
 21
6.6454137931
 31
0.0
  0
ARC
  5
28D
330
1F
100
AcDbEntity
  8
0
  6
Continuous
 62
     7
370
    25
100
AcDbCircle
 10
1.503637931
 20
6.4424137931
 30
0.0
 40
0.2030000000000003
100
AcDbArc
 50
90.0
 51
270.0
  0
LINE
  5
28E
330
1F
100
AcDbEntity
  8
0
  6
Continuous
 62
     7
370
    25
100
AcDbLine
 10
1.503637931
 20
6.2394137931
 30
0.0
 11
2.128637931
 21
6.2394137931
 31
0.0
  0
LINE
  5
28F
330
1F
100
AcDbEntity
  8
0
  6
Continuous
 62
     7
370
    25
100
AcDbLine
 10
1.034637931
 20
5.9424137931
 30
0.0
 11
2.564637931
 21
5.9424137931
 31
0.0
  0
LINE
  5
290
330
1F
100
AcDbEntity
  8
0
  6
Continuous
 62
     7
370
    25
100
AcDbLine
 10
1.034637931
 20
6.9424137931
 30
0.0
 11
2.564637931
 21
6.9424137931
 31
0.0
  0
LINE
  5
291
330
1F
100
AcDbEntity
  8
0
  6
Continuous
 62
     7
370
    25
100
AcDbLine
 10
4.563637931
 20
6.9774137931
 30
0.0
 11
4.598637931
 21
6.9424137931
 31
0.0
  0
LINE
  5
292
330
1F
100
AcDbEntity
  8
0
  6
Continuous
 62
     7
370
    25
100
AcDbLine
 10
4.598637931
 20
6.9424137931
 30
0.0
 11
4.598637931
 21
5.9424137931
 31
0.0
  0
LINE
  5
293
330
1F
100
AcDbEntity
  8
0
  6
Continuous
 62
     7
370
    25
100
AcDbLine
 10
4.563637931
 20
5.9074137931
 30
0.0
 11
4.598637931
 21
5.9424137931
 31
0.0
  0
LINE
  5
294
330
1F
100
AcDbEntity
  8
0
  6
Continuous
 62
     7
370
    25
100
AcDbLine
 10
6.128637931
 20
6.9424137931
 30
0.0
 11
6.128637931
 21
5.9424137931
 31
0.0
  0
LINE
  5
295
330
1F
100
AcDbEntity
  8
0
  6
Continuous
 62
     7
370
    25
100
AcDbLine
 10
6.128637931
 20
5.9424137931
 30
0.0
 11
4.598637931
 21
5.9424137931
 31
0.0
  0
LINE
  5
296
330
1F
100
AcDbEntity
  8
0
  6
Continuous
 62
     7
370
    25
100
AcDbLine
 10
6.128637931
 20
6.9424137931
 30
0.0
 11
4.598637931
 21
6.9424137931
 31
0.0
  0
ARC
  5
297
330
1F
100
AcDbEntity
  8
0
  6
Continuous
 62
     7
370
    25
100
AcDbCircle
 10
5.034637931
 20
6.4424137931
 30
0.0
 40
0.2030000000000003
100
AcDbArc
 50
90.0
 51
270.0
  0
LINE
  5
298
330
1F
100
AcDbEntity
  8
0
  6
Continuous
 62
     7
370
    25
100
AcDbLine
 10
5.034637931
 20
6.2394137931
 30
0.0
 11
5.659637931
 21
6.2394137931
 31
0.0
  0
LINE
  5
299
330
1F
100
AcDbEntity
  8
0
  6
Continuous
 62
     7
370
    25
100
AcDbLine
 10
5.659637931
 20
6.6454137931
 30
0.0
 11
5.034637931
 21
6.6454137931
 31
0.0
  0
ARC
  5
29A
330
1F
100
AcDbEntity
  8
0
  6
Continuous
 62
     7
370
    25
100
AcDbCircle
 10
5.659637931
 20
6.4424137931
 30
0.0
 40
0.2030000000000003
100
AcDbArc
 50
270.0
 51
90.0
  0
SPLINE
  5
29B
330
1F
100
AcDbEntity
  8
0
  6
Continuous
 62
     7
370
    25
100
AcDbSpline
210
0.0
220
0.0
230
1.0
 70
    11
 71
     3
 72
    56
 73
    52
 74
     0
 42
0.000000001
 43
0.00000001
 40
0.0
 40
0.0
 40
0.0
 40
0.0
 40
0.0312499999999999
 40
0.0312499999999999
 40
0.0624999999999998
 40
0.0624999999999998
 40
0.0937499999999998
 40
0.0937499999999998
 40
0.1249999999999997
 40
0.1249999999999997
 40
0.1874999999999998
 40
0.1874999999999998
 40
0.2499999999999998
 40
0.2499999999999998
 40
0.2812500000000003
 40
0.2812500000000003
 40
0.3125000000000007
 40
0.3125000000000007
 40
0.3437500000000011
 40
0.3437500000000011
 40
0.3750000000000015
 40
0.3750000000000015
 40
0.4062500000000019
 40
0.4062500000000019
 40
0.4375000000000024
 40
0.4375000000000024
 40
0.4687500000000028
 40
0.4687500000000028
 40
0.5000000000000032
 40
0.5000000000000032
 40
0.562500000000003
 40
0.562500000000003
 40
0.6250000000000027
 40
0.6250000000000027
 40
0.6562500000000027
 40
0.6562500000000027
 40
0.6875000000000026
 40
0.6875000000000026
 40
0.7187500000000024
 40
0.7187500000000024
 40
0.7500000000000023
 40
0.7500000000000023
 40
0.8125000000000021
 40
0.8125000000000021
 40
0.843750000000002
 40
0.843750000000002
 40
0.875000000000002
 40
0.875000000000002
 40
0.9375000000000009
 40
0.9375000000000009
 40
1.0
 40
1.0
 40
1.0
 40
1.0
 10
4.443637931034487
 20
5.958122513012357
 30
0.0
 10
4.439506961274081
 20
5.958122513012357
 30
0.0
 10
4.435445382338306
 20
5.957811561626628
 30
0.0
 10
4.42745521994365
 20
5.956596135436761
 30
0.0
 10
4.42348510797563
 20
5.955676853713832
 30
0.0
 10
4.415917126593896
 20
5.953286867786465
 30
0.0
 10
4.41232801244521
 20
5.951827880618221
 30
0.0
 10
4.405535466329692
 20
5.948398049899524
 30
0.0
 10
4.402320770112675
 20
5.946410067963517
 30
0.0
 10
4.393676807332937
 20
5.939935844379721
 30
0.0
 10
4.389020825543822
 20
5.93476648697482
 30
0.0
 10
4.382785597248682
 20
5.923792457743477
 30
0.0
 10
4.381142358641879
 20
5.917874970214632
 30
0.0
 10
4.381135730988284
 20
5.909223989822259
 30
0.0
 10
4.381541736925051
 20
5.906319063522184
 30
0.0
 10
4.383136685819834
 20
5.900742298782752
 30
0.0
 10
4.384316781498161
 20
5.898054360241834
 30
0.0
 10
4.387446927670634
 20
5.892872783460268
 30
0.0
 10
4.389403059978822
 20
5.890389328224792
 30
0.0
 10
4.393925554560746
 20
5.885823176354855
 30
0.0
 10
4.396507540157256
 20
5.883710722199457
 30
0.0
 10
4.402339537984838
 20
5.879826635067459
 30
0.0
 10
4.405496823351278
 20
5.878117149405329
 30
0.0
 10
4.412262669198279
 20
5.875138048304634
 30
0.0
 10
4.415915586829939
 20
5.873856997768178
 30
0.0
 10
4.423485826815704
 20
5.871808961815812
 30
0.0
 10
4.427381518775255
 20
5.871040242204693
 30
0.0
 10
4.435392176720296
 20
5.870000794690039
 30
0.0
 10
4.439535663272541
 20
5.869735128325478
 30
0.0
 10
4.451774353401667
 20
5.869732247457742
 30
0.0
 10
4.460000083774923
 20
5.870788848602554
 30
0.0
 10
4.475047188337968
 20
5.874849270781189
 30
0.0
 10
4.482021814665244
 20
5.877896907595344
 30
0.0
 10
4.490673194572496
 20
5.883641797945471
 30
0.0
 10
4.493314188855646
 20
5.885790562334803
 30
0.0
 10
4.497857006823907
 20
5.89036957099087
 30
0.0
 10
4.499779401837857
 20
5.892804620332854
 30
0.0
 10
4.502921977864125
 20
5.897979486160509
 30
0.0
 10
4.504129392129951
 20
5.900719430295482
 30
0.0
 10
4.505725233507993
 20
5.906276764138521
 30
0.0
 10
4.506133880160516
 20
5.909122924352831
 30
0.0
 10
4.506145943760953
 20
5.917876082506854
 30
0.0
 10
4.504527444992263
 20
5.92371304595252
 30
0.0
 10
4.499828097062982
 20
5.932004807854519
 30
0.0
 10
4.497910905823897
 20
5.934645252378075
 30
0.0
 10
4.493383578009006
 20
5.939671294568694
 30
0.0
 10
4.490747304930383
 20
5.942068847198879
 30
0.0
 10
4.482106452987356
 20
5.948549464358154
 30
0.0
 10
4.475142163555498
 20
5.952086245155158
 30
0.0
 10
4.460107941553725
 20
5.956845662996845
 30
0.0
 10
4.451899870555294
 20
5.958122513012357
 30
0.0
 10
4.443637931034486
 20
5.958122513012357
 30
0.0
  0
SPLINE
  5
29C
330
1F
100
AcDbEntity
  8
0
  6
Continuous
 62
     7
370
    25
100
AcDbSpline
210
0.0
220
0.0
230
1.0
 70
    11
 71
     3
 72
    56
 73
    52
 74
     0
 42
0.000000001
 43
0.00000001
 40
0.0
 40
0.0
 40
0.0
 40
0.0
 40
0.0312499999999999
 40
0.0312499999999999
 40
0.0624999999999998
 40
0.0624999999999998
 40
0.0937499999999998
 40
0.0937499999999998
 40
0.1249999999999997
 40
0.1249999999999997
 40
0.1874999999999998
 40
0.1874999999999998
 40
0.2499999999999998
 40
0.2499999999999998
 40
0.2812500000000003
 40
0.2812500000000003
 40
0.3125000000000007
 40
0.3125000000000007
 40
0.3437500000000011
 40
0.3437500000000011
 40
0.3750000000000015
 40
0.3750000000000015
 40
0.4062500000000019
 40
0.4062500000000019
 40
0.4375000000000024
 40
0.4375000000000024
 40
0.4687500000000028
 40
0.4687500000000028
 40
0.5000000000000032
 40
0.5000000000000032
 40
0.562500000000003
 40
0.562500000000003
 40
0.6250000000000027
 40
0.6250000000000027
 40
0.6562500000000027
 40
0.6562500000000027
 40
0.6875000000000026
 40
0.6875000000000026
 40
0.7187500000000024
 40
0.7187500000000024
 40
0.7500000000000023
 40
0.7500000000000023
 40
0.8125000000000021
 40
0.8125000000000021
 40
0.843750000000002
 40
0.843750000000002
 40
0.875000000000002
 40
0.875000000000002
 40
0.9375000000000009
 40
0.9375000000000009
 40
1.0
 40
1.0
 40
1.0
 40
1.0
 10
2.719637931034486
 20
5.958122513012357
 30
0.0
 10
2.715506961274081
 20
5.958122513012357
 30
0.0
 10
2.711445382338305
 20
5.957811561626628
 30
0.0
 10
2.703455219943651
 20
5.956596135436761
 30
0.0
 10
2.699485107975629
 20
5.955676853713832
 30
0.0
 10
2.691917126593895
 20
5.953286867786465
 30
0.0
 10
2.688328012445209
 20
5.951827880618221
 30
0.0
 10
2.681535466329692
 20
5.948398049899524
 30
0.0
 10
2.678320770112676
 20
5.946410067963517
 30
0.0
 10
2.669676807332937
 20
5.939935844379721
 30
0.0
 10
2.665020825543822
 20
5.93476648697482
 30
0.0
 10
2.658785597248682
 20
5.923792457743477
 30
0.0
 10
2.657142358641878
 20
5.917874970214632
 30
0.0
 10
2.657135730988284
 20
5.909223989822259
 30
0.0
 10
2.657541736925051
 20
5.906319063522184
 30
0.0
 10
2.659136685819834
 20
5.900742298782752
 30
0.0
 10
2.660316781498161
 20
5.898054360241834
 30
0.0
 10
2.663446927670635
 20
5.892872783460268
 30
0.0
 10
2.665403059978821
 20
5.890389328224792
 30
0.0
 10
2.669925554560745
 20
5.885823176354855
 30
0.0
 10
2.672507540157257
 20
5.883710722199457
 30
0.0
 10
2.678339537984838
 20
5.879826635067459
 30
0.0
 10
2.681496823351277
 20
5.878117149405329
 30
0.0
 10
2.688262669198279
 20
5.875138048304634
 30
0.0
 10
2.691915586829939
 20
5.873856997768178
 30
0.0
 10
2.699485826815703
 20
5.871808961815812
 30
0.0
 10
2.703381518775255
 20
5.871040242204693
 30
0.0
 10
2.711392176720297
 20
5.870000794690039
 30
0.0
 10
2.71553566327254
 20
5.869735128325478
 30
0.0
 10
2.727774353401667
 20
5.869732247457742
 30
0.0
 10
2.736000083774922
 20
5.870788848602554
 30
0.0
 10
2.751047188337968
 20
5.874849270781189
 30
0.0
 10
2.758021814665244
 20
5.877896907595344
 30
0.0
 10
2.766673194572496
 20
5.883641797945471
 30
0.0
 10
2.769314188855645
 20
5.885790562334803
 30
0.0
 10
2.773857006823907
 20
5.89036957099087
 30
0.0
 10
2.775779401837856
 20
5.892804620332854
 30
0.0
 10
2.778921977864124
 20
5.897979486160509
 30
0.0
 10
2.78012939212995
 20
5.900719430295482
 30
0.0
 10
2.781725233507993
 20
5.906276764138521
 30
0.0
 10
2.782133880160515
 20
5.909122924352831
 30
0.0
 10
2.782145943760953
 20
5.917876082506854
 30
0.0
 10
2.780527444992262
 20
5.92371304595252
 30
0.0
 10
2.775828097062982
 20
5.932004807854519
 30
0.0
 10
2.773910905823897
 20
5.934645252378075
 30
0.0
 10
2.769383578009005
 20
5.939671294568694
 30
0.0
 10
2.766747304930383
 20
5.942068847198879
 30
0.0
 10
2.758106452987356
 20
5.948549464358154
 30
0.0
 10
2.751142163555497
 20
5.952086245155158
 30
0.0
 10
2.736107941553725
 20
5.956845662996845
 30
0.0
 10
2.727899870555293
 20
5.958122513012357
 30
0.0
 10
2.719637931034485
 20
5.958122513012357
 30
0.0
  0
SPLINE
  5
29D
330
1F
100
AcDbEntity
  8
0
  6
Continuous
 62
     7
370
    25
100
AcDbSpline
210
0.0
220
0.0
230
1.0
 70
    11
 71
     3
 72
    56
 73
    52
 74
     0
 42
0.000000001
 43
0.00000001
 40
0.0
 40
0.0
 40
0.0
 40
0.0
 40
0.0312500000000005
 40
0.0312500000000005
 40
0.062500000000001
 40
0.062500000000001
 40
0.0937500000000015
 40
0.0937500000000015
 40
0.125000000000002
 40
0.125000000000002
 40
0.187500000000003
 40
0.187500000000003
 40
0.2500000000000041
 40
0.2500000000000041
 40
0.2812500000000044
 40
0.2812500000000044
 40
0.3125000000000047
 40
0.3125000000000047
 40
0.3437500000000051
 40
0.3437500000000051
 40
0.3750000000000054
 40
0.3750000000000054
 40
0.4062500000000057
 40
0.4062500000000057
 40
0.4375000000000061
 40
0.4375000000000061
 40
0.4687500000000064
 40
0.4687500000000064
 40
0.5000000000000067
 40
0.5000000000000067
 40
0.5625000000000063
 40
0.5625000000000063
 40
0.625000000000006
 40
0.625000000000006
 40
0.6562500000000053
 40
0.6562500000000053
 40
0.6875000000000048
 40
0.6875000000000048
 40
0.7187500000000041
 40
0.7187500000000041
 40
0.7500000000000036
 40
0.7500000000000036
 40
0.8125000000000028
 40
0.8125000000000028
 40
0.843750000000002
 40
0.843750000000002
 40
0.8750000000000013
 40
0.8750000000000013
 40
0.9375000000000007
 40
0.9375000000000007
 40
1.0
 40
1.0
 40
1.0
 40
1.0
 10
4.443637931034486
 20
7.015093420842847
 30
0.0
 10
4.439506961274081
 20
7.015093420842847
 30
0.0
 10
4.435445382338305
 20
7.014830872163028
 30
0.0
 10
4.42745521994365
 20
7.013799686043296
 30
0.0
 10
4.42348510797563
 20
7.013018409091063
 30
0.0
 10
4.415917126593896
 20
7.010971025827383
 30
0.0
 10
4.41232801244521
 20
7.009714973979868
 30
0.0
 10
4.405535466329692
 20
7.006730736690487
 30
0.0
 10
4.402320770112676
 20
7.004987022850452
 30
0.0
 10
4.393676807332938
 20
6.999234453432277
 30
0.0
 10
4.389020825543823
 20
6.994546762644704
 30
0.0
 10
4.382785597248683
 20
6.984251881450455
 30
0.0
 10
4.381142358641879
 20
6.978534620196
 30
0.0
 10
4.381135730988284
 20
6.969884420879978
 30
0.0
 10
4.38154173692505
 20
6.966931203379916
 30
0.0
 10
4.383136685819834
 20
6.961170060543491
 30
0.0
 10
4.384316781498161
 20
6.958347068760729
 30
0.0
 10
4.387446927670635
 20
6.952824427589275
 30
0.0
 10
4.389403059978822
 20
6.950134658581869
 30
0.0
 10
4.393925554560746
 20
6.945124815873134
 30
0.0
 10
4.396507540157256
 20
6.942773090852932
 30
0.0
 10
4.402339537984838
 20
6.93840193600093
 30
0.0
 10
4.405496823351278
 20
6.93645270547999
 30
0.0
 10
4.412262669198279
 20
6.93302909901441
 30
0.0
 10
4.415915586829939
 20
6.931541228449697
 30
0.0
 10
4.423485826815704
 20
6.929150481716007
 30
0.0
 10
4.427381518775255
 20
6.928245976760394
 30
0.0
 10
4.435392176720297
 20
6.927020855155684
 30
0.0
 10
4.43953566327254
 20
6.926706211906737
 30
0.0
 10
4.451774353401666
 20
6.92670280524981
 30
0.0
 10
4.460000083774923
 20
6.927959529200011
 30
0.0
 10
4.475047188337969
 20
6.932699681150728
 30
0.0
 10
4.482021814665244
 20
6.936229485899868
 30
0.0
 10
4.490673194572495
 20
6.942695884074256
 30
0.0
 10
4.493314188855646
 20
6.945088769731598
 30
0.0
 10
4.497857006823907
 20
6.950113241588035
 30
0.0
 10
4.499779401837857
 20
6.952750996742935
 30
0.0
 10
4.502921977864124
 20
6.95826802603724
 30
0.0
 10
4.504129392129951
 20
6.961146075038931
 30
0.0
 10
4.505725233507993
 20
6.96688786223612
 30
0.0
 10
4.506133880160516
 20
6.969782618732808
 30
0.0
 10
4.506145943760953
 20
6.978537198595105
 30
0.0
 10
4.504527444992263
 20
6.98417664846053
 30
0.0
 10
4.499828097062982
 20
6.991956359163676
 30
0.0
 10
4.497910905823897
 20
6.994394473951034
 30
0.0
 10
4.493383578009006
 20
6.998976047614452
 30
0.0
 10
4.490747304930383
 20
7.001129540478202
 30
0.0
 10
4.482106452987356
 20
7.006888265351793
 30
0.0
 10
4.475142163555498
 20
7.009942395918859
 30
0.0
 10
4.460107941553725
 20
7.014019785300321
 30
0.0
 10
4.451899870555294
 20
7.015093420842847
 30
0.0
 10
4.443637931034486
 20
7.015093420842847
 30
0.0
  0
SPLINE
  5
29E
330
1F
100
AcDbEntity
  8
0
  6
Continuous
 62
     7
370
    25
100
AcDbSpline
210
0.0
220
0.0
230
1.0
 70
    11
 71
     3
 72
    56
 73
    52
 74
     0
 42
0.000000001
 43
0.00000001
 40
0.0
 40
0.0
 40
0.0
 40
0.0
 40
0.0312500000000005
 40
0.0312500000000005
 40
0.062500000000001
 40
0.062500000000001
 40
0.0937500000000015
 40
0.0937500000000015
 40
0.125000000000002
 40
0.125000000000002
 40
0.187500000000003
 40
0.187500000000003
 40
0.2500000000000041
 40
0.2500000000000041
 40
0.2812500000000044
 40
0.2812500000000044
 40
0.3125000000000047
 40
0.3125000000000047
 40
0.3437500000000051
 40
0.3437500000000051
 40
0.3750000000000054
 40
0.3750000000000054
 40
0.4062500000000057
 40
0.4062500000000057
 40
0.4375000000000061
 40
0.4375000000000061
 40
0.4687500000000064
 40
0.4687500000000064
 40
0.5000000000000067
 40
0.5000000000000067
 40
0.5625000000000063
 40
0.5625000000000063
 40
0.625000000000006
 40
0.625000000000006
 40
0.6562500000000053
 40
0.6562500000000053
 40
0.6875000000000048
 40
0.6875000000000048
 40
0.7187500000000041
 40
0.7187500000000041
 40
0.7500000000000036
 40
0.7500000000000036
 40
0.8125000000000028
 40
0.8125000000000028
 40
0.843750000000002
 40
0.843750000000002
 40
0.8750000000000013
 40
0.8750000000000013
 40
0.9375000000000007
 40
0.9375000000000007
 40
1.0
 40
1.0
 40
1.0
 40
1.0
 10
2.719637931034486
 20
7.015093420842847
 30
0.0
 10
2.715506961274081
 20
7.015093420842847
 30
0.0
 10
2.711445382338305
 20
7.014830872163028
 30
0.0
 10
2.70345521994365
 20
7.013799686043296
 30
0.0
 10
2.69948510797563
 20
7.013018409091063
 30
0.0
 10
2.691917126593895
 20
7.010971025827383
 30
0.0
 10
2.68832801244521
 20
7.009714973979868
 30
0.0
 10
2.681535466329692
 20
7.006730736690487
 30
0.0
 10
2.678320770112676
 20
7.004987022850452
 30
0.0
 10
2.669676807332937
 20
6.999234453432277
 30
0.0
 10
2.665020825543822
 20
6.994546762644704
 30
0.0
 10
2.658785597248682
 20
6.984251881450455
 30
0.0
 10
2.657142358641878
 20
6.978534620196
 30
0.0
 10
2.657135730988284
 20
6.969884420879978
 30
0.0
 10
2.657541736925051
 20
6.966931203379916
 30
0.0
 10
2.659136685819834
 20
6.961170060543491
 30
0.0
 10
2.66031678149816
 20
6.958347068760729
 30
0.0
 10
2.663446927670635
 20
6.952824427589275
 30
0.0
 10
2.665403059978821
 20
6.950134658581869
 30
0.0
 10
2.669925554560746
 20
6.945124815873134
 30
0.0
 10
2.672507540157257
 20
6.942773090852932
 30
0.0
 10
2.678339537984838
 20
6.93840193600093
 30
0.0
 10
2.681496823351278
 20
6.93645270547999
 30
0.0
 10
2.688262669198279
 20
6.93302909901441
 30
0.0
 10
2.691915586829939
 20
6.931541228449697
 30
0.0
 10
2.699485826815704
 20
6.929150481716007
 30
0.0
 10
2.703381518775255
 20
6.928245976760394
 30
0.0
 10
2.711392176720297
 20
6.927020855155684
 30
0.0
 10
2.71553566327254
 20
6.926706211906737
 30
0.0
 10
2.727774353401667
 20
6.92670280524981
 30
0.0
 10
2.736000083774922
 20
6.927959529200011
 30
0.0
 10
2.751047188337968
 20
6.932699681150728
 30
0.0
 10
2.758021814665244
 20
6.936229485899868
 30
0.0
 10
2.766673194572495
 20
6.942695884074256
 30
0.0
 10
2.769314188855645
 20
6.945088769731598
 30
0.0
 10
2.773857006823907
 20
6.950113241588035
 30
0.0
 10
2.775779401837856
 20
6.952750996742935
 30
0.0
 10
2.778921977864124
 20
6.95826802603724
 30
0.0
 10
2.780129392129951
 20
6.961146075038931
 30
0.0
 10
2.781725233507994
 20
6.96688786223612
 30
0.0
 10
2.782133880160516
 20
6.969782618732808
 30
0.0
 10
2.782145943760953
 20
6.978537198595105
 30
0.0
 10
2.780527444992263
 20
6.98417664846053
 30
0.0
 10
2.775828097062983
 20
6.991956359163676
 30
0.0
 10
2.773910905823897
 20
6.994394473951034
 30
0.0
 10
2.769383578009006
 20
6.998976047614452
 30
0.0
 10
2.766747304930383
 20
7.001129540478202
 30
0.0
 10
2.758106452987356
 20
7.006888265351793
 30
0.0
 10
2.751142163555497
 20
7.009942395918859
 30
0.0
 10
2.736107941553724
 20
7.014019785300321
 30
0.0
 10
2.727899870555293
 20
7.015093420842847
 30
0.0
 10
2.719637931034486
 20
7.015093420842847
 30
0.0
  0
LINE
  5
29F
330
1F
100
AcDbEntity
  8
0
  6
Continuous
 62
     7
370
    25
100
AcDbLine
 10
4.563637931
 20
6.4424137931
 30
0.0
 11
4.563637931
 21
7.1924137931
 31
0.0
  0
LINE
  5
2A0
330
1F
100
AcDbEntity
  8
0
  6
Continuous
 62
     7
370
    25
100
AcDbLine
 10
4.563637931
 20
5.6924137931
 30
0.0
 11
4.563637931
 21
6.4424137931
 31
0.0
  0
LINE
  5
2A1
330
1F
100
AcDbEntity
  8
0
  6
Continuous
 62
     7
370
    25
100
AcDbLine
 10
2.599637931
 20
6.4424137931
 30
0.0
 11
2.599637931
 21
7.1924137931
 31
0.0
  0
LINE
  5
2A2
330
1F
100
AcDbEntity
  8
0
  6
Continuous
 62
     7
370
    25
100
AcDbLine
 10
2.599637931
 20
5.6924137931
 30
0.0
 11
2.599637931
 21
6.4424137931
 31
0.0
  0
ARC
  5
2A3
330
1F
100
AcDbEntity
  8
0
  6
Continuous
 62
     7
370
    25
100
AcDbCircle
 10
3.581637931
 20
6.4424137931
 30
0.0
 40
0.124838809197333
100
AcDbArc
 50
16.4889590486
 51
163.5110409514
  0
SPLINE
  5
2A4
330
1F
100
AcDbEntity
  8
0
  6
Continuous
 62
     7
370
    25
100
AcDbSpline
210
0.0
220
0.0
230
1.0
 70
    24
 71
     3
 72
     9
 73
     5
 74
     0
 42
0.000000001
 43
0.00000001
 40
0.0
 40
0.0
 40
0.0
 40
0.0
 40
0.2370453560874556
 40
1.0
 40
1.0
 40
1.0
 40
1.0
 10
3.461933186889556
 20
6.477846863969581
 30
0.0
 10
3.460947535992591
 20
6.477846863969581
 30
0.0
 10
3.456789467202578
 20
6.477846863969581
 30
0.0
 10
3.45264238532384
 20
6.477846863969581
 30
0.0
 10
3.449478349945772
 20
6.477846863969581
 30
0.0
  0
ARC
  5
2A5
330
1F
100
AcDbEntity
  8
0
  6
Continuous
 62
     7
370
    25
100
AcDbCircle
 10
3.581637931
 20
6.4424137931
 30
0.0
 40
0.1368271076378852
100
AcDbArc
 50
15.0085012419
 51
164.9914987581
  0
SPLINE
  5
2A6
330
1F
100
AcDbEntity
  8
0
  6
Continuous
 62
     7
370
    25
100
AcDbSpline
210
0.0
220
0.0
230
1.0
 70
    24
 71
     3
 72
     9
 73
     5
 74
     0
 42
0.000000001
 43
0.00000001
 40
0.0
 40
0.0
 40
0.0
 40
0.0
 40
0.7629546436003793
 40
1.0
 40
1.0
 40
1.0
 40
1.0
 10
3.7137975121232
 20
6.477846863969581
 30
0.0
 10
3.710633476746426
 20
6.477846863969581
 30
0.0
 10
3.706486394867689
 20
6.477846863969581
 30
0.0
 10
3.702328326077678
 20
6.477846863969581
 30
0.0
 10
3.701342675179415
 20
6.477846863969581
 30
0.0
  0
ARC
  5
2A7
330
1F
100
AcDbEntity
  8
0
  6
Continuous
 62
     7
370
    25
100
AcDbCircle
 10
3.581637931
 20
6.4424137931
 30
0.0
 40
0.109989934321377
100
AcDbArc
 50
198.7928951035
 51
341.2071048965
  0
LINE
  5
2A8
330
1F
100
AcDbEntity
  8
0
  6
Continuous
 62
     7
370
    25
100
AcDbLine
 10
3.7013426752
 20
6.4069807222
 30
0.0
 11
3.6857642156
 21
6.4069807222
 31
0.0
  0
ARC
  5
2A9
330
1F
100
AcDbEntity
  8
0
  6
Continuous
 62
     7
370
    25
100
AcDbCircle
 10
3.581637931
 20
6.4424137931
 30
0.0
 40
0.1248388091973332
100
AcDbArc
 50
196.4889590486
 51
343.5110409514
  0
LINE
  5
2AA
330
1F
100
AcDbEntity
  8
0
  6
Continuous
 62
     7
370
    25
100
AcDbLine
 10
3.4775116465
 20
6.4069807222
 30
0.0
 11
3.4619331869
 21
6.4069807222
 31
0.0
  0
ARC
  5
2AB
330
1F
100
AcDbEntity
  8
0
  6
Continuous
 62
     7
370
    25
100
AcDbCircle
 10
3.581637931
 20
6.4424137931
 30
0.0
 40
0.1368271076378855
100
AcDbArc
 50
195.0085012419
 51
344.9914987581
  0
SPLINE
  5
2AC
330
1F
100
AcDbEntity
  8
0
  6
Continuous
 62
     7
370
    25
100
AcDbSpline
210
0.0
220
0.0
230
1.0
 70
    24
 71
     3
 72
     9
 73
     5
 74
     0
 42
0.000000001
 43
0.00000001
 40
0.0
 40
0.0
 40
0.0
 40
0.0
 40
0.2370453560874572
 40
0.9999999999999999
 40
0.9999999999999999
 40
0.9999999999999999
 40
0.9999999999999999
 10
3.701342675179415
 20
6.406980722237297
 30
0.0
 10
3.70232832607638
 20
6.406980722237297
 30
0.0
 10
3.706486394866393
 20
6.406980722237297
 30
0.0
 10
3.710633476745131
 20
6.406980722237297
 30
0.0
 10
3.7137975121232
 20
6.406980722237297
 30
0.0
  0
SPLINE
  5
2AD
330
1F
100
AcDbEntity
  8
0
  6
Continuous
 62
     7
370
    25
100
AcDbSpline
210
0.0
220
0.0
230
1.0
 70
    24
 71
     3
 72
     9
 73
     5
 74
     0
 42
0.000000001
 43
0.00000001
 40
0.0
 40
0.0
 40
0.0
 40
0.0
 40
0.7629546436003807
 40
1.0
 40
1.0
 40
1.0
 40
1.0
 10
3.449478349945772
 20
6.406980722237297
 30
0.0
 10
3.452642385322545
 20
6.406980722237297
 30
0.0
 10
3.456789467201282
 20
6.406980722237297
 30
0.0
 10
3.460947535991294
 20
6.406980722237297
 30
0.0
 10
3.461933186889556
 20
6.406980722237297
 30
0.0
  0
ARC
  5
2AE
330
1F
100
AcDbEntity
  8
0
  6
Continuous
 62
     7
370
    25
100
AcDbCircle
 10
3.581637931
 20
6.4424137931
 30
0.0
 40
0.1099899343213767
100
AcDbArc
 50
18.7928951035
 51
161.2071048965
  0
LINE
  5
2AF
330
1F
100
AcDbEntity
  8
0
  6
Continuous
 62
     7
370
    25
100
AcDbLine
 10
3.7013426752
 20
6.477846864
 30
0.0
 11
3.6857642156
 21
6.477846864
 31
0.0
  0
LINE
  5
2B0
330
1F
100
AcDbEntity
  8
0
  6
Continuous
 62
     7
370
    25
100
AcDbLine
 10
3.4775116465
 20
6.477846864
 30
0.0
 11
3.4619331869
 21
6.477846864
 31
0.0
  0
ARC
  5
2B1
330
1F
100
AcDbEntity
  8
0
  6
Continuous
 62
     7
370
    25
100
AcDbCircle
 10
3.581637931
 20
6.4424137931
 30
0.0
 40
0.1369453241359613
100
AcDbArc
 50
165.0047589614
 51
194.9952410386
  0
ARC
  5
2B2
330
1F
100
AcDbEntity
  8
0
  6
Continuous
 62
     7
370
    25
100
AcDbCircle
 10
3.581637931
 20
6.4424137931
 30
0.0
 40
0.1369453241359609
100
AcDbArc
 50
345.0047589614
 51
14.9952410386
  0
SPLINE
  5
2B3
330
1F
100
AcDbEntity
  8
0
  6
Continuous
 62
     7
370
    25
100
AcDbSpline
210
0.0
220
0.0
230
1.0
 70
    24
 71
     3
 72
    10
 73
     6
 74
     0
 42
0.000000001
 43
0.00000001
 40
0.0
 40
0.0
 40
0.0
 40
0.0
 40
0.4550062117296454
 40
0.9106011895006948
 40
1.0
 40
1.0
 40
1.0
 40
1.0
 10
3.6762746435481
 20
6.406980722237297
 30
0.0
 10
3.677250792460365
 20
6.406980722237297
 30
0.0
 10
3.679204353395851
 20
6.406980722237297
 30
0.0
 10
3.681280306343739
 20
6.406980722237297
 30
0.0
 10
3.682024762559065
 20
6.406980722237297
 30
0.0
 10
3.682146880464903
 20
6.406980722237297
 30
0.0
  0
SPLINE
  5
2B4
330
1F
100
AcDbEntity
  8
0
  6
Continuous
 62
     7
370
    25
100
AcDbSpline
210
0.0
220
0.0
230
1.0
 70
    24
 71
     3
 72
    10
 73
     6
 74
     0
 42
0.000000001
 43
0.00000001
 40
0.0
 40
0.0
 40
0.0
 40
0.0
 40
0.3377523934447192
 40
0.7645647281596838
 40
1.0
 40
1.0
 40
1.0
 40
1.0
 10
3.481115520592638
 20
6.406980722237297
 30
0.0
 10
3.481673727857542
 20
6.406980722237297
 30
0.0
 10
3.482937332776505
 20
6.406980722237297
 30
0.0
 10
3.485064408950878
 20
6.406980722237297
 30
0.0
 10
3.486493251510929
 20
6.406980722237297
 30
0.0
 10
3.487001218520871
 20
6.406980722237297
 30
0.0
  0
SPLINE
  5
2B5
330
1F
100
AcDbEntity
  8
0
  6
Continuous
 62
     7
370
    25
100
AcDbSpline
210
0.0
220
0.0
230
1.0
 70
    24
 71
     3
 72
    10
 73
     6
 74
     0
 42
0.000000001
 43
0.00000001
 40
0.0
 40
0.0
 40
0.0
 40
0.0
 40
0.3377019362131555
 40
0.7645467901378618
 40
1.0
 40
1.0
 40
1.0
 40
1.0
 10
3.682159947775546
 20
6.477846863969581
 30
0.0
 10
3.681601863684506
 20
6.477846863969581
 30
0.0
 10
3.68033837847854
 20
6.477846863969581
 30
0.0
 10
3.678211451575705
 20
6.477846863969581
 30
0.0
 10
3.676782610153519
 20
6.477846863969581
 30
0.0
 10
3.6762746435481
 20
6.477846863969581
 30
0.0
  0
SPLINE
  5
2B6
330
1F
100
AcDbEntity
  8
0
  6
Continuous
 62
     7
370
    25
100
AcDbSpline
210
0.0
220
0.0
230
1.0
 70
    24
 71
     3
 72
    10
 73
     6
 74
     0
 42
0.000000001
 43
0.00000001
 40
0.0
 40
0.0
 40
0.0
 40
0.0
 40
0.4550062117296474
 40
0.9106011895006944
 40
0.9999999999999999
 40
0.9999999999999999
 40
0.9999999999999999
 40
0.9999999999999999
 10
3.487001218520871
 20
6.477846863969581
 30
0.0
 10
3.486025069608606
 20
6.477846863969581
 30
0.0
 10
3.48407150867312
 20
6.477846863969581
 30
0.0
 10
3.481995555725232
 20
6.47784686396958
 30
0.0
 10
3.481251099509907
 20
6.477846863969581
 30
0.0
 10
3.481128981604068
 20
6.477846863969581
 30
0.0
  0
CIRCLE
  5
2B7
330
1F
100
AcDbEntity
  8
0
  6
Continuous
 62
     7
370
    25
100
AcDbCircle
 10
3.581637931
 20
6.4424137931
 30
0.0
 40
0.0885826771653542
  0
CIRCLE
  5
2B8
330
1F
100
AcDbEntity
  8
0
  6
Continuous
 62
     7
370
    25
100
AcDbCircle
 10
3.581637931
 20
6.4424137931
 30
0.0
 40
0.0807086614173231
  0
CIRCLE
  5
2B9
330
1F
100
AcDbEntity
  8
0
  6
Continuous
 62
     7
370
    25
100
AcDbCircle
 10
3.581637931
 20
6.4424137931
 30
0.0
 40
0.140159885715792
  0
LINE
  5
2BA
330
1F
100
AcDbEntity
  8
0
  6
Continuous
 62
     7
370
    25
100
AcDbLine
 10
3.3286955053
 20
5.8774619716
 30
0.0
 11
3.2265803568
 21
5.8774619716
 31
0.0
  0
LINE
  5
2BB
330
1F
100
AcDbEntity
  8
0
  6
Continuous
 62
     7
370
    25
100
AcDbLine
 10
3.9366955053
 20
7.0073656146
 30
0.0
 11
3.8345803568
 21
7.0073656146
 31
0.0
  0
LINE
  5
2BC
330
1F
100
AcDbEntity
  8
0
  6
Continuous
 62
     7
370
    25
100
AcDbLine
 10
3.9366955053
 20
5.8774619716
 30
0.0
 11
3.8345803568
 21
5.8774619716
 31
0.0
  0
LINE
  5
2BD
330
1F
100
AcDbEntity
  8
0
  6
Continuous
 62
     7
370
    25
100
AcDbLine
 10
3.3286955053
 20
7.0073656146
 30
0.0
 11
3.2265803568
 21
7.0073656146
 31
0.0
  0
ELLIPSE
  5
2BE
330
1F
100
AcDbEntity
  8
0
  6
Continuous
 62
     7
370
    25
100
AcDbEllipse
 10
3.2264552247
 20
5.8958940713
 30
0.0
 11
0.01999101283213989
 21
-0.0007623775630660746
 31
0.0
210
0.0
220
0.0
230
1.0
 40
0.921230285
 41
4.741679325223075
 42
4.753762188962715
  0
SPLINE
  5
2BF
330
1F
100
AcDbEntity
  8
0
  6
Continuous
 62
     7
370
    25
100
AcDbSpline
210
0.0
220
0.0
230
1.0
 70
     8
 71
     3
 72
    14
 73
    10
 74
     0
 42
0.000000001
 43
0.00000001
 40
0.0
 40
0.0
 40
0.0
 40
0.0
 40
0.0454606938068816
 40
0.1128792713475515
 40
0.325605809934029
 40
0.5522960012813394
 40
0.7497032527220144
 40
0.948115864770878
 40
1.0
 40
1.0
 40
1.0
 40
1.0
 10
3.206756885966563
 20
5.898910612150388
 30
0.0
 10
3.206770861819868
 20
5.898427954765714
 30
0.0
 10
3.20680556397695
 20
5.897229512565866
 30
0.0
 10
3.207271960415058
 20
5.893621888439196
 30
0.0
 10
3.208896761269504
 20
5.888622297432754
 30
0.0
 10
3.212752162875533
 20
5.883079890013659
 30
0.0
 10
3.218184286869082
 20
5.879086574462728
 30
0.0
 10
3.223010642611031
 20
5.877598121989713
 30
0.0
 10
3.225767243429139
 20
5.877486462970784
 30
0.0
 10
3.226338660561702
 20
5.877463317118108
 30
0.0
  0
SPLINE
  5
2C0
330
1F
100
AcDbEntity
  8
0
  6
Continuous
 62
     7
370
    25
100
AcDbSpline
210
0.0
220
0.0
230
1.0
 70
     8
 71
     3
 72
    15
 73
    11
 74
     0
 42
0.000000001
 43
0.00000001
 40
0.0
 40
0.0
 40
0.0
 40
0.0
 40
0.1758025058570047
 40
0.3511449094382721
 40
0.5376615321518942
 40
0.7559731559079507
 40
0.8581208235675141
 40
0.9440425000017982
 40
0.988089220504038
 40
0.9999999999999999
 40
0.9999999999999999
 40
0.9999999999999999
 40
0.9999999999999999
 10
3.936937201507269
 20
5.877463317118109
 30
0.0
 10
3.938883288613578
 20
5.877670943657277
 30
0.0
 10
3.942770369616053
 20
5.878085653344934
 30
0.0
 10
3.947978225328132
 20
5.880978982146296
 30
0.0
 10
3.952356111786981
 20
5.885330944529382
 30
0.0
 10
3.954860006380959
 20
5.890038146969866
 30
0.0
 10
3.956027072486179
 20
5.894127511713084
 30
0.0
 10
3.956414217149018
 20
5.896635649047103
 30
0.0
 10
3.956509635741458
 20
5.898220842648001
 30
0.0
 10
3.956517336883318
 20
5.898789558655104
 30
0.0
 10
3.956518976102414
 20
5.898910612150286
 30
0.0
  0
ELLIPSE
  5
2C1
330
1F
100
AcDbEntity
  8
0
  6
Continuous
 62
     7
370
    25
100
AcDbEllipse
 10
3.9368206374
 20
5.8958940713
 30
0.0
 11
0.01999101283213989
 21
0.0007623775630651864
 31
0.0
210
0.0
220
0.0
230
1.0
 40
0.921230285
 41
4.67101577180673
 42
4.683098635546394
  0
ELLIPSE
  5
2C2
330
1F
100
AcDbEntity
  8
0
  6
Continuous
 62
     7
370
    25
100
AcDbEllipse
 10
3.9368206374
 20
6.9889335149
 30
0.0
 11
0.01999101283213989
 21
-0.0007623775630660746
 31
0.0
210
0.0
220
0.0
230
1.0
 40
0.921230285
 41
1.600086671633246
 42
1.612169535372932
  0
SPLINE
  5
2C3
330
1F
100
AcDbEntity
  8
0
  6
Continuous
 62
     7
370
    25
100
AcDbSpline
210
0.0
220
0.0
230
1.0
 70
     8
 71
     3
 72
    14
 73
    10
 74
     0
 42
0.000000001
 43
0.00000001
 40
0.0
 40
0.0
 40
0.0
 40
0.0
 40
0.0454606938068837
 40
0.1128792713475626
 40
0.3256058099340636
 40
0.5522960012813838
 40
0.7497032527220552
 40
0.9481158647709151
 40
0.9999999999999999
 40
0.9999999999999999
 40
0.9999999999999999
 40
0.9999999999999999
 10
3.956518976102408
 20
6.985916974056489
 30
0.0
 10
3.956505000249103
 20
6.986399631441164
 30
0.0
 10
3.956470298092022
 20
6.987598073641013
 30
0.0
 10
3.956003901653912
 20
6.991205697767682
 30
0.0
 10
3.954379100799467
 20
6.996205288774124
 30
0.0
 10
3.950523699193437
 20
7.001747696193219
 30
0.0
 10
3.945091575199888
 20
7.005741011744149
 30
0.0
 10
3.940265219457939
 20
7.007229464217165
 30
0.0
 10
3.937508618639832
 20
7.007341123236094
 30
0.0
 10
3.93693720150727
 20
7.00736426908877
 30
0.0
  0
SPLINE
  5
2C4
330
1F
100
AcDbEntity
  8
0
  6
Continuous
 62
     7
370
    25
100
AcDbSpline
210
0.0
220
0.0
230
1.0
 70
     8
 71
     3
 72
    15
 73
    11
 74
     0
 42
0.000000001
 43
0.00000001
 40
0.0
 40
0.0
 40
0.0
 40
0.0
 40
0.175802505857005
 40
0.3511449094382726
 40
0.5376615321518935
 40
0.7559731559079516
 40
0.8581208235675138
 40
0.944042500001794
 40
0.9880892205040357
 40
1.0
 40
1.0
 40
1.0
 40
1.0
 10
3.226338660561702
 20
7.007364269088768
 30
0.0
 10
3.224392573455393
 20
7.0071566425496
 30
0.0
 10
3.220505492452918
 20
7.006741932861944
 30
0.0
 10
3.215297636740839
 20
7.003848604060582
 30
0.0
 10
3.21091975028199
 20
6.999496641677496
 30
0.0
 10
3.208415855688012
 20
6.994789439237011
 30
0.0
 10
3.207248789582792
 20
6.990700074493793
 30
0.0
 10
3.206861644919954
 20
6.988191937159774
 30
0.0
 10
3.206766226327513
 20
6.986606743558875
 30
0.0
 10
3.206758525185653
 20
6.986038027551774
 30
0.0
 10
3.206756885966557
 20
6.985916974056592
 30
0.0
  0
ELLIPSE
  5
2C5
330
1F
100
AcDbEntity
  8
0
  6
Continuous
 62
     7
370
    25
100
AcDbEllipse
 10
3.2264552247
 20
6.9889335149
 30
0.0
 11
0.01999101283214033
 21
0.0007623775630642983
 31
0.0
210
0.0
220
0.0
230
1.0
 40
0.921230285
 41
1.529423118216989
 42
1.541505981956631
  0
ELLIPSE
  5
2C6
330
1F
100
AcDbEntity
  8
0
  6
Continuous
 62
     7
370
    25
100
AcDbEllipse
 10
3.3686409776
 20
5.8324168397
 30
0.0
 11
-0.01414644378339158
 21
-0.01414644378339069
 31
0.0
210
0.0
220
0.0
230
1.0
 40
0.9996954599
 41
5.497939437029768
 42
7.068431177329437
  0
ELLIPSE
  5
2C7
330
1F
100
AcDbEntity
  8
0
  6
Continuous
 62
     7
370
    25
100
AcDbEllipse
 10
3.7946348845
 20
7.0524107465
 30
0.0
 11
0.01414644378339202
 21
0.01414644378339158
 31
0.0
210
0.0
220
0.0
230
1.0
 40
0.9996954599
 41
5.497939437029757
 42
7.068431177329482
  0
ELLIPSE
  5
2C8
330
1F
100
AcDbEntity
  8
0
  6
Continuous
 62
     7
370
    25
100
AcDbEllipse
 10
3.7946348845
 20
5.8324168397
 30
0.0
 11
0.01414644378339158
 21
-0.01414644378339158
 31
0.0
210
0.0
220
0.0
230
1.0
 40
0.9996954599
 41
5.497939437029744
 42
7.068431177329421
  0
ELLIPSE
  5
2C9
330
1F
100
AcDbEntity
  8
0
  6
Continuous
 62
     7
370
    25
100
AcDbEllipse
 10
3.3686409776
 20
7.0524107465
 30
0.0
 11
-0.01414644378339158
 21
0.01414644378339158
 31
0.0
210
0.0
220
0.0
230
1.0
 40
0.9996954599
 41
5.497939437029697
 42
7.068431177329488
  0
LINE
  5
2CA
330
1F
100
AcDbEntity
  8
0
  6
Continuous
 62
     7
370
    25
100
AcDbLine
 10
3.7946409771
 20
7.0724137931
 30
0.0
 11
3.3686348849
 21
7.0724137931
 31
0.0
  0
ELLIPSE
  5
2CB
330
1F
100
AcDbEntity
  8
0
  6
Continuous
 62
     7
370
    25
100
AcDbEllipse
 10
3.9466364078
 20
7.9598080114
 30
0.0
 11
-0.009993403238671485
 21
0.9926438994320465
 31
0.0
210
0.0
220
0.0
230
1.0
 40
0.0004059248
 41
3.181891298430858
 42
3.336276097812782
  0
LINE
  5
2CC
330
1F
100
AcDbEntity
  8
0
  6
Continuous
 62
     7
370
    25
100
AcDbLine
 10
3.956637931
 20
5.9168574025
 30
0.0
 11
3.956637931
 21
6.9679701837
 31
0.0
  0
ELLIPSE
  5
2CD
330
1F
100
AcDbEntity
  8
0
  6
Continuous
 62
     7
370
    25
100
AcDbEllipse
 10
3.9466364078
 20
4.9250195748
 30
0.0
 11
0.009993403238673261
 21
0.9926438994320651
 31
0.0
210
0.0
220
0.0
230
1.0
 40
0.0004059248
 41
6.088501863024591
 42
6.242886662408701
  0
LINE
  5
2CE
330
1F
100
AcDbEntity
  8
0
  6
Continuous
 62
     7
370
    25
100
AcDbLine
 10
3.814637931
 20
7.0467610455
 30
0.0
 11
3.814637931
 21
7.0524168392
 31
0.0
  0
ELLIPSE
  5
2CF
330
1F
100
AcDbEntity
  8
0
  6
Continuous
 62
     7
370
    25
100
AcDbEllipse
 10
3.8246394543
 20
6.0549232177
 30
0.0
 11
-0.009993403238671483
 21
0.9926438994320471
 31
0.0
210
0.0
220
0.0
230
1.0
 40
0.0004059248
 41
0.0402986448067034
 42
0.1946834441881756
  0
ELLIPSE
  5
2D0
330
1F
100
AcDbEntity
  8
0
  6
Continuous
 62
     7
370
    25
100
AcDbEllipse
 10
3.2166394543
 20
7.9598080114
 30
0.0
 11
0.009993403238673704
 21
0.9926438994321494
 31
0.0
210
0.0
220
0.0
230
1.0
 40
0.0004059248
 41
2.946909209401374
 42
3.101294008783162
  0
ELLIPSE
  5
2D1
330
1F
100
AcDbEntity
  8
0
  6
Continuous
 62
     7
370
    25
100
AcDbEllipse
 10
3.2166394543
 20
4.9250195748
 30
0.0
 11
-0.009993403238672816
 21
0.9926438994320907
 31
0.0
210
0.0
220
0.0
230
1.0
 40
0.0004059248
 41
0.0402986448055286
 42
0.1946834441882694
  0
LINE
  5
2D2
330
1F
100
AcDbEntity
  8
0
  6
Continuous
 62
     7
370
    25
100
AcDbLine
 10
3.206637931
 20
6.9679701837
 30
0.0
 11
3.206637931
 21
5.9168574025
 31
0.0
  0
ELLIPSE
  5
2D3
330
1F
100
AcDbEntity
  8
0
  6
Continuous
 62
     7
370
    25
100
AcDbEllipse
 10
3.3386364078
 20
6.0549232177
 30
0.0
 11
0.009993403238667488
 21
0.9926438994320207
 31
0.0
210
0.0
220
0.0
230
1.0
 40
0.0004059248
 41
6.088501863024185
 42
6.242886662408615
  0
LINE
  5
2D4
330
1F
100
AcDbEntity
  8
0
  6
Continuous
 62
     7
370
    25
100
AcDbLine
 10
3.348637931
 20
7.0524168392
 30
0.0
 11
3.348637931
 21
7.0467610455
 31
0.0
  0
ELLIPSE
  5
2D5
330
1F
100
AcDbEntity
  8
0
  6
Continuous
 62
     7
370
    25
100
AcDbEllipse
 10
3.8246394543
 20
6.8299043685
 30
0.0
 11
0.009993403238670151
 21
0.9926438994320232
 31
0.0
210
0.0
220
0.0
230
1.0
 40
0.0004059248
 41
2.946909209402028
 42
3.101294008785262
  0
LINE
  5
2D6
330
1F
100
AcDbEntity
  8
0
  6
Continuous
 62
     7
370
    25
100
AcDbLine
 10
3.814637931
 20
5.832410747
 30
0.0
 11
3.814637931
 21
5.8380665407
 31
0.0
  0
LINE
  5
2D7
330
1F
100
AcDbEntity
  8
0
  6
Continuous
 62
     7
370
    25
100
AcDbLine
 10
3.3686348849
 20
5.8124137931
 30
0.0
 11
3.7946409771
 21
5.8124137931
 31
0.0
  0
LINE
  5
2D8
330
1F
100
AcDbEntity
  8
0
  6
Continuous
 62
     7
370
    25
100
AcDbLine
 10
3.348637931
 20
5.8380665407
 30
0.0
 11
3.348637931
 21
5.832410747
 31
0.0
  0
ELLIPSE
  5
2D9
330
1F
100
AcDbEntity
  8
0
  6
Continuous
 62
     7
370
    25
100
AcDbEllipse
 10
3.3386364078
 20
6.8299043685
 30
0.0
 11
-0.009993403238668375
 21
0.9926438994320047
 31
0.0
210
0.0
220
0.0
230
1.0
 40
0.0004059248
 41
3.18189129842758
 42
3.336276097810667
  0
SPLINE
  5
2DA
330
1F
100
AcDbEntity
  8
0
  6
Continuous
 62
     7
370
    25
100
AcDbSpline
210
0.0
220
0.0
230
1.0
 70
     8
 71
     3
 72
    15
 73
    11
 74
     0
 42
0.000000001
 43
0.00000001
 40
0.0
 40
0.0
 40
0.0
 40
0.0
 40
0.0119107794961282
 40
0.0559574999983971
 40
0.1418791764324089
 40
0.2440268440921068
 40
0.4623384678481487
 40
0.6488550905617555
 40
0.8241974941430087
 40
1.0
 40
1.0
 40
1.0
 40
1.0
 10
3.814756885966557
 20
5.856013331113284
 30
0.0
 10
3.814758525185652
 20
5.856134384608468
 30
0.0
 10
3.814766226327512
 20
5.856703100615572
 30
0.0
 10
3.814861644919953
 20
5.858288294216471
 30
0.0
 10
3.815248789582791
 20
5.860796431550487
 30
0.0
 10
3.81641585568801
 20
5.864885796293705
 30
0.0
 10
3.81891975028199
 20
5.86959299873419
 30
0.0
 10
3.823297636740838
 20
5.873944961117276
 30
0.0
 10
3.828505492452917
 20
5.876838289918639
 30
0.0
 10
3.832392573455392
 20
5.877252999606295
 30
0.0
 10
3.834338660561702
 20
5.877460626145464
 30
0.0
  0
ELLIPSE
  5
2DB
330
1F
100
AcDbEntity
  8
0
  6
Continuous
 62
     7
370
    25
100
AcDbEllipse
 10
3.8344552247
 20
5.8590298719
 30
0.0
 11
0.01999101283213989
 21
0.0007623775630642983
 31
0.0
210
0.0
220
0.0
230
1.0
 40
0.921230285
 41
1.529423118216987
 42
1.541505981956629
  0
SPLINE
  5
2DC
330
1F
100
AcDbEntity
  8
0
  6
Continuous
 62
     7
370
    25
100
AcDbSpline
210
0.0
220
0.0
230
1.0
 70
     8
 71
     3
 72
    15
 73
    11
 74
     0
 42
0.000000001
 43
0.00000001
 40
0.0
 40
0.0
 40
0.0
 40
0.0
 40
0.0119107794961338
 40
0.0559574999983982
 40
0.1418791764324146
 40
0.2440268440921137
 40
0.4623384678481532
 40
0.6488550905617575
 40
0.82419749414301
 40
1.0
 40
1.0
 40
1.0
 40
1.0
 10
3.348518976102415
 20
7.028814255093594
 30
0.0
 10
3.348517336883318
 20
7.02869320159841
 30
0.0
 10
3.348509635741459
 20
7.028124485591305
 30
0.0
 10
3.348414217149018
 20
7.026539291990407
 30
0.0
 10
3.34802707248618
 20
7.02403115465639
 30
0.0
 10
3.346860006380961
 20
7.019941789913172
 30
0.0
 10
3.344356111786981
 20
7.015234587472687
 30
0.0
 10
3.339978225328133
 20
7.010882625089601
 30
0.0
 10
3.334770369616053
 20
7.00798929628824
 30
0.0
 10
3.330883288613579
 20
7.007574586600582
 30
0.0
 10
3.32893720150727
 20
7.007366960061415
 30
0.0
  0
ELLIPSE
  5
2DD
330
1F
100
AcDbEntity
  8
0
  6
Continuous
 62
     7
370
    25
100
AcDbEllipse
 10
3.3288206374
 20
7.0257977143
 30
0.0
 11
0.01999101283214033
 21
0.0007623775630651864
 31
0.0
210
0.0
220
0.0
230
1.0
 40
0.921230285
 41
4.671015771806732
 42
4.683098635546418
  0
SPLINE
  5
2DE
330
1F
100
AcDbEntity
  8
0
  6
Continuous
 62
     7
370
    25
100
AcDbSpline
210
0.0
220
0.0
230
1.0
 70
     8
 71
     3
 72
    14
 73
    10
 74
     0
 42
0.000000001
 43
0.00000001
 40
0.0
 40
0.0
 40
0.0
 40
0.0
 40
0.0518841352294898
 40
0.250296747278436
 40
0.4477039987191905
 40
0.67439419006631
 40
0.8871207286525511
 40
0.9545393061931668
 40
1.0
 40
1.0
 40
1.0
 40
1.0
 10
3.328937201507268
 20
5.877460626145464
 30
0.0
 10
3.329508618639835
 20
5.877437480292787
 30
0.0
 10
3.332265219457948
 20
5.877325821273859
 30
0.0
 10
3.337091575199902
 20
5.875837368800837
 30
0.0
 10
3.342523699193447
 20
5.871844053249902
 30
0.0
 10
3.34637910079947
 20
5.866301645830807
 30
0.0
 10
3.348003901653913
 20
5.861302054824371
 30
0.0
 10
3.348470298092021
 20
5.857694430697703
 30
0.0
 10
3.348505000249103
 20
5.856495988497858
 30
0.0
 10
3.348518976102408
 20
5.856013331113185
 30
0.0
  0
ELLIPSE
  5
2DF
330
1F
100
AcDbEntity
  8
0
  6
Continuous
 62
     7
370
    25
100
AcDbEllipse
 10
3.3288206374
 20
5.8590298719
 30
0.0
 11
0.01999101283214033
 21
-0.0007623775630651864
 31
0.0
210
0.0
220
0.0
230
1.0
 40
0.921230285
 41
1.600086671633225
 42
1.612169535372868
  0
SPLINE
  5
2E0
330
1F
100
AcDbEntity
  8
0
  6
Continuous
 62
     7
370
    25
100
AcDbSpline
210
0.0
220
0.0
230
1.0
 70
     8
 71
     3
 72
    14
 73
    10
 74
     0
 42
0.000000001
 43
0.00000001
 40
0.0
 40
0.0
 40
0.0
 40
0.0
 40
0.0518841352294911
 40
0.2502967472784384
 40
0.4477039987191931
 40
0.6743941900663106
 40
0.8871207286525542
 40
0.9545393061931678
 40
1.0
 40
1.0
 40
1.0
 40
1.0
 10
3.834338660561702
 20
7.007366960061415
 30
0.0
 10
3.833767243429135
 20
7.00739010591409
 30
0.0
 10
3.831010642611023
 20
7.00750176493302
 30
0.0
 10
3.826184286869068
 20
7.008990217406041
 30
0.0
 10
3.820752162875523
 20
7.012983532956977
 30
0.0
 10
3.816896761269501
 20
7.018525940376072
 30
0.0
 10
3.815271960415058
 20
7.023525531382507
 30
0.0
 10
3.81480556397695
 20
7.027133155509175
 30
0.0
 10
3.814770861819869
 20
7.02833159770902
 30
0.0
 10
3.814756885966564
 20
7.028814255093692
 30
0.0
  0
ELLIPSE
  5
2E1
330
1F
100
AcDbEntity
  8
0
  6
Continuous
 62
     7
370
    25
100
AcDbEllipse
 10
3.8344552247
 20
7.0257977143
 30
0.0
 11
0.01999101283213989
 21
-0.0007623775630660746
 31
0.0
210
0.0
220
0.0
230
1.0
 40
0.921230285
 41
4.741679325223052
 42
4.753762188962738
  0
LWPOLYLINE
  5
2E2
330
1F
100
AcDbEntity
  8
0
  6
Continuous
 62
     7
370
    25
100
AcDbPolyline
 90
       18
 70
   128
 43
0.0
 10
2.673137931
 20
6.972743879
 10
2.6762779724
 20
6.9608660849
 10
2.6852740164
 20
6.9505924527
 10
2.6989110975
 20
6.9433104934
 10
2.7153474523
 20
6.9400036759
 10
2.7323632601
 20
6.9411186043
 10
2.7476604416
 20
6.9465047012
 10
2.7591730278
 20
6.9554345445
 10
2.7653461802
 20
6.9667021093
 10
2.7653461802
 20
6.9787856486
 10
2.7591730278
 20
6.9900532135
 10
2.7476604416
 20
6.9989830568
 10
2.7323632601
 20
7.0043691537
 10
2.7153474523
 20
7.0054840821
 10
2.6989110975
 20
7.0021772646
 10
2.6852740164
 20
6.9948953052
 10
2.6762779724
 20
6.9846216731
 10
2.673137931
 20
6.972743879
  0
LWPOLYLINE
  5
2E3
330
1F
100
AcDbEntity
  8
0
  6
Continuous
 62
     7
370
    25
100
AcDbPolyline
 90
       11
 70
   128
 43
0.0
 10
2.6574877767
 20
6.9660996629
 10
2.6601968988
 20
6.9750869213
 10
2.6690743689
 20
6.9874068541
 10
2.6829013528
 20
6.9971840082
 10
2.7003243689
 20
7.0034613275
 10
2.719637931
 20
7.0056243443
 10
2.7389514932
 20
7.0034613275
 10
2.7563745093
 20
6.9971840082
 10
2.7702014932
 20
6.9874068541
 10
2.7790789633
 20
6.9750869213
 10
2.7817742311
 20
6.9661909593
  0
LWPOLYLINE
  5
2E4
330
1F
100
AcDbEntity
  8
0
  6
Continuous
 62
     7
370
    25
100
AcDbPolyline
 90
       18
 70
   128
 43
0.0
 10
4.397137931
 20
5.9120837072
 10
4.4002779724
 20
5.9002059131
 10
4.4092740164
 20
5.889932281
 10
4.4229110975
 20
5.8826503217
 10
4.4393474523
 20
5.8793435042
 10
4.4563632601
 20
5.8804584325
 10
4.4716604416
 20
5.8858445294
 10
4.4831730278
 20
5.8947743727
 10
4.4893461802
 20
5.9060419376
 10
4.4893461802
 20
5.9181254769
 10
4.4831730278
 20
5.9293930417
 10
4.4716604416
 20
5.938322885
 10
4.4563632601
 20
5.9437089819
 10
4.4393474523
 20
5.9448239103
 10
4.4229110975
 20
5.9415170928
 10
4.4092740164
 20
5.9342351335
 10
4.4002779724
 20
5.9239615013
 10
4.397137931
 20
5.9120837072
  0
LWPOLYLINE
  5
2E5
330
1F
100
AcDbEntity
  8
0
  6
Continuous
 62
     7
370
    25
100
AcDbPolyline
 90
       11
 70
   128
 43
0.0
 10
4.5055581845
 20
5.9173919095
 10
4.5030789633
 20
5.9097406649
 10
4.4942014932
 20
5.8974207321
 10
4.4803745093
 20
5.887643578
 10
4.4629514932
 20
5.8813662587
 10
4.443637931
 20
5.8792032419
 10
4.4243243689
 20
5.8813662587
 10
4.4069013528
 20
5.887643578
 10
4.3930743689
 20
5.8974207321
 10
4.3841968988
 20
5.9097406649
 10
4.3817504266
 20
5.9172254308
  0
LWPOLYLINE
  5
2E6
330
1F
100
AcDbEntity
  8
0
  6
Continuous
 62
     7
370
    25
100
AcDbPolyline
 90
       18
 70
   128
 43
0.0
 10
2.673137931
 20
5.9120837072
 10
2.6762779724
 20
5.9002059131
 10
2.6852740164
 20
5.889932281
 10
2.6989110975
 20
5.8826503217
 10
2.7153474523
 20
5.8793435042
 10
2.7323632601
 20
5.8804584325
 10
2.7476604416
 20
5.8858445294
 10
2.7591730278
 20
5.8947743727
 10
2.7653461802
 20
5.9060419376
 10
2.7653461802
 20
5.9181254769
 10
2.7591730278
 20
5.9293930417
 10
2.7476604416
 20
5.938322885
 10
2.7323632601
 20
5.9437089819
 10
2.7153474523
 20
5.9448239103
 10
2.6989110975
 20
5.9415170928
 10
2.6852740164
 20
5.9342351335
 10
2.6762779724
 20
5.9239615013
 10
2.673137931
 20
5.9120837072
  0
LWPOLYLINE
  5
2E7
330
1F
100
AcDbEntity
  8
0
  6
Continuous
 62
     7
370
    25
100
AcDbPolyline
 90
       11
 70
   128
 43
0.0
 10
2.7815581845
 20
5.9173919095
 10
2.7790789633
 20
5.9097406649
 10
2.7702014932
 20
5.8974207321
 10
2.7563745093
 20
5.887643578
 10
2.7389514932
 20
5.8813662587
 10
2.719637931
 20
5.8792032419
 10
2.7003243689
 20
5.8813662587
 10
2.6829013528
 20
5.887643578
 10
2.6690743689
 20
5.8974207321
 10
2.6601968988
 20
5.9097406649
 10
2.6577504266
 20
5.9172254308
  0
LWPOLYLINE
  5
2E8
330
1F
100
AcDbEntity
  8
0
  6
Continuous
 62
     7
370
    25
100
AcDbPolyline
 90
       18
 70
   128
 43
0.0
 10
4.397137931
 20
6.972743879
 10
4.4002779724
 20
6.9608660849
 10
4.4092740164
 20
6.9505924527
 10
4.4229110975
 20
6.9433104934
 10
4.4393474523
 20
6.9400036759
 10
4.4563632601
 20
6.9411186043
 10
4.4716604416
 20
6.9465047012
 10
4.4831730278
 20
6.9554345445
 10
4.4893461802
 20
6.9667021093
 10
4.4893461802
 20
6.9787856486
 10
4.4831730278
 20
6.9900532135
 10
4.4716604416
 20
6.9989830568
 10
4.4563632601
 20
7.0043691537
 10
4.4393474523
 20
7.0054840821
 10
4.4229110975
 20
7.0021772646
 10
4.4092740164
 20
6.9948953052
 10
4.4002779724
 20
6.9846216731
 10
4.397137931
 20
6.972743879
  0
LWPOLYLINE
  5
2E9
330
1F
100
AcDbEntity
  8
0
  6
Continuous
 62
     7
370
    25
100
AcDbPolyline
 90
       11
 70
   128
 43
0.0
 10
4.3814877767
 20
6.9660996629
 10
4.3841968988
 20
6.9750869213
 10
4.3930743689
 20
6.9874068541
 10
4.4069013528
 20
6.9971840082
 10
4.4243243689
 20
7.0034613275
 10
4.443637931
 20
7.0056243443
 10
4.4629514932
 20
7.0034613275
 10
4.4803745093
 20
6.9971840082
 10
4.4942014932
 20
6.9874068541
 10
4.5030789633
 20
6.9750869213
 10
4.5057742311
 20
6.9661909593
  0
DIMENSION
  5
2EA
330
1F
100
AcDbEntity
  8
DATA
 62
     7
100
AcDbDimension
  2
_D_4
 10
4.563637931
 20
5.4159655172
 30
0.0
 11
3.5617068966
 21
5.4159655172
 31
0.0
 70
   160
  1
<>
 71
     2
 42
-1.0
  3
SLDDIMSTYLE1
100
AcDbAlignedDimension
 13
2.599637931
 23
5.6924137931
 33
0.0
 14
4.563637931
 24
5.6924137931
 34
0.0
100
AcDbRotatedDimension
  0
DIMENSION
  5
2FE
330
1F
100
AcDbEntity
  8
DATA
 62
     7
100
AcDbDimension
  2
_D_5
 10
2.128637931
 20
5.0624925333
 30
0.0
 11
3.5617068966
 21
5.0624925333
 31
0.0
 70
   160
  1
<>
 71
     2
 42
-1.0
  3
SLDDIMSTYLE1
100
AcDbAlignedDimension
 13
5.034637931
 23
6.1394137931
 33
0.0
 14
2.128637931
 24
6.1394137931
 34
0.0
100
AcDbRotatedDimension
  0
DIMENSION
  5
312
330
1F
100
AcDbEntity
  8
DATA
 62
     7
100
AcDbDimension
  2
_D_6
 10
1.503637931
 20
4.6884827586
 30
0.0
 11
3.581637931
 21
4.6884827586
 31
0.0
 70
   160
  1
<>
 71
     2
 42
-1.0
  3
SLDDIMSTYLE1
100
AcDbAlignedDimension
 13
5.659637931
 23
6.1394137931
 33
0.0
 14
1.503637931
 24
6.1394137931
 34
0.0
100
AcDbRotatedDimension
  0
DIMENSION
  5
326
330
1F
100
AcDbEntity
  8
DATA
 62
     7
100
AcDbDimension
  2
_D_7
 10
1.034637931
 20
4.25
 30
0.0
 11
3.581637931
 21
4.25
 31
0.0
 70
   160
  1
<>
 71
     2
 42
-1.0
  3
SLDDIMSTYLE1
100
AcDbAlignedDimension
 13
6.128637931
 23
5.9424137931
 33
0.0
 14
1.034637931
 24
5.9424137931
 34
0.0
100
AcDbRotatedDimension
  0
DIMENSION
  5
33A
330
1F
100
AcDbEntity
  8
DATA
 62
     7
100
AcDbDimension
  2
_D_8
 10
7.2310001358
 20
5.8124137931
 30
0.0
 11
7.2310001358
 21
6.4424137931
 31
0.0
 70
   160
  1
<>
 71
     2
 42
-1.0
  3
SLDDIMSTYLE1
100
AcDbAlignedDimension
 13
3.7946409771
 23
7.0724137931
 33
0.0
 14
3.7946409771
 24
5.8124137931
 34
0.0
 50
90.0
100
AcDbRotatedDimension
  0
DIMENSION
  5
34E
330
1F
100
AcDbEntity
  8
DATA
 62
     7
100
AcDbDimension
  2
_D_9
 10
6.6510172414
 20
5.9424137931
 30
0.0
 11
6.6510172414
 21
6.4424137931
 31
0.0
 70
   160
  1
<>
 71
     2
 42
-1.0
  3
SLDDIMSTYLE2
100
AcDbAlignedDimension
 13
6.128637931
 23
6.9424137931
 33
0.0
 14
6.128637931
 24
5.9424137931
 34
0.0
 50
90.0
100
AcDbRotatedDimension
  0
DIMENSION
  5
362
330
1F
100
AcDbEntity
  8
DATA
 62
     7
100
AcDbDimension
  2
_D_10
 10
3.206637931
 20
7.5087241379
 30
0.0
 11
3.581637931
 21
7.5087241379
 31
0.0
 70
   160
  1
<>
 71
     2
 42
-1.0
  3
SLDDIMSTYLE0
100
AcDbAlignedDimension
 13
3.956637931
 23
6.9679701837
 33
0.0
 14
3.206637931
 24
6.9679701837
 34
0.0
100
AcDbRotatedDimension
  0
DIMENSION
  5
376
330
1F
100
AcDbEntity
  8
DATA
 62
     7
100
AcDbDimension
  2
_D_11
 10
0.7514310345
 20
6.2394137931
 30
0.0
 11
0.7514310345
 21
6.4424137931
 31
0.0
 70
   160
  1
<>
 71
     2
 42
-1.0
  3
SLDDIMSTYLE0
100
AcDbAlignedDimension
 13
1.503637931
 23
6.6454137931
 33
0.0
 14
1.503637931
 24
6.2394137931
 34
0.0
 50
90.0
100
AcDbRotatedDimension
  0
DIMENSION
  5
38A
330
1F
100
AcDbEntity
  8
DATA
 62
     7
100
AcDbDimension
  2
_D_12
 10
1.503637931
 20
6.4424137931
 30
0.0
 11
0.8610517241
 21
7.3094137931
 31
0.0
 70
   164
  1
<>
 71
     1
 42
-1.0
  3
SLDDIMSTYLE3
100
AcDbRadialDimension
 15
1.4242718561
 25
6.6292560425
 35
0.0
 40
0.0
  0
INSERT
  5
3A5
330
1F
100
AcDbEntity
  8
DATA
 62
     7
100
AcDbBlockReference
  2
SW_CENTERMARKSYMBOL_1
 10
5.034637931
 20
6.4424137931
 30
0.0
  0
INSERT
  5
3B1
330
1F
100
AcDbEntity
  8
DATA
 62
     7
100
AcDbBlockReference
  2
SW_CENTERMARKSYMBOL_2
 10
5.659637931
 20
6.4424137931
 30
0.0
  0
INSERT
  5
3BD
330
1F
100
AcDbEntity
  8
DATA
 62
     7
100
AcDbBlockReference
  2
SW_CENTERMARKSYMBOL_3
 10
2.128637931
 20
6.4424137931
 30
0.0
  0
INSERT
  5
3C9
330
1F
100
AcDbEntity
  8
DATA
 62
     7
100
AcDbBlockReference
  2
SW_CENTERMARKSYMBOL_4
 10
1.503637931
 20
6.4424137931
 30
0.0
  0
ENDSEC
  0
SECTION
  2
OBJECTS
  0
DICTIONARY
  5
C
330
0
100
AcDbDictionary
281
     1
  3
ACAD_GROUP
350
D
  3
ACAD_LAYOUT
350
1A
  3
ACAD_MLINESTYLE
350
17
  3
ACAD_PLOTSETTINGS
350
19
  3
ACAD_PLOTSTYLENAME
350
E
  3
ACAD_SCALELIST
350
47
  0
DICTIONARY
  5
D
102
{ACAD_REACTORS
330
C
102
}
330
C
100
AcDbDictionary
281
     1
  0
DICTIONARY
  5
1A
102
{ACAD_REACTORS
330
C
102
}
330
C
100
AcDbDictionary
281
     1
  3
Layout1
350
1E
  3
Layout2
350
26
  3
Model
350
22
  0
DICTIONARY
  5
17
102
{ACAD_REACTORS
330
C
102
}
330
C
100
AcDbDictionary
281
     1
  3
Standard
350
18
  0
DICTIONARY
  5
19
102
{ACAD_REACTORS
330
C
102
}
330
C
100
AcDbDictionary
281
     1
  0
ACDBDICTIONARYWDFLT
  5
E
102
{ACAD_REACTORS
330
C
102
}
330
C
100
AcDbDictionary
281
     1
  3
Normal
350
F
100
AcDbDictionaryWithDefault
340
F
  0
DICTIONARY
  5
47
102
{ACAD_REACTORS
330
C
102
}
330
C
100
AcDbDictionary
281
     1
  3
A0
350
48
  3
A1
350
49
  3
A2
350
4A
  3
A3
350
4B
  3
A4
350
4C
  3
A5
350
4D
  3
A6
350
4E
  3
A7
350
4F
  3
A8
350
50
  3
A9
350
51
  3
B0
350
52
  3
B1
350
53
  3
B2
350
54
  3
B3
350
55
  3
B4
350
56
  3
B5
350
57
  3
B6
350
58
  3
B7
350
59
  3
B8
350
5A
  3
B9
350
5B
  3
C0
350
5C
  3
C1
350
5D
  3
C2
350
5E
  3
C3
350
5F
  3
C4
350
60
  3
C5
350
61
  3
C6
350
62
  3
C7
350
63
  3
C8
350
64
  3
C9
350
65
  3
D0
350
66
  3
D1
350
67
  3
D2
350
68
  0
LAYOUT
  5
1E
102
{ACAD_REACTORS
330
1A
102
}
330
1A
100
AcDbPlotSettings
  1

  2
none_device
  4

  6

 40
0.0
 41
0.0
 42
0.0
 43
0.0
 44
0.0
 45
0.0
 46
0.0
 47
0.0
 48
0.0
 49
0.0
140
0.0
141
0.0
142
1.0
143
1.0
 70
   688
 72
     0
 73
     0
 74
     5
  7

 75
    16
147
1.0
148
0.0
149
0.0
100
AcDbLayout
  1
Layout1
 70
     1
 71
     1
 10
0.0
 20
0.0
 11
12.0
 21
9.0
 12
0.0
 22
0.0
 32
0.0
 14
1.0000000000E+20
 24
1.0000000000E+20
 34
1.0000000000E+20
 15
-1.0000000000E+20
 25
-1.0000000000E+20
 35
-1.0000000000E+20
146
0.0
 13
0.0
 23
0.0
 33
0.0
 16
1.0
 26
0.0
 36
0.0
 17
0.0
 27
1.0
 37
0.0
 76
     0
330
1B
  0
LAYOUT
  5
26
102
{ACAD_REACTORS
330
1A
102
}
330
1A
100
AcDbPlotSettings
  1

  2
none_device
  4

  6

 40
0.0
 41
0.0
 42
0.0
 43
0.0
 44
0.0
 45
0.0
 46
0.0
 47
0.0
 48
0.0
 49
0.0
140
0.0
141
0.0
142
1.0
143
1.0
 70
   688
 72
     0
 73
     0
 74
     5
  7

 75
    16
147
1.0
148
0.0
149
0.0
100
AcDbLayout
  1
Layout2
 70
     1
 71
     2
 10
0.0
 20
0.0
 11
0.0
 21
0.0
 12
0.0
 22
0.0
 32
0.0
 14
0.0
 24
0.0
 34
0.0
 15
0.0
 25
0.0
 35
0.0
146
0.0
 13
0.0
 23
0.0
 33
0.0
 16
1.0
 26
0.0
 36
0.0
 17
0.0
 27
1.0
 37
0.0
 76
     0
330
23
  0
LAYOUT
  5
22
102
{ACAD_REACTORS
330
1A
102
}
330
1A
100
AcDbPlotSettings
  1

  2
none_device
  4
Letter_(8.50_x_11.00_Inches)
  6

 40
6.35
 41
6.35
 42
6.35000508
 43
6.35000508
 44
215.9
 45
279.4
 46
0.0
 47
0.0
 48
0.0
 49
0.0
140
0.0
141
0.0
142
1.0
143
1.0
 70
  1712
 72
     0
 73
     0
 74
     0
  7

 75
     0
147
1.0
148
0.0
149
0.0
100
AcDbLayout
  1
Model
 70
     1
 71
     0
 10
0.0
 20
0.0
 11
11.0
 21
8.5
 12
0.0
 22
0.0
 32
0.0
 14
0.0
 24
0.0
 34
0.0
 15
11.0
 25
8.5
 35
0.0
146
0.0
 13
0.0
 23
0.0
 33
0.0
 16
1.0
 26
0.0
 36
0.0
 17
0.0
 27
1.0
 37
0.0
 76
     0
330
1F
331
29
  0
MLINESTYLE
  5
18
102
{ACAD_REACTORS
330
17
102
}
330
17
100
AcDbMlineStyle
  2
Standard
 70
     0
  3

 62
   256
 51
90.0
 52
90.0
 71
     2
 49
0.5
 62
   256
  6
BYLAYER
 49
-0.5
 62
   256
  6
BYLAYER
  0
ACDBPLACEHOLDER
  5
F
102
{ACAD_REACTORS
330
E
102
}
330
E
  0
SCALE
  5
48
102
{ACAD_REACTORS
330
47
102
}
330
47
100
AcDbScale
 70
     0
300
1:1
140
1.0
141
1.0
290
     1
  0
SCALE
  5
49
102
{ACAD_REACTORS
330
47
102
}
330
47
100
AcDbScale
 70
     0
300
1:2
140
1.0
141
2.0
290
     0
  0
SCALE
  5
4A
102
{ACAD_REACTORS
330
47
102
}
330
47
100
AcDbScale
 70
     0
300
1:4
140
1.0
141
4.0
290
     0
  0
SCALE
  5
4B
102
{ACAD_REACTORS
330
47
102
}
330
47
100
AcDbScale
 70
     0
300
1:5
140
1.0
141
5.0
290
     0
  0
SCALE
  5
4C
102
{ACAD_REACTORS
330
47
102
}
330
47
100
AcDbScale
 70
     0
300
1:8
140
1.0
141
8.0
290
     0
  0
SCALE
  5
4D
102
{ACAD_REACTORS
330
47
102
}
330
47
100
AcDbScale
 70
     0
300
1:10
140
1.0
141
10.0
290
     0
  0
SCALE
  5
4E
102
{ACAD_REACTORS
330
47
102
}
330
47
100
AcDbScale
 70
     0
300
1:16
140
1.0
141
16.0
290
     0
  0
SCALE
  5
4F
102
{ACAD_REACTORS
330
47
102
}
330
47
100
AcDbScale
 70
     0
300
1:20
140
1.0
141
20.0
290
     0
  0
SCALE
  5
50
102
{ACAD_REACTORS
330
47
102
}
330
47
100
AcDbScale
 70
     0
300
1:30
140
1.0
141
30.0
290
     0
  0
SCALE
  5
51
102
{ACAD_REACTORS
330
47
102
}
330
47
100
AcDbScale
 70
     0
300
1:40
140
1.0
141
40.0
290
     0
  0
SCALE
  5
52
102
{ACAD_REACTORS
330
47
102
}
330
47
100
AcDbScale
 70
     0
300
1:50
140
1.0
141
50.0
290
     0
  0
SCALE
  5
53
102
{ACAD_REACTORS
330
47
102
}
330
47
100
AcDbScale
 70
     0
300
1:100
140
1.0
141
100.0
290
     0
  0
SCALE
  5
54
102
{ACAD_REACTORS
330
47
102
}
330
47
100
AcDbScale
 70
     0
300
2:1
140
2.0
141
1.0
290
     0
  0
SCALE
  5
55
102
{ACAD_REACTORS
330
47
102
}
330
47
100
AcDbScale
 70
     0
300
4:1
140
4.0
141
1.0
290
     0
  0
SCALE
  5
56
102
{ACAD_REACTORS
330
47
102
}
330
47
100
AcDbScale
 70
     0
300
8:1
140
8.0
141
1.0
290
     0
  0
SCALE
  5
57
102
{ACAD_REACTORS
330
47
102
}
330
47
100
AcDbScale
 70
     0
300
10:1
140
10.0
141
1.0
290
     0
  0
SCALE
  5
58
102
{ACAD_REACTORS
330
47
102
}
330
47
100
AcDbScale
 70
     0
300
100:1
140
100.0
141
1.0
290
     0
  0
SCALE
  5
59
102
{ACAD_REACTORS
330
47
102
}
330
47
100
AcDbScale
 70
     0
300
1/128" = 1'-0"
140
0.0078125
141
12.0
290
     0
  0
SCALE
  5
5A
102
{ACAD_REACTORS
330
47
102
}
330
47
100
AcDbScale
 70
     0
300
1/64" = 1'-0"
140
0.015625
141
12.0
290
     0
  0
SCALE
  5
5B
102
{ACAD_REACTORS
330
47
102
}
330
47
100
AcDbScale
 70
     0
300
1/32" = 1'-0"
140
0.03125
141
12.0
290
     0
  0
SCALE
  5
5C
102
{ACAD_REACTORS
330
47
102
}
330
47
100
AcDbScale
 70
     0
300
1/16" = 1'-0"
140
0.0625
141
12.0
290
     0
  0
SCALE
  5
5D
102
{ACAD_REACTORS
330
47
102
}
330
47
100
AcDbScale
 70
     0
300
3/32" = 1'-0"
140
0.09375
141
12.0
290
     0
  0
SCALE
  5
5E
102
{ACAD_REACTORS
330
47
102
}
330
47
100
AcDbScale
 70
     0
300
1/8" = 1'-0"
140
0.125
141
12.0
290
     0
  0
SCALE
  5
5F
102
{ACAD_REACTORS
330
47
102
}
330
47
100
AcDbScale
 70
     0
300
3/16" = 1'-0"
140
0.1875
141
12.0
290
     0
  0
SCALE
  5
60
102
{ACAD_REACTORS
330
47
102
}
330
47
100
AcDbScale
 70
     0
300
1/4" = 1'-0"
140
0.25
141
12.0
290
     0
  0
SCALE
  5
61
102
{ACAD_REACTORS
330
47
102
}
330
47
100
AcDbScale
 70
     0
300
3/8" = 1'-0"
140
0.375
141
12.0
290
     0
  0
SCALE
  5
62
102
{ACAD_REACTORS
330
47
102
}
330
47
100
AcDbScale
 70
     0
300
1/2" = 1'-0"
140
0.5
141
12.0
290
     0
  0
SCALE
  5
63
102
{ACAD_REACTORS
330
47
102
}
330
47
100
AcDbScale
 70
     0
300
3/4" = 1'-0"
140
0.75
141
12.0
290
     0
  0
SCALE
  5
64
102
{ACAD_REACTORS
330
47
102
}
330
47
100
AcDbScale
 70
     0
300
1" = 1'-0"
140
1.0
141
12.0
290
     0
  0
SCALE
  5
65
102
{ACAD_REACTORS
330
47
102
}
330
47
100
AcDbScale
 70
     0
300
1-1/2" = 1'-0"
140
1.5
141
12.0
290
     0
  0
SCALE
  5
66
102
{ACAD_REACTORS
330
47
102
}
330
47
100
AcDbScale
 70
     0
300
3" = 1'-0"
140
3.0
141
12.0
290
     0
  0
SCALE
  5
67
102
{ACAD_REACTORS
330
47
102
}
330
47
100
AcDbScale
 70
     0
300
6" = 1'-0"
140
6.0
141
12.0
290
     0
  0
SCALE
  5
68
102
{ACAD_REACTORS
330
47
102
}
330
47
100
AcDbScale
 70
     0
300
1'-0" = 1'-0"
140
12.0
141
12.0
290
     0
  0
ENDSEC
  0
EOF
