  0
SECTION
  2
HEADER
  9
$ACADVER
  1
AC1015
  9
$ACADMAINTVER
 70
     6
  9
$DWGCODEPAGE
  3
ANSI_1252
  9
$INSBASE
 10
0.0
 20
0.0
 30
0.0
  9
$EXTMIN
 10
0.0
 20
0.0
 30
0.0
  9
$EXTMAX
 10
22.0
 20
17.0
 30
0.0
  9
$LIMMIN
 10
0.0
 20
0.0
  9
$LIMMAX
 10
22.0
 20
17.0
  9
$ORTHOMODE
 70
     0
  9
$REGENMODE
 70
     1
  9
$FILLMODE
 70
     1
  9
$QTEXTMODE
 70
     0
  9
$MIRRTEXT
 70
     1
  9
$LTSCALE
 40
2.0
  9
$ATTMODE
 70
     1
  9
$TEXTSIZE
 40
0.25
  9
$TRACEWID
 40
0.05
  9
$TEXTSTYLE
  7
Standard
  9
$CLAYER
  8
0
  9
$CELTYPE
  6
ByLayer
  9
$CECOLOR
 62
   256
  9
$CELTSCALE
 40
1.0
  9
$DISPSILH
 70
     0
  9
$DIMSCALE
 40
1.0
  9
$DIMASZ
 40
0.26
  9
$DIMEXO
 40
0.1
  9
$DIMDLI
 40
0.38
  9
$DIMRND
 40
0.0
  9
$DIMDLE
 40
0.0
  9
$DIMEXE
 40
0.25
  9
$DIMTP
 40
0.0
  9
$DIMTM
 40
0.0
  9
$DIMTXT
 40
0.25
  9
$DIMCEN
 40
0.09
  9
$DIMTSZ
 40
0.0
  9
$DIMTOL
 70
     0
  9
$DIMLIM
 70
     0
  9
$DIMTIH
 70
     1
  9
$DIMTOH
 70
     1
  9
$DIMSE1
 70
     0
  9
$DIMSE2
 70
     0
  9
$DIMTAD
 70
     0
  9
$DIMZIN
 70
     0
  9
$DIMBLK
  1

  9
$DIMASO
 70
     1
  9
$DIMSHO
 70
     1
  9
$DIMPOST
  1

  9
$DIMAPOST
  1

  9
$DIMALT
 70
     0
  9
$DIMALTD
 70
     2
  9
$DIMALTF
 40
25.4
  9
$DIMLFAC
 40
1.0
  9
$DIMTOFL
 70
     0
  9
$DIMTVP
 40
0.0
  9
$DIMTIX
 70
     0
  9
$DIMSOXD
 70
     0
  9
$DIMSAH
 70
     0
  9
$DIMBLK1
  1

  9
$DIMBLK2
  1

  9
$DIMSTYLE
  2
Standard
  9
$DIMCLRD
 70
     0
  9
$DIMCLRE
 70
     0
  9
$DIMCLRT
 70
     0
  9
$DIMTFAC
 40
1.0
  9
$DIMGAP
 40
0.12
  9
$DIMJUST
 70
     0
  9
$DIMSD1
 70
     0
  9
$DIMSD2
 70
     0
  9
$DIMTOLJ
 70
     1
  9
$DIMTZIN
 70
     0
  9
$DIMALTZ
 70
     0
  9
$DIMALTTZ
 70
     0
  9
$DIMUPT
 70
     0
  9
$DIMDEC
 70
     2
  9
$DIMTDEC
 70
     2
  9
$DIMALTU
 70
     2
  9
$DIMALTTD
 70
     2
  9
$DIMTXSTY
  7
Standard
  9
$DIMAUNIT
 70
     0
  9
$DIMADEC
 70
     2
  9
$DIMALTRND
 40
0.0
  9
$DIMAZIN
 70
     0
  9
$DIMDSEP
 70
    46
  9
$DIMATFIT
 70
     3
  9
$DIMFRAC
 70
     0
  9
$DIMLDRBLK
  1

  9
$DIMLUNIT
 70
     2
  9
$DIMLWD
 70
    -2
  9
$DIMLWE
 70
    -2
  9
$DIMTMOVE
 70
     0
  9
$LUNITS
 70
     2
  9
$LUPREC
 70
     2
  9
$SKETCHINC
 40
0.1
  9
$FILLETRAD
 40
0.5
  9
$AUNITS
 70
     0
  9
$AUPREC
 70
     2
  9
$MENU
  1
.
  9
$ELEVATION
 40
0.0
  9
$PELEVATION
 40
0.0
  9
$THICKNESS
 40
0.0
  9
$LIMCHECK
 70
     0
  9
$CHAMFERA
 40
0.0
  9
$CHAMFERB
 40
0.0
  9
$CHAMFERC
 40
0.0
  9
$CHAMFERD
 40
0.0
  9
$SKPOLY
 70
     0
  9
$TDCREATE
 40
2457464.380218646
  9
$TDUCREATE
 40
2457464.546885313
  9
$TDUPDATE
 40
2457464.380221539
  9
$TDUUPDATE
 40
2457464.546888206
  9
$TDINDWG
 40
0.0000000116
  9
$TDUSRTIMER
 40
0.0000000116
  9
$USRTIMER
 70
     1
  9
$ANGBASE
 50
0.0
  9
$ANGDIR
 70
     0
  9
$PDMODE
 70
     0
  9
$PDSIZE
 40
-1.0
  9
$PLINEWID
 40
0.0
  9
$SPLFRAME
 70
     0
  9
$SPLINETYPE
 70
     6
  9
$SPLINESEGS
 70
     8
  9
$HANDSEED
  5
316
  9
$SURFTAB1
 70
     6
  9
$SURFTAB2
 70
     6
  9
$SURFTYPE
 70
     6
  9
$SURFU
 70
     6
  9
$SURFV
 70
     6
  9
$UCSBASE
  2

  9
$UCSNAME
  2

  9
$UCSORG
 10
0.0
 20
0.0
 30
0.0
  9
$UCSXDIR
 10
1.0
 20
0.0
 30
0.0
  9
$UCSYDIR
 10
0.0
 20
1.0
 30
0.0
  9
$UCSORTHOREF
  2

  9
$UCSORTHOVIEW
 70
     0
  9
$UCSORGTOP
 10
0.0
 20
0.0
 30
0.0
  9
$UCSORGBOTTOM
 10
0.0
 20
0.0
 30
0.0
  9
$UCSORGLEFT
 10
0.0
 20
0.0
 30
0.0
  9
$UCSORGRIGHT
 10
0.0
 20
0.0
 30
0.0
  9
$UCSORGFRONT
 10
0.0
 20
0.0
 30
0.0
  9
$UCSORGBACK
 10
0.0
 20
0.0
 30
0.0
  9
$PUCSBASE
  2

  9
$PUCSNAME
  2

  9
$PUCSORG
 10
0.0
 20
0.0
 30
0.0
  9
$PUCSXDIR
 10
1.0
 20
0.0
 30
0.0
  9
$PUCSYDIR
 10
0.0
 20
1.0
 30
0.0
  9
$PUCSORTHOREF
  2

  9
$PUCSORTHOVIEW
 70
     0
  9
$PUCSORGTOP
 10
0.0
 20
0.0
 30
0.0
  9
$PUCSORGBOTTOM
 10
0.0
 20
0.0
 30
0.0
  9
$PUCSORGLEFT
 10
0.0
 20
0.0
 30
0.0
  9
$PUCSORGRIGHT
 10
0.0
 20
0.0
 30
0.0
  9
$PUCSORGFRONT
 10
0.0
 20
0.0
 30
0.0
  9
$PUCSORGBACK
 10
0.0
 20
0.0
 30
0.0
  9
$USERI1
 70
     0
  9
$USERI2
 70
     0
  9
$USERI3
 70
     0
  9
$USERI4
 70
     0
  9
$USERI5
 70
     0
  9
$USERR1
 40
0.0
  9
$USERR2
 40
0.0
  9
$USERR3
 40
0.0
  9
$USERR4
 40
0.0
  9
$USERR5
 40
0.0
  9
$WORLDVIEW
 70
     1
  9
$SHADEDGE
 70
     3
  9
$SHADEDIF
 70
    70
  9
$TILEMODE
 70
     1
  9
$MAXACTVP
 70
    64
  9
$PINSBASE
 10
0.0
 20
0.0
 30
0.0
  9
$PLIMCHECK
 70
     0
  9
$PEXTMIN
 10
1.0000000000E+20
 20
1.0000000000E+20
 30
1.0000000000E+20
  9
$PEXTMAX
 10
-1.0000000000E+20
 20
-1.0000000000E+20
 30
-1.0000000000E+20
  9
$PLIMMIN
 10
0.0
 20
0.0
  9
$PLIMMAX
 10
12.0
 20
9.0
  9
$UNITMODE
 70
     0
  9
$VISRETAIN
 70
     1
  9
$PLINEGEN
 70
     0
  9
$PSLTSCALE
 70
     1
  9
$TREEDEPTH
 70
  3020
  9
$CMLSTYLE
  2
Standard
  9
$CMLJUST
 70
     0
  9
$CMLSCALE
 40
1.0
  9
$PROXYGRAPHICS
 70
     1
  9
$MEASUREMENT
 70
     0
  9
$CELWEIGHT
370
    -1
  9
$ENDCAPS
280
     0
  9
$JOINSTYLE
280
     0
  9
$LWDISPLAY
290
     1
  9
$INSUNITS
 70
     1
  9
$HYPERLINKBASE
  1

  9
$STYLESHEET
  1

  9
$XEDIT
290
     1
  9
$CEPSNTYPE
380
     0
  9
$PSTYLEMODE
290
     1
  9
$FINGERPRINTGUID
  2
{670D38FF-E0C7-493F-AFCE-76DD60D2A735}
  9
$VERSIONGUID
  2
{FAEB1C32-E019-11D5-929B-00C0DF256EC4}
  9
$EXTNAMES
290
     1
  9
$PSVPSCALE
 40
0.0
  9
$OLESTARTUP
290
     0
  0
ENDSEC
  0
SECTION
  2
CLASSES
  0
CLASS
  1
ACDBDICTIONARYWDFLT
  2
AcDbDictionaryWithDefault
  3
ObjectDBX Classes
 90
        0
280
     0
281
     0
  0
CLASS
  1
VISUALSTYLE
  2
AcDbVisualStyle
  3
ObjectDBX Classes
 90
     4095
280
     0
281
     0
  0
CLASS
  1
MATERIAL
  2
AcDbMaterial
  3
ObjectDBX Classes
 90
     1153
280
     0
281
     0
  0
CLASS
  1
SCALE
  2
AcDbScale
  3
ObjectDBX Classes
 90
     1153
280
     0
281
     0
  0
CLASS
  1
TABLESTYLE
  2
AcDbTableStyle
  3
ObjectDBX Classes
 90
     4095
280
     0
281
     0
  0
CLASS
  1
MLEADERSTYLE
  2
AcDbMLeaderStyle
  3
ACDB_MLEADERSTYLE_CLASS
 90
     4095
280
     0
281
     0
  0
CLASS
  1
SUN
  2
AcDbSun
  3
SCENEOE
 90
     1153
280
     0
281
     0
  0
CLASS
  1
ACDBPLACEHOLDER
  2
AcDbPlaceHolder
  3
ObjectDBX Classes
 90
        0
280
     0
281
     0
  0
CLASS
  1
LAYOUT
  2
AcDbLayout
  3
ObjectDBX Classes
 90
        0
280
     0
281
     0
  0
ENDSEC
  0
SECTION
  2
TABLES
  0
TABLE
  2
VPORT
  5
8
330
0
100
AcDbSymbolTable
 70
     1
  0
VPORT
  5
29
330
8
100
AcDbSymbolTableRecord
100
AcDbViewportTableRecord
  2
*Active
 70
     0
 10
0.0
 20
0.0
 11
1.0
 21
1.0
 12
11.0
 22
8.5
 13
0.0
 23
0.0
 14
0.5
 24
0.5
 15
0.5
 25
0.5
 16
0.0
 26
0.0
 36
1.0
 17
0.0
 27
0.0
 37
0.0
 40
17.0
 41
1.2941176471
 42
50.0
 43
0.0
 44
0.0
 50
0.0
 51
0.0
 71
     0
 72
  2000
 73
     1
 74
     3
 75
     0
 76
     0
 77
     0
 78
     0
281
     0
 65
     1
110
0.0
120
0.0
130
0.0
111
1.0
121
0.0
131
0.0
112
0.0
122
1.0
132
0.0
 79
     0
146
0.0
  0
ENDTAB
  0
TABLE
  2
LTYPE
  5
5
330
0
100
AcDbSymbolTable
 70
     6
  0
LTYPE
  5
14
330
5
100
AcDbSymbolTableRecord
100
AcDbLinetypeTableRecord
  2
ByBlock
 70
     0
  3

 72
    65
 73
     0
 40
0.0
  0
LTYPE
  5
15
330
5
100
AcDbSymbolTableRecord
100
AcDbLinetypeTableRecord
  2
ByLayer
 70
     0
  3

 72
    65
 73
     0
 40
0.0
  0
LTYPE
  5
16
330
5
100
AcDbSymbolTableRecord
100
AcDbLinetypeTableRecord
  2
Continuous
 70
     0
  3
Solid line
 72
    65
 73
     0
 40
0.0
  0
LTYPE
  5
6E
330
5
100
AcDbSymbolTableRecord
100
AcDbLinetypeTableRecord
  2
HIDDEN
 70
     0
  3
Hidden __ __ __ __ __ __ __ __ __ __ __ __ __ __
 72
    65
 73
     2
 40
0.075
 49
0.05
 74
     0
 49
-0.025
 74
     0
  0
LTYPE
  5
6F
330
5
100
AcDbSymbolTableRecord
100
AcDbLinetypeTableRecord
  2
PHANTOM
 70
     0
  3
Phantom ______  __  __  ______  __  __  ______
 72
    65
 73
     6
 40
0.5
 49
0.25
 74
     0
 49
-0.05
 74
     0
 49
0.05
 74
     0
 49
-0.05
 74
     0
 49
0.05
 74
     0
 49
-0.05
 74
     0
  0
LTYPE
  5
70
330
5
100
AcDbSymbolTableRecord
100
AcDbLinetypeTableRecord
  2
CENTER
 70
     0
  3
Center ____ _ ____ _ ____ _ ____ _ ____ _ ____
 72
    65
 73
     4
 40
0.4
 49
0.25
 74
     0
 49
-0.05
 74
     0
 49
0.05
 74
     0
 49
-0.05
 74
     0
  0
LTYPE
  5
71
330
5
100
AcDbSymbolTableRecord
100
AcDbLinetypeTableRecord
  2
CENTERX2
 70
     0
  3
Center (2x) ________  __  ________  __  _____
 72
    65
 73
     4
 40
0.8
 49
0.5
 74
     0
 49
-0.1
 74
     0
 49
0.1
 74
     0
 49
-0.1
 74
     0
  0
LTYPE
  5
72
330
5
100
AcDbSymbolTableRecord
100
AcDbLinetypeTableRecord
  2
DOT2
 70
     0
  3
Dot (.5x) ........................................
 72
    65
 73
     2
 40
0.025
 49
0.0
 74
     0
 49
-0.025
 74
     0
  0
ENDTAB
  0
TABLE
  2
LAYER
  5
2
330
0
100
AcDbSymbolTable
 70
     4
  0
LAYER
  5
10
330
2
100
AcDbSymbolTableRecord
100
AcDbLayerTableRecord
  2
0
 70
     0
 62
     7
  6
Continuous
370
    -3
390
F
  0
LAYER
  5
73
330
2
100
AcDbSymbolTableRecord
100
AcDbLayerTableRecord
  2
SLD-0
 70
     0
 62
     7
  6
Continuous
370
    -3
390
F
  0
LAYER
  5
74
330
2
100
AcDbSymbolTableRecord
100
AcDbLayerTableRecord
  2
FORMAT
 70
     0
 62
     7
  6
Continuous
370
    -3
390
F
  0
LAYER
  5
75
330
2
100
AcDbSymbolTableRecord
100
AcDbLayerTableRecord
  2
DATA
 70
     0
 62
     7
  6
Continuous
370
    -3
390
F
  0
ENDTAB
  0
TABLE
  2
STYLE
  5
3
330
0
100
AcDbSymbolTable
 70
     8
  0
STYLE
  5
11
330
3
100
AcDbSymbolTableRecord
100
AcDbTextStyleTableRecord
  2
Standard
 70
     0
 40
0.0
 41
1.0
 50
0.0
 71
     0
 42
0.25
  3
txt
  4

  0
STYLE
  5
7B
330
3
100
AcDbSymbolTableRecord
100
AcDbTextStyleTableRecord
  2
SLDTEXTSTYLE0
 70
     0
 40
0.0
 41
0.605
 50
0.0
 71
     0
 42
0.25
  3
TXT
  4

  0
STYLE
  5
107
330
3
100
AcDbSymbolTableRecord
100
AcDbTextStyleTableRecord
  2
SLDTEXTSTYLE1
 70
     0
 40
0.0
 41
0.6829836364
 50
0.0
 71
     0
 42
0.25
  3
TXT
  4

  0
STYLE
  5
117
330
3
100
AcDbSymbolTableRecord
100
AcDbTextStyleTableRecord
  2
SLDTEXTSTYLE2
 70
     0
 40
0.0
 41
0.5209722222
 50
0.0
 71
     0
 42
0.25
  3
TXT
  4

  0
STYLE
  5
11E
330
3
100
AcDbSymbolTableRecord
100
AcDbTextStyleTableRecord
  2
SLDTEXTSTYLE3
 70
     0
 40
0.0
 41
0.4688749414
 50
0.0
 71
     0
 42
0.25
  3
TXT
  4

  0
STYLE
  5
122
330
3
100
AcDbSymbolTableRecord
100
AcDbTextStyleTableRecord
  2
SLDTEXTSTYLE4
 70
     0
 40
0.0
 41
0.4244391905
 50
0.0
 71
     0
 42
0.25
  3
TXT
  4

  0
STYLE
  5
12E
330
3
100
AcDbSymbolTableRecord
100
AcDbTextStyleTableRecord
  2
SLDTEXTSTYLE5
 70
     0
 40
0.0
 41
0.5964854211
 50
0.0
 71
     0
 42
0.25
  3
TXT
  4

  0
STYLE
  5
133
330
3
100
AcDbSymbolTableRecord
100
AcDbTextStyleTableRecord
  2
SLDTEXTSTYLE6
 70
     0
 40
0.0
 41
0.5675
 50
0.0
 71
     0
 42
0.25
  3
TXT
  4

  0
ENDTAB
  0
TABLE
  2
VIEW
  5
6
330
0
100
AcDbSymbolTable
 70
     0
  0
ENDTAB
  0
TABLE
  2
UCS
  5
7
330
0
100
AcDbSymbolTable
 70
     0
  0
ENDTAB
  0
TABLE
  2
APPID
  5
9
330
0
100
AcDbSymbolTable
 70
     1
  0
APPID
  5
12
330
9
100
AcDbSymbolTableRecord
100
AcDbRegAppTableRecord
  2
ACAD
 70
     0
  0
ENDTAB
  0
TABLE
  2
DIMSTYLE
  5
A
330
0
100
AcDbSymbolTable
 70
     5
100
AcDbDimStyleTable
  0
DIMSTYLE
105
27
330
A
100
AcDbSymbolTableRecord
100
AcDbDimStyleTableRecord
  2
Standard
 70
     0
178
     0
340
11
  0
DIMSTYLE
105
26F
102
{ACAD_REACTORS
330
26E
330
300
330
30B
102
}
330
A
100
AcDbSymbolTableRecord
100
AcDbDimStyleTableRecord
  2
SLDDIMSTYLE0
 70
     0
 41
0.26
 44
0.0
 45
0.000000001
 78
    12
 79
     3
140
0.1415608724
147
0.0353902181
173
     1
178
     0
271
     2
272
     2
276
     2
284
    12
340
7B
  0
DIMSTYLE
105
27B
102
{ACAD_REACTORS
330
27A
102
}
330
A
100
AcDbSymbolTableRecord
100
AcDbDimStyleTableRecord
  2
SLDDIMSTYLE1
 70
     0
 41
0.26
 44
0.0
 45
0.000000001
 47
2.0
 48
2.0
 71
     1
 78
     4
 79
     1
140
0.1415608724
147
0.0353902181
173
     1
178
     0
271
     2
272
     2
276
     2
340
7B
  0
DIMSTYLE
105
288
102
{ACAD_REACTORS
330
287
330
293
102
}
330
A
100
AcDbSymbolTableRecord
100
AcDbDimStyleTableRecord
  2
SLDDIMSTYLE2
 70
     0
 41
0.26
 44
0.0
 45
0.000000001
 78
    12
 79
     3
140
0.1415608724
147
0.0353902181
172
     1
173
     1
178
     0
271
     2
272
     2
276
     2
284
    12
289
     0
340
7B
  0
DIMSTYLE
105
29F
330
A
100
AcDbSymbolTableRecord
100
AcDbDimStyleTableRecord
  2
SLDDIMSTYLE3
 70
     0
 41
0.26
 44
0.0
 45
0.000000001
146
0.26
147
0.0
173
     1
178
     0
271
     0
272
     0
276
     2
340
11
  0
ENDTAB
  0
TABLE
  2
BLOCK_RECORD
  5
1
330
0
100
AcDbSymbolTable
 70
    15
  0
BLOCK_RECORD
  5
1F
330
1
100
AcDbSymbolTableRecord
100
AcDbBlockTableRecord
  2
*Model_Space
340
22
  0
BLOCK_RECORD
  5
1B
330
1
100
AcDbSymbolTableRecord
100
AcDbBlockTableRecord
  2
*Paper_Space
340
1E
  0
BLOCK_RECORD
  5
23
330
1
100
AcDbSymbolTableRecord
100
AcDbBlockTableRecord
  2
*Paper_Space0
340
26
  0
BLOCK_RECORD
  5
76
330
1
100
AcDbSymbolTableRecord
100
AcDbBlockTableRecord
  2
mm DIM NOTE
340
0
102
{BLKREFS
331
106
102
}
  0
BLOCK_RECORD
  5
7D
330
1
100
AcDbSymbolTableRecord
100
AcDbBlockTableRecord
  2
Mersen-Logo
340
0
102
{BLKREFS
331
105
102
}
  0
BLOCK_RECORD
  5
10A
330
1
100
AcDbSymbolTableRecord
100
AcDbBlockTableRecord
  2
SW_NOTE_0
340
0
102
{BLKREFS
331
10F
102
}
  0
BLOCK_RECORD
  5
114
330
1
100
AcDbSymbolTableRecord
100
AcDbBlockTableRecord
  2
SW_NOTE_1
340
0
102
{BLKREFS
331
11A
102
}
  0
BLOCK_RECORD
  5
11B
330
1
100
AcDbSymbolTableRecord
100
AcDbBlockTableRecord
  2
SW_NOTE_2
340
0
102
{BLKREFS
331
121
102
}
  0
BLOCK_RECORD
  5
125
330
1
100
AcDbSymbolTableRecord
100
AcDbBlockTableRecord
  2
SW_NOTE_3
340
0
102
{BLKREFS
331
12A
102
}
  0
BLOCK_RECORD
  5
12B
330
1
100
AcDbSymbolTableRecord
100
AcDbBlockTableRecord
  2
SW_NOTE_4
340
0
102
{BLKREFS
331
132
102
}
  0
BLOCK_RECORD
  5
136
330
1
100
AcDbSymbolTableRecord
100
AcDbBlockTableRecord
  2
SW_TABLEANNOTATION_0
340
0
102
{BLKREFS
331
158
102
}
  0
BLOCK_RECORD
  5
270
330
1
100
AcDbSymbolTableRecord
100
AcDbBlockTableRecord
  2
_D
340
0
  0
BLOCK_RECORD
  5
27C
330
1
100
AcDbSymbolTableRecord
100
AcDbBlockTableRecord
  2
_D_1
340
0
  0
BLOCK_RECORD
  5
289
330
1
100
AcDbSymbolTableRecord
100
AcDbBlockTableRecord
  2
_D_2
340
0
  0
BLOCK_RECORD
  5
294
330
1
100
AcDbSymbolTableRecord
100
AcDbBlockTableRecord
  2
_D_3
340
0
  0
BLOCK_RECORD
  5
301
330
1
100
AcDbSymbolTableRecord
100
AcDbBlockTableRecord
  2
_D_4
340
0
  0
BLOCK_RECORD
  5
30C
330
1
100
AcDbSymbolTableRecord
100
AcDbBlockTableRecord
  2
_D_5
340
0
  0
ENDTAB
  0
ENDSEC
  0
SECTION
  2
BLOCKS
  0
BLOCK
  5
20
330
1F
100
AcDbEntity
  8
0
100
AcDbBlockBegin
  2
*Model_Space
 70
     0
 10
0.0
 20
0.0
 30
0.0
  3
*Model_Space
  1

  0
ENDBLK
  5
21
330
1F
100
AcDbEntity
  8
0
100
AcDbBlockEnd
  0
BLOCK
  5
1C
330
1B
100
AcDbEntity
 67
     1
  8
0
100
AcDbBlockBegin
  2
*Paper_Space
 70
     0
 10
0.0
 20
0.0
 30
0.0
  3
*Paper_Space
  1

  0
ENDBLK
  5
1D
330
1B
100
AcDbEntity
 67
     1
  8
0
100
AcDbBlockEnd
  0
BLOCK
  5
24
330
23
100
AcDbEntity
  8
0
100
AcDbBlockBegin
  2
*Paper_Space0
 70
     0
 10
0.0
 20
0.0
 30
0.0
  3
*Paper_Space0
  1

  0
ENDBLK
  5
25
330
23
100
AcDbEntity
  8
0
100
AcDbBlockEnd
  0
BLOCK
  5
77
330
76
100
AcDbEntity
  8
0
100
AcDbBlockBegin
  2
mm DIM NOTE
 70
     0
 10
0.0
 20
0.0
 30
0.0
  3
mm DIM NOTE
  1

  0
LINE
  5
79
330
76
100
AcDbEntity
  8
SLD-0
 62
     7
370
    15
100
AcDbLine
 10
0.0
 20
0.0
 30
0.0
 11
0.0
 21
0.6
 31
0.0
  0
LINE
  5
7A
330
76
100
AcDbEntity
  8
SLD-0
 62
     7
370
    15
100
AcDbLine
 10
0.0
 20
0.6
 30
0.0
 11
4.699996
 21
0.6
 31
0.0
  0
MTEXT
  5
7C
330
76
100
AcDbEntity
  8
SLD-0
 62
     7
100
AcDbMText
 10
0.0314383667
 20
0.3890981216
 30
0.0
 40
0.1875
 41
0.0
 71
     1
 72
     1
  1
DIMENSIONS IN [   ] ARE MILLIMETERS
  7
SLDTEXTSTYLE0
 73
     1
 44
1.0
  0
ENDBLK
  5
78
330
76
100
AcDbEntity
  8
0
100
AcDbBlockEnd
  0
BLOCK
  5
7E
330
7D
100
AcDbEntity
  8
0
100
AcDbBlockBegin
  2
Mersen-Logo
 70
     0
 10
0.0
 20
0.0
 30
0.0
  3
Mersen-Logo
  1

  0
LINE
  5
80
330
7D
100
AcDbEntity
  8
0
  6
Continuous
 62
     7
370
     0
100
AcDbLine
 10
-1.1328403738
 20
-0.092549703
 30
0.0
 11
-1.1328403738
 21
-0.029412183
 31
0.0
  0
LINE
  5
81
330
7D
100
AcDbEntity
  8
0
  6
Continuous
 62
     7
370
     0
100
AcDbLine
 10
-1.1808140382
 20
0.0185614814
 30
0.0
 11
-1.4598940834
 21
0.0185614814
 31
0.0
  0
LINE
  5
82
330
7D
100
AcDbEntity
  8
0
  6
Continuous
 62
     7
370
     0
100
AcDbLine
 10
-1.4598940834
 20
0.0185614814
 30
0.0
 11
-1.4598940834
 21
0.0181817069
 31
0.0
  0
LINE
  5
83
330
7D
100
AcDbEntity
  8
0
  6
Continuous
 62
     7
370
     0
100
AcDbLine
 10
-1.4598940834
 20
0.0181817069
 30
0.0
 11
-1.4598940834
 21
-0.0428399263
 31
0.0
  0
LINE
  5
84
330
7D
100
AcDbEntity
  8
0
  6
Continuous
 62
     7
370
     0
100
AcDbLine
 10
-1.4598940834
 20
-0.0428399263
 30
0.0
 11
-1.2245559291
 21
-0.0428399263
 31
0.0
  0
LINE
  5
85
330
7D
100
AcDbEntity
  8
0
  6
Continuous
 62
     7
370
     0
100
AcDbLine
 10
-1.2245966192
 20
-0.0791219597
 30
0.0
 11
-1.4598940834
 21
-0.0791219597
 31
0.0
  0
LINE
  5
86
330
7D
100
AcDbEntity
  8
0
  6
Continuous
 62
     7
370
     0
100
AcDbLine
 10
-1.4598940834
 20
-0.0791219597
 30
0.0
 11
-1.4598940834
 21
-0.1768596544
 31
0.0
  0
LINE
  5
87
330
7D
100
AcDbEntity
  8
0
  6
Continuous
 62
     7
370
     0
100
AcDbLine
 10
-1.4598940834
 20
-0.1768596544
 30
0.0
 11
-1.7468680139
 21
-0.1768596544
 31
0.0
  0
LINE
  5
88
330
7D
100
AcDbEntity
  8
0
  6
Continuous
 62
     7
370
     0
100
AcDbLine
 10
-1.7650293757
 20
-0.1586033489
 30
0.0
 11
-1.7650293757
 21
-0.140509804
 31
0.0
  0
LINE
  5
89
330
7D
100
AcDbEntity
  8
0
  6
Continuous
 62
     7
370
     0
100
AcDbLine
 10
-1.7650293757
 20
-0.140509804
 30
0.0
 11
-1.5390499515
 21
-0.140509804
 31
0.0
  0
LINE
  5
8A
330
7D
100
AcDbEntity
  8
0
  6
Continuous
 62
     7
370
     0
100
AcDbLine
 10
-1.4910762871
 20
-0.092549703
 30
0.0
 11
-1.4910762871
 21
-0.0510457693
 31
0.0
  0
LINE
  5
8B
330
7D
100
AcDbEntity
  8
0
  6
Continuous
 62
     7
370
     0
100
AcDbLine
 10
-1.5648881847
 20
0.0185343547
 30
0.0
 11
-1.5649017481
 21
0.0185343547
 31
0.0
  0
LINE
  5
8C
330
7D
100
AcDbEntity
  8
0
  6
Continuous
 62
     7
370
     0
100
AcDbLine
 10
-1.5649017481
 20
0.0185343547
 30
0.0
 11
-1.764785235
 21
0.0185343547
 31
0.0
  0
LINE
  5
8D
330
7D
100
AcDbEntity
  8
0
  6
Continuous
 62
     7
370
     0
100
AcDbLine
 10
-1.764785235
 20
0.0185343547
 30
0.0
 11
-1.7647987983
 21
0.0185343547
 31
0.0
  0
LINE
  5
8E
330
7D
100
AcDbEntity
  8
0
  6
Continuous
 62
     7
370
     0
100
AcDbLine
 10
-1.8386242593
 20
-0.0510457693
 30
0.0
 11
-1.8386378227
 21
-0.0511135862
 31
0.0
  0
LINE
  5
8F
330
7D
100
AcDbEntity
  8
0
  6
Continuous
 62
     7
370
     0
100
AcDbLine
 10
-1.8386378227
 20
-0.0511135862
 30
0.0
 11
-1.8386378227
 21
-0.1685046142
 31
0.0
  0
LINE
  5
90
330
7D
100
AcDbEntity
  8
0
  6
Continuous
 62
     7
370
     0
100
AcDbLine
 10
-1.8386378227
 20
-0.1685046142
 30
0.0
 11
-1.8386242593
 21
-0.1685588677
 31
0.0
  0
LINE
  5
91
330
7D
100
AcDbEntity
  8
0
  6
Continuous
 62
     7
370
     0
100
AcDbLine
 10
-1.7647987983
 20
-0.2381661184
 30
0.0
 11
-1.4598940834
 21
-0.2381661184
 31
0.0
  0
LINE
  5
92
330
7D
100
AcDbEntity
  8
0
  6
Continuous
 62
     7
370
     0
100
AcDbLine
 10
-1.4598940834
 20
-0.2381661184
 30
0.0
 11
-1.3862585096
 21
-0.2381661184
 31
0.0
  0
LINE
  5
93
330
7D
100
AcDbEntity
  8
0
  6
Continuous
 62
     7
370
     0
100
AcDbLine
 10
-1.3862585096
 20
-0.2381661184
 30
0.0
 11
-1.3862585096
 21
-0.140509804
 31
0.0
  0
LINE
  5
94
330
7D
100
AcDbEntity
  8
0
  6
Continuous
 62
     7
370
     0
100
AcDbLine
 10
-1.3862585096
 20
-0.140509804
 30
0.0
 11
-1.2746726071
 21
-0.140509804
 31
0.0
  0
LINE
  5
95
330
7D
100
AcDbEntity
  8
0
  6
Continuous
 62
     7
370
     0
100
AcDbLine
 10
-1.2746726071
 20
-0.140509804
 30
0.0
 11
-1.2110061154
 21
-0.2381661184
 31
0.0
  0
LINE
  5
96
330
7D
100
AcDbEntity
  8
0
  6
Continuous
 62
     7
370
     0
100
AcDbLine
 10
-1.2110061154
 20
-0.2381661184
 30
0.0
 11
-1.1207418415
 21
-0.2381661184
 31
0.0
  0
LINE
  5
97
330
7D
100
AcDbEntity
  8
0
  6
Continuous
 62
     7
370
     0
100
AcDbLine
 10
-1.1207418415
 20
-0.2381661184
 30
0.0
 11
-1.1928447536
 21
-0.140509804
 31
0.0
  0
LINE
  5
98
330
7D
100
AcDbEntity
  8
0
  6
Continuous
 62
     7
370
     0
100
AcDbLine
 10
-1.1928447536
 20
-0.140509804
 30
0.0
 11
-1.1808140382
 21
-0.140509804
 31
0.0
  0
LINE
  5
99
330
7D
100
AcDbEntity
  8
0
  6
Continuous
 62
     7
370
     0
100
AcDbLine
 10
-1.7470036477
 20
-0.0428534896
 30
0.0
 11
-1.5827104621
 21
-0.0428534896
 31
0.0
  0
LINE
  5
9A
330
7D
100
AcDbEntity
  8
0
  6
Continuous
 62
     7
370
     0
100
AcDbLine
 10
-1.5646847341
 20
-0.0609877247
 30
0.0
 11
-1.5646847341
 21
-0.0791219597
 31
0.0
  0
LINE
  5
9B
330
7D
100
AcDbEntity
  8
0
  6
Continuous
 62
     7
370
     0
100
AcDbLine
 10
-1.5646847341
 20
-0.0791219597
 30
0.0
 11
-1.7650293757
 21
-0.0791219597
 31
0.0
  0
LINE
  5
9C
330
7D
100
AcDbEntity
  8
0
  6
Continuous
 62
     7
370
     0
100
AcDbLine
 10
-1.7650293757
 20
-0.0791219597
 30
0.0
 11
-1.7650293757
 21
-0.0609877247
 31
0.0
  0
LINE
  5
9D
330
7D
100
AcDbEntity
  8
0
  6
Continuous
 62
     7
370
     0
100
AcDbLine
 10
-1.0895732012
 20
-0.029412183
 30
0.0
 11
-1.0895732012
 21
-0.092549703
 31
0.0
  0
LINE
  5
9E
330
7D
100
AcDbEntity
  8
0
  6
Continuous
 62
     7
370
     0
100
AcDbLine
 10
-1.0415588466
 20
-0.140509804
 30
0.0
 11
-0.858127736
 21
-0.140509804
 31
0.0
  0
LINE
  5
9F
330
7D
100
AcDbEntity
  8
0
  6
Continuous
 62
     7
370
     0
100
AcDbLine
 10
-0.8582633698
 20
-0.1768596544
 30
0.0
 11
-1.0895732012
 21
-0.1768596544
 31
0.0
  0
LINE
  5
A0
330
7D
100
AcDbEntity
  8
0
  6
Continuous
 62
     7
370
     0
100
AcDbLine
 10
-1.0895732012
 20
-0.1768596544
 30
0.0
 11
-1.0895732012
 21
-0.2381661184
 31
0.0
  0
LINE
  5
A1
330
7D
100
AcDbEntity
  8
0
  6
Continuous
 62
     7
370
     0
100
AcDbLine
 10
-1.0895732012
 20
-0.2381661184
 30
0.0
 11
-0.8145079156
 21
-0.2381661184
 31
0.0
  0
LINE
  5
A2
330
7D
100
AcDbEntity
  8
0
  6
Continuous
 62
     7
370
     0
100
AcDbLine
 10
-0.766493561
 20
-0.1902060174
 30
0.0
 11
-0.766493561
 21
-0.1270956242
 31
0.0
  0
LINE
  5
A3
330
7D
100
AcDbEntity
  8
0
  6
Continuous
 62
     7
370
     0
100
AcDbLine
 10
-0.8142637748
 20
-0.0791219597
 30
0.0
 11
-0.9978033924
 21
-0.0791219597
 31
0.0
  0
LINE
  5
A4
330
7D
100
AcDbEntity
  8
0
  6
Continuous
 62
     7
370
     0
100
AcDbLine
 10
-0.9978576459
 20
-0.0428399263
 30
0.0
 11
-0.766493561
 21
-0.0428399263
 31
0.0
  0
LINE
  5
A5
330
7D
100
AcDbEntity
  8
0
  6
Continuous
 62
     7
370
     0
100
AcDbLine
 10
-0.766493561
 20
-0.0428399263
 30
0.0
 11
-0.766493561
 21
0.0185614814
 31
0.0
  0
LINE
  5
A6
330
7D
100
AcDbEntity
  8
0
  6
Continuous
 62
     7
370
     0
100
AcDbLine
 10
-0.766493561
 20
0.0185614814
 30
0.0
 11
-1.0415588466
 21
0.0185614814
 31
0.0
  0
LINE
  5
A7
330
7D
100
AcDbEntity
  8
0
  6
Continuous
 62
     7
370
     0
100
AcDbLine
 10
-2.0037990644
 20
-0.0131903841
 30
0.0
 11
-2.0929240147
 21
-0.1707018812
 31
0.0
  0
LINE
  5
A8
330
7D
100
AcDbEntity
  8
0
  6
Continuous
 62
     7
370
     0
100
AcDbLine
 10
-2.0929240147
 20
-0.1707018812
 30
0.0
 11
-2.1820354016
 21
-0.0142347642
 31
0.0
  0
LINE
  5
A9
330
7D
100
AcDbEntity
  8
0
  6
Continuous
 62
     7
370
     0
100
AcDbLine
 10
-2.3160144396
 20
-0.0478448124
 30
0.0
 11
-2.3160144396
 21
-0.2377863439
 31
0.0
  0
LINE
  5
AA
330
7D
100
AcDbEntity
  8
0
  6
Continuous
 62
     7
370
     0
100
AcDbLine
 10
-2.3160144396
 20
-0.2377863439
 30
0.0
 11
-2.2424059926
 21
-0.2377863439
 31
0.0
  0
LINE
  5
AB
330
7D
100
AcDbEntity
  8
0
  6
Continuous
 62
     7
370
     0
100
AcDbLine
 10
-2.2424059926
 20
-0.2377863439
 30
0.0
 11
-2.2424059926
 21
-0.0798408187
 31
0.0
  0
LINE
  5
AC
330
7D
100
AcDbEntity
  8
0
  6
Continuous
 62
     7
370
     0
100
AcDbLine
 10
-2.222020237
 20
-0.0747274256
 30
0.0
 11
-2.1297350199
 21
-0.2377863439
 31
0.0
  0
LINE
  5
AD
330
7D
100
AcDbEntity
  8
0
  6
Continuous
 62
     7
370
     0
100
AcDbLine
 10
-2.1297350199
 20
-0.2377863439
 30
0.0
 11
-2.0561265729
 21
-0.2377863439
 31
0.0
  0
LINE
  5
AE
330
7D
100
AcDbEntity
  8
0
  6
Continuous
 62
     7
370
     0
100
AcDbLine
 10
-1.9434420368
 20
-0.0798408187
 30
0.0
 11
-1.9434420368
 21
-0.2377863439
 31
0.0
  0
LINE
  5
AF
330
7D
100
AcDbEntity
  8
0
  6
Continuous
 62
     7
370
     0
100
AcDbLine
 10
-1.9434420368
 20
-0.2377863439
 30
0.0
 11
-1.8698335898
 21
-0.2377863439
 31
0.0
  0
LINE
  5
B0
330
7D
100
AcDbEntity
  8
0
  6
Continuous
 62
     7
370
     0
100
AcDbLine
 10
-1.8698335898
 20
-0.2377863439
 30
0.0
 11
-1.8698335898
 21
-0.0478448124
 31
0.0
  0
LINE
  5
B1
330
7D
100
AcDbEntity
  8
0
  6
Continuous
 62
     7
370
     0
100
AcDbLine
 10
-0.0735948836
 20
0.1280450606
 30
0.0
 11
-0.0735948836
 21
-0.1578437998
 31
0.0
  0
LINE
  5
B2
330
7D
100
AcDbEntity
  8
0
  6
Continuous
 62
     7
370
     0
100
AcDbLine
 10
-0.3566083081
 20
-0.0438164894
 30
0.0
 11
-0.3566083081
 21
-0.1768596544
 31
0.0
  0
LINE
  5
B3
330
7D
100
AcDbEntity
  8
0
  6
Continuous
 62
     7
370
     0
100
AcDbLine
 10
-0.3566083081
 20
-0.1768596544
 30
0.0
 11
-0.6435822386
 21
-0.1768596544
 31
0.0
  0
LINE
  5
B4
330
7D
100
AcDbEntity
  8
0
  6
Continuous
 62
     7
370
     0
100
AcDbLine
 10
-0.6617029103
 20
-0.1586033489
 30
0.0
 11
-0.6617029103
 21
-0.140509804
 31
0.0
  0
LINE
  5
B5
330
7D
100
AcDbEntity
  8
0
  6
Continuous
 62
     7
370
     0
100
AcDbLine
 10
-0.6617029103
 20
-0.140509804
 30
0.0
 11
-0.4357370495
 21
-0.140509804
 31
0.0
  0
LINE
  5
B6
330
7D
100
AcDbEntity
  8
0
  6
Continuous
 62
     7
370
     0
100
AcDbLine
 10
-0.3877498217
 20
-0.092549703
 30
0.0
 11
-0.3877498217
 21
-0.0510457693
 31
0.0
  0
LINE
  5
B7
330
7D
100
AcDbEntity
  8
0
  6
Continuous
 62
     7
370
     0
100
AcDbLine
 10
-0.4615888461
 20
0.0185343547
 30
0.0
 11
-0.6614316428
 21
0.0185343547
 31
0.0
  0
LINE
  5
B8
330
7D
100
AcDbEntity
  8
0
  6
Continuous
 62
     7
370
     0
100
AcDbLine
 10
-0.6614316428
 20
0.0185343547
 30
0.0
 11
-0.6614858963
 21
0.0185343547
 31
0.0
  0
LINE
  5
B9
330
7D
100
AcDbEntity
  8
0
  6
Continuous
 62
     7
370
     0
100
AcDbLine
 10
-0.7353249207
 20
-0.0510457693
 30
0.0
 11
-0.7353249207
 21
-0.0511135862
 31
0.0
  0
LINE
  5
BA
330
7D
100
AcDbEntity
  8
0
  6
Continuous
 62
     7
370
     0
100
AcDbLine
 10
-0.7353249207
 20
-0.0511135862
 30
0.0
 11
-0.7353249207
 21
-0.1685046142
 31
0.0
  0
LINE
  5
BB
330
7D
100
AcDbEntity
  8
0
  6
Continuous
 62
     7
370
     0
100
AcDbLine
 10
-0.7353249207
 20
-0.1685046142
 30
0.0
 11
-0.7353249207
 21
-0.1685588677
 31
0.0
  0
LINE
  5
BC
330
7D
100
AcDbEntity
  8
0
  6
Continuous
 62
     7
370
     0
100
AcDbLine
 10
-0.6614858963
 20
-0.2381661184
 30
0.0
 11
-0.3566083081
 21
-0.2381661184
 31
0.0
  0
LINE
  5
BD
330
7D
100
AcDbEntity
  8
0
  6
Continuous
 62
     7
370
     0
100
AcDbLine
 10
-0.3566083081
 20
-0.2381661184
 30
0.0
 11
-0.3566083081
 21
-0.4378732814
 31
0.0
  0
LINE
  5
BE
330
7D
100
AcDbEntity
  8
0
  6
Continuous
 62
     7
370
     0
100
AcDbLine
 10
-0.3566083081
 20
-0.4378732814
 30
0.0
 11
-0.2829862977
 21
-0.3900759408
 31
0.0
  0
LINE
  5
BF
330
7D
100
AcDbEntity
  8
0
  6
Continuous
 62
     7
370
     0
100
AcDbLine
 10
-0.2829862977
 20
-0.3900759408
 30
0.0
 11
-0.2829862977
 21
-0.0618286541
 31
0.0
  0
LINE
  5
C0
330
7D
100
AcDbEntity
  8
0
  6
Continuous
 62
     7
370
     0
100
AcDbLine
 10
0.0
 20
-0.1758559645
 30
0.0
 11
0.0
 21
0.1758559645
 31
0.0
  0
LINE
  5
C1
330
7D
100
AcDbEntity
  8
0
  6
Continuous
 62
     7
370
     0
100
AcDbLine
 10
0.0
 20
0.1758559645
 30
0.0
 11
-0.0735948836
 21
0.1280450606
 31
0.0
  0
LINE
  5
C2
330
7D
100
AcDbEntity
  8
0
  6
Continuous
 62
     7
370
     0
100
AcDbLine
 10
-0.6436907457
 20
-0.0428534896
 30
0.0
 11
-0.4793839967
 21
-0.0428534896
 31
0.0
  0
LINE
  5
C3
330
7D
100
AcDbEntity
  8
0
  6
Continuous
 62
     7
370
     0
100
AcDbLine
 10
-0.4613447053
 20
-0.0609877247
 30
0.0
 11
-0.4613447053
 21
-0.0791219597
 31
0.0
  0
LINE
  5
C4
330
7D
100
AcDbEntity
  8
0
  6
Continuous
 62
     7
370
     0
100
AcDbLine
 10
-0.4613447053
 20
-0.0791219597
 30
0.0
 11
-0.6617029103
 21
-0.0791219597
 31
0.0
  0
LINE
  5
C5
330
7D
100
AcDbEntity
  8
0
  6
Continuous
 62
     7
370
     0
100
AcDbLine
 10
-0.6617029103
 20
-0.0791219597
 30
0.0
 11
-0.6617029103
 21
-0.0609877247
 31
0.0
  0
SPLINE
  5
C6
330
7D
100
AcDbEntity
  8
0
  6
Continuous
 62
     8
370
     0
100
AcDbSpline
210
0.0
220
0.0
230
1.0
 70
     8
 71
     3
 72
     8
 73
     4
 74
     0
 42
0.000000001
 43
0.00000001
 40
0.0
 40
0.0
 40
0.0
 40
0.0
 40
1.0
 40
1.0
 40
1.0
 40
1.0
 10
-1.180814038229869
 20
-0.1405098040299376
 30
0.0
 10
-1.154324762949163
 20
-0.1405098040299376
 30
0.0
 10
-1.132840373781403
 20
-0.1190118514851766
 30
0.0
 10
-1.132840373781403
 20
-0.0925497029584708
 30
0.0
  0
SPLINE
  5
C7
330
7D
100
AcDbEntity
  8
0
  6
Continuous
 62
     8
370
     0
100
AcDbSpline
210
0.0
220
0.0
230
1.0
 70
     8
 71
     3
 72
     8
 73
     4
 74
     0
 42
0.000000001
 43
0.00000001
 40
2.0
 40
2.0
 40
2.0
 40
2.0
 40
3.0
 40
3.0
 40
3.0
 40
3.0
 10
-1.132840373781403
 20
-0.029412183024173
 30
0.0
 10
-1.132840373781403
 20
-0.0029229077434676
 30
0.0
 10
-1.154324762949163
 20
0.0185614814242936
 30
0.0
 10
-1.180814038229869
 20
0.0185614814242936
 30
0.0
  0
SPLINE
  5
C8
330
7D
100
AcDbEntity
  8
0
  6
Continuous
 62
     8
370
     0
100
AcDbSpline
210
0.0
220
0.0
230
1.0
 70
     8
 71
     3
 72
     8
 73
     4
 74
     0
 42
0.000000001
 43
0.00000001
 40
7.0
 40
7.0
 40
7.0
 40
7.0
 40
8.0
 40
8.0
 40
8.0
 40
8.0
 10
-1.224555929054382
 20
-0.0428399262540236
 30
0.0
 10
-1.214559720205494
 20
-0.0428806163850232
 30
0.0
 10
-1.206421694005584
 20
-0.0509643890769334
 30
0.0
 10
-1.206421694005584
 20
-0.0609877246798218
 30
0.0
  0
SPLINE
  5
C9
330
7D
100
AcDbEntity
  8
0
  6
Continuous
 62
     8
370
     0
100
AcDbSpline
210
0.0
220
0.0
230
1.0
 70
     8
 71
     3
 72
     8
 73
     4
 74
     0
 42
0.000000001
 43
0.00000001
 40
8.0
 40
8.0
 40
8.0
 40
8.0
 40
9.0
 40
9.0
 40
9.0
 40
9.0
 10
-1.206421694005584
 20
-0.0609877246798218
 30
0.0
 10
-1.206421694005584
 20
-0.0710110602827104
 30
0.0
 10
-1.214573283582493
 20
-0.0791219597286202
 30
0.0
 10
-1.224596619185382
 20
-0.0791219597286202
 30
0.0
  0
SPLINE
  5
CA
330
7D
100
AcDbEntity
  8
0
  6
Continuous
 62
     8
370
     0
100
AcDbSpline
210
0.0
220
0.0
230
1.0
 70
     8
 71
     3
 72
     8
 73
     4
 74
     0
 42
0.000000001
 43
0.00000001
 40
12.0
 40
12.0
 40
12.0
 40
12.0
 40
13.0
 40
13.0
 40
13.0
 40
13.0
 10
-1.746868013941574
 20
-0.1768596543895334
 30
0.0
 10
-1.756891349544462
 20
-0.1768596543895334
 30
0.0
 10
-1.765029375744372
 20
-0.168613121173625
 30
0.0
 10
-1.765029375744372
 20
-0.1586033489477364
 30
0.0
  0
SPLINE
  5
CB
330
7D
100
AcDbEntity
  8
0
  6
Continuous
 62
     8
370
     0
100
AcDbSpline
210
0.0
220
0.0
230
1.0
 70
     8
 71
     3
 72
     8
 73
     4
 74
     0
 42
0.000000001
 43
0.00000001
 40
15.0
 40
15.0
 40
15.0
 40
15.0
 40
16.0
 40
16.0
 40
16.0
 40
16.0
 10
-1.539049951549885
 20
-0.1405098040299376
 30
0.0
 10
-1.51256067626918
 20
-0.1405098040299376
 30
0.0
 10
-1.491076287101419
 20
-0.1190118514851766
 30
0.0
 10
-1.491076287101419
 20
-0.0925497029584708
 30
0.0
  0
SPLINE
  5
CC
330
7D
100
AcDbEntity
  8
0
  6
Continuous
 62
     8
370
     0
100
AcDbSpline
210
0.0
220
0.0
230
1.0
 70
     8
 71
     3
 72
     8
 73
     4
 74
     0
 42
0.000000001
 43
0.00000001
 40
17.0
 40
17.0
 40
17.0
 40
17.0
 40
18.0
 40
18.0
 40
18.0
 40
18.0
 10
-1.491076287101419
 20
-0.0510457693389324
 30
0.0
 10
-1.491076287101419
 20
-0.01260715892136
 30
0.0
 10
-1.524116673473051
 20
0.0185343546702939
 30
0.0
 10
-1.564888184734598
 20
0.0185343546702939
 30
0.0
  0
SPLINE
  5
CD
330
7D
100
AcDbEntity
  8
0
  6
Continuous
 62
     8
370
     0
100
AcDbSpline
210
0.0
220
0.0
230
1.0
 70
     8
 71
     3
 72
     8
 73
     4
 74
     0
 42
0.000000001
 43
0.00000001
 40
21.0
 40
21.0
 40
21.0
 40
21.0
 40
22.0
 40
22.0
 40
22.0
 40
22.0
 10
-1.764798798335375
 20
0.0185343546702939
 30
0.0
 10
-1.805570309596921
 20
0.0185343546702939
 30
0.0
 10
-1.838624259345554
 20
-0.01260715892136
 30
0.0
 10
-1.838624259345554
 20
-0.0510457693389324
 30
0.0
  0
SPLINE
  5
CE
330
7D
100
AcDbEntity
  8
0
  6
Continuous
 62
     8
370
     0
100
AcDbSpline
210
0.0
220
0.0
230
1.0
 70
     8
 71
     3
 72
     8
 73
     4
 74
     0
 42
0.000000001
 43
0.00000001
 40
25.0
 40
25.0
 40
25.0
 40
25.0
 40
26.0
 40
26.0
 40
26.0
 40
26.0
 10
-1.838624259345554
 20
-0.1685588676656256
 30
0.0
 10
-1.838624259345554
 20
-0.2070246048371978
 30
0.0
 10
-1.805570309596921
 20
-0.2381661184288516
 30
0.0
 10
-1.764798798335375
 20
-0.2381661184288516
 30
0.0
  0
SPLINE
  5
CF
330
7D
100
AcDbEntity
  8
0
  6
Continuous
 62
     8
370
     0
100
AcDbSpline
210
0.0
220
0.0
230
1.0
 70
     8
 71
     3
 72
     8
 73
     4
 74
     0
 42
0.000000001
 43
0.00000001
 40
0.0
 40
0.0
 40
0.0
 40
0.0
 40
1.0
 40
1.0
 40
1.0
 40
1.0
 10
-1.765029375744372
 20
-0.0609877246798218
 30
0.0
 10
-1.765029375744372
 20
-0.0510050792079328
 30
0.0
 10
-1.756986293183461
 20
-0.0429348698930226
 30
0.0
 10
-1.747003647711572
 20
-0.0428534896310236
 30
0.0
  0
SPLINE
  5
D0
330
7D
100
AcDbEntity
  8
0
  6
Continuous
 62
     8
370
     0
100
AcDbSpline
210
0.0
220
0.0
230
1.0
 70
     8
 71
     3
 72
     8
 73
     4
 74
     0
 42
0.000000001
 43
0.00000001
 40
2.0
 40
2.0
 40
2.0
 40
2.0
 40
3.0
 40
3.0
 40
3.0
 40
3.0
 10
-1.5827104621124
 20
-0.0428534896310236
 30
0.0
 10
-1.572727816640511
 20
-0.0429348698930226
 30
0.0
 10
-1.5646847340796
 20
-0.0510050792079328
 30
0.0
 10
-1.5646847340796
 20
-0.0609877246798218
 30
0.0
  0
SPLINE
  5
D1
330
7D
100
AcDbEntity
  8
0
  6
Continuous
 62
     8
370
     0
100
AcDbSpline
210
0.0
220
0.0
230
1.0
 70
     8
 71
     3
 72
     8
 73
     4
 74
     0
 42
0.000000001
 43
0.00000001
 40
1.0
 40
1.0
 40
1.0
 40
1.0
 40
2.0
 40
2.0
 40
2.0
 40
2.0
 10
-1.089573201151883
 20
-0.0925497029584708
 30
0.0
 10
-1.089573201151883
 20
-0.1190118514851766
 30
0.0
 10
-1.068061685230123
 20
-0.1405098040299376
 30
0.0
 10
-1.041558846572418
 20
-0.1405098040299376
 30
0.0
  0
SPLINE
  5
D2
330
7D
100
AcDbEntity
  8
0
  6
Continuous
 62
     8
370
     0
100
AcDbSpline
210
0.0
220
0.0
230
1.0
 70
     8
 71
     3
 72
     8
 73
     4
 74
     0
 42
0.000000001
 43
0.00000001
 40
3.0
 40
3.0
 40
3.0
 40
3.0
 40
4.0
 40
4.0
 40
4.0
 40
4.0
 10
-0.8581277360264573
 20
-0.1405098040299376
 30
0.0
 10
-0.8481450905545684
 20
-0.1405911842919366
 30
0.0
 10
-0.840169824878657
 20
-0.1486749569838468
 30
0.0
 10
-0.840169824878657
 20
-0.1586033489477364
 30
0.0
  0
SPLINE
  5
D3
330
7D
100
AcDbEntity
  8
0
  6
Continuous
 62
     8
370
     0
100
AcDbSpline
210
0.0
220
0.0
230
1.0
 70
     8
 71
     3
 72
     8
 73
     4
 74
     0
 42
0.000000001
 43
0.00000001
 40
4.0
 40
4.0
 40
4.0
 40
4.0
 40
5.0
 40
5.0
 40
5.0
 40
5.0
 10
-0.840169824878657
 20
-0.1586033489477364
 30
0.0
 10
-0.840169824878657
 20
-0.168613121173625
 30
0.0
 10
-0.8481993440625677
 20
-0.1768596543895334
 30
0.0
 10
-0.8582633697964558
 20
-0.1768596543895334
 30
0.0
  0
SPLINE
  5
D4
330
7D
100
AcDbEntity
  8
0
  6
Continuous
 62
     8
370
     0
100
AcDbSpline
210
0.0
220
0.0
230
1.0
 70
     8
 71
     3
 72
     8
 73
     4
 74
     0
 42
0.000000001
 43
0.00000001
 40
8.0
 40
8.0
 40
8.0
 40
8.0
 40
9.0
 40
9.0
 40
9.0
 40
9.0
 10
-0.8145079155949424
 20
-0.2381661184288516
 30
0.0
 10
-0.7879779501832377
 20
-0.2381661184288516
 30
0.0
 10
-0.766493561015476
 20
-0.2166817292610904
 30
0.0
 10
-0.766493561015476
 20
-0.1902060173573848
 30
0.0
  0
SPLINE
  5
D5
330
7D
100
AcDbEntity
  8
0
  6
Continuous
 62
     8
370
     0
100
AcDbSpline
210
0.0
220
0.0
230
1.0
 70
     8
 71
     3
 72
     8
 73
     4
 74
     0
 42
0.000000001
 43
0.00000001
 40
10.0
 40
10.0
 40
10.0
 40
10.0
 40
11.0
 40
11.0
 40
11.0
 40
11.0
 10
-0.766493561015476
 20
-0.1270956241770868
 30
0.0
 10
-0.766493561015476
 20
-0.1006741657813806
 30
0.0
 10
-0.7878694431672377
 20
-0.0792440301216188
 30
0.0
 10
-0.8142637748089452
 20
-0.0791219597286202
 30
0.0
  0
SPLINE
  5
D6
330
7D
100
AcDbEntity
  8
0
  6
Continuous
 62
     8
370
     0
100
AcDbSpline
210
0.0
220
0.0
230
1.0
 70
     8
 71
     3
 72
     8
 73
     4
 74
     0
 42
0.000000001
 43
0.00000001
 40
12.0
 40
12.0
 40
12.0
 40
12.0
 40
13.0
 40
13.0
 40
13.0
 40
13.0
 10
-0.997803392370904
 20
-0.0791219597286202
 30
0.0
 10
-1.007786037842793
 20
-0.0791219597286202
 30
0.0
 10
-1.015978317550702
 20
-0.0710110602827104
 30
0.0
 10
-1.015978317550702
 20
-0.0609877246798218
 30
0.0
  0
SPLINE
  5
D7
330
7D
100
AcDbEntity
  8
0
  6
Continuous
 62
     8
370
     0
100
AcDbSpline
210
0.0
220
0.0
230
1.0
 70
     8
 71
     3
 72
     8
 73
     4
 74
     0
 42
0.000000001
 43
0.00000001
 40
13.0
 40
13.0
 40
13.0
 40
13.0
 40
14.0
 40
14.0
 40
14.0
 40
14.0
 10
-1.015978317550702
 20
-0.0609877246798218
 30
0.0
 10
-1.015978317550702
 20
-0.0509643890769334
 30
0.0
 10
-1.007840291350792
 20
-0.0428806163850232
 30
0.0
 10
-0.9978576458789036
 20
-0.0428399262540236
 30
0.0
  0
SPLINE
  5
D8
330
7D
100
AcDbEntity
  8
0
  6
Continuous
 62
     8
370
     0
100
AcDbSpline
210
0.0
220
0.0
230
1.0
 70
     8
 71
     3
 72
     8
 73
     4
 74
     0
 42
0.000000001
 43
0.00000001
 40
17.0
 40
17.0
 40
17.0
 40
17.0
 40
18.0
 40
18.0
 40
18.0
 40
18.0
 10
-1.041558846572418
 20
0.0185614814242936
 30
0.0
 10
-1.068061685230123
 20
0.0185614814242936
 30
0.0
 10
-1.089573201151883
 20
-0.0029229077434676
 30
0.0
 10
-1.089573201151883
 20
-0.029412183024173
 30
0.0
  0
SPLINE
  5
D9
330
7D
100
AcDbEntity
  8
0
  6
Continuous
 62
     8
370
     0
100
AcDbSpline
210
0.0
220
0.0
230
1.0
 70
     8
 71
     3
 72
     8
 73
     4
 74
     0
 42
0.000000001
 43
0.00000001
 40
0.0
 40
0.0
 40
0.0
 40
0.0
 40
1.0
 40
1.0
 40
1.0
 40
1.0
 10
-1.941299023234412
 20
0.023647747799237
 30
0.0
 10
-1.968222326579113
 20
0.023647747799237
 30
0.0
 10
-1.991605588526852
 20
0.0087822866074022
 30
0.0
 10
-2.003799064449717
 20
-0.0131903841323534
 30
0.0
  0
SPLINE
  5
DA
330
7D
100
AcDbEntity
  8
0
  6
Continuous
 62
     8
370
     0
100
AcDbSpline
210
0.0
220
0.0
230
1.0
 70
     8
 71
     3
 72
     8
 73
     4
 74
     0
 42
0.000000001
 43
0.00000001
 40
3.0
 40
3.0
 40
3.0
 40
3.0
 40
4.0
 40
4.0
 40
4.0
 40
4.0
 10
-2.182035401604735
 20
-0.0142347641613418
 30
0.0
 10
-2.194256004281599
 20
0.0077379065784138
 30
0.0
 10
-2.217639266229339
 20
0.023647747799237
 30
0.0
 10
-2.244549006197039
 20
0.023647747799237
 30
0.0
  0
SPLINE
  5
DB
330
7D
100
AcDbEntity
  8
0
  6
Continuous
 62
     8
370
     0
100
AcDbSpline
210
0.0
220
0.0
230
1.0
 70
     8
 71
     3
 72
     8
 73
     4
 74
     0
 42
0.000000001
 43
0.00000001
 40
4.0
 40
4.0
 40
4.0
 40
4.0
 40
5.0
 40
5.0
 40
5.0
 40
5.0
 10
-2.244549006197039
 20
0.023647747799237
 30
0.0
 10
-2.284031996643601
 20
0.023647747799237
 30
0.0
 10
-2.316014439609245
 20
-0.0083618219204072
 30
0.0
 10
-2.316014439609245
 20
-0.047844812366968
 30
0.0
  0
SPLINE
  5
DC
330
7D
100
AcDbEntity
  8
0
  6
Continuous
 62
     8
370
     0
100
AcDbSpline
210
0.0
220
0.0
230
1.0
 70
     8
 71
     3
 72
     8
 73
     4
 74
     0
 42
0.000000001
 43
0.00000001
 40
8.0
 40
8.0
 40
8.0
 40
8.0
 40
9.0
 40
9.0
 40
9.0
 40
9.0
 10
-2.242405992631063
 20
-0.0798408187096122
 30
0.0
 10
-2.242405992631063
 20
-0.0738458060756788
 30
0.0
 10
-2.237577430419117
 20
-0.0690172438637326
 30
0.0
 10
-2.231568854408184
 20
-0.0690172438637326
 30
0.0
  0
SPLINE
  5
DD
330
7D
100
AcDbEntity
  8
0
  6
Continuous
 62
     8
370
     0
100
AcDbSpline
210
0.0
220
0.0
230
1.0
 70
     8
 71
     3
 72
     8
 73
     4
 74
     0
 42
0.000000001
 43
0.00000001
 40
9.0
 40
9.0
 40
9.0
 40
9.0
 40
10.0
 40
10.0
 40
10.0
 40
10.0
 10
-2.231568854408184
 20
-0.0690172438637326
 30
0.0
 10
-2.22743202442323
 20
-0.0690172438637326
 30
0.0
 10
-2.22381060276427
 20
-0.0713365813307068
 30
0.0
 10
-2.22202023700029
 20
-0.074727425580669
 30
0.0
  0
SPLINE
  5
DE
330
7D
100
AcDbEntity
  8
0
  6
Continuous
 62
     8
370
     0
100
AcDbSpline
210
0.0
220
0.0
230
1.0
 70
     8
 71
     2
 72
     6
 73
     3
 74
     0
 42
0.000000001
 43
0.00000001
 40
12.0
 40
12.0
 40
12.0
 40
13.0
 40
13.0
 40
13.0
 10
-2.056126572915135
 20
-0.2377863438728558
 30
0.0
 10
-1.963665031907163
 20
-0.0742391440086746
 30
0.0
 10
-1.963271693974167
 20
-0.0736966089286806
 30
0.0
  0
SPLINE
  5
DF
330
7D
100
AcDbEntity
  8
0
  6
Continuous
 62
     8
370
     0
100
AcDbSpline
210
0.0
220
0.0
230
1.0
 70
     8
 71
     3
 72
     8
 73
     4
 74
     0
 42
0.000000001
 43
0.00000001
 40
13.0
 40
13.0
 40
13.0
 40
13.0
 40
14.0
 40
14.0
 40
14.0
 40
14.0
 10
-1.963271693974167
 20
-0.0736966089286806
 30
0.0
 10
-1.96129144093219
 20
-0.0708754265127119
 30
0.0
 10
-1.957995540321226
 20
-0.0690172438637326
 30
0.0
 10
-1.954279175023267
 20
-0.0690172438637326
 30
0.0
  0
SPLINE
  5
E0
330
7D
100
AcDbEntity
  8
0
  6
Continuous
 62
     8
370
     0
100
AcDbSpline
210
0.0
220
0.0
230
1.0
 70
     8
 71
     3
 72
     8
 73
     4
 74
     0
 42
0.000000001
 43
0.00000001
 40
14.0
 40
14.0
 40
14.0
 40
14.0
 40
15.0
 40
15.0
 40
15.0
 40
15.0
 10
-1.954279175023267
 20
-0.0690172438637326
 30
0.0
 10
-1.948297725766334
 20
-0.0690172438637326
 30
0.0
 10
-1.943442036800388
 20
-0.0738458060756788
 30
0.0
 10
-1.943442036800388
 20
-0.0798408187096122
 30
0.0
  0
SPLINE
  5
E1
330
7D
100
AcDbEntity
  8
0
  6
Continuous
 62
     8
370
     0
100
AcDbSpline
210
0.0
220
0.0
230
1.0
 70
     8
 71
     3
 72
     8
 73
     4
 74
     0
 42
0.000000001
 43
0.00000001
 40
18.0
 40
18.0
 40
18.0
 40
18.0
 40
19.0
 40
19.0
 40
19.0
 40
19.0
 10
-1.869833589822207
 20
-0.047844812366968
 30
0.0
 10
-1.869833589822207
 20
-0.0083618219204072
 30
0.0
 10
-1.901829596164851
 20
0.023647747799237
 30
0.0
 10
-1.941299023234412
 20
0.023647747799237
 30
0.0
  0
SPLINE
  5
E2
330
7D
100
AcDbEntity
  8
0
  6
Continuous
 62
     8
370
     0
100
AcDbSpline
210
0.0
220
0.0
230
1.0
 70
     8
 71
     3
 72
     8
 73
     4
 74
     0
 42
0.000000001
 43
0.00000001
 40
1.0
 40
1.0
 40
1.0
 40
1.0
 40
2.0
 40
2.0
 40
2.0
 40
2.0
 10
-0.0735948836011818
 20
-0.1578437998357448
 30
0.0
 10
-0.0735948836011818
 20
-0.1638116857156784
 30
0.0
 10
-0.0784776993211278
 20
-0.1686673746816243
 30
0.0
 10
-0.0844455852010621
 20
-0.1686673746816243
 30
0.0
  0
SPLINE
  5
E3
330
7D
100
AcDbEntity
  8
0
  6
Continuous
 62
     8
370
     0
100
AcDbSpline
210
0.0
220
0.0
230
1.0
 70
     8
 71
     3
 72
     8
 73
     4
 74
     0
 42
0.000000001
 43
0.00000001
 40
2.0
 40
2.0
 40
2.0
 40
2.0
 40
3.0
 40
3.0
 40
3.0
 40
3.0
 10
-0.0844455852010621
 20
-0.1686673746816243
 30
0.0
 10
-0.0874024013870275
 20
-0.1686673746816243
 30
0.0
 10
-0.0900879500329978
 20
-0.1674737975056378
 30
0.0
 10
-0.092041076320976
 20
-0.1655749247256588
 30
0.0
  0
SPLINE
  5
E4
330
7D
100
AcDbEntity
  8
0
  6
Continuous
 62
     8
370
     0
100
AcDbSpline
210
0.0
220
0.0
230
1.0
 70
     8
 71
     3
 72
     8
 73
     4
 74
     0
 42
0.000000001
 43
0.00000001
 40
3.0
 40
3.0
 40
3.0
 40
3.0
 40
4.0
 40
4.0
 40
4.0
 40
4.0
 10
-0.092041076320976
 20
-0.1655749247256588
 30
0.0
 10
-0.0926107381549699
 20
-0.1649510093836657
 30
0.0
 10
-0.23022476119544
 20
0.0019870347304778
 30
0.0
 10
-0.2305231554894361
 20
0.0023803726634734
 30
0.0
  0
SPLINE
  5
E5
330
7D
100
AcDbEntity
  8
0
  6
Continuous
 62
     8
370
     0
100
AcDbSpline
210
0.0
220
0.0
230
1.0
 70
     8
 71
     3
 72
     8
 73
     4
 74
     0
 42
0.000000001
 43
0.00000001
 40
4.0
 40
4.0
 40
4.0
 40
4.0
 40
5.0
 40
5.0
 40
5.0
 40
5.0
 10
-0.2305231554894361
 20
0.0023803726634734
 30
0.0
 10
-0.2436796311792901
 20
0.0178290590663016
 30
0.0
 10
-0.2632922743210718
 20
0.0276489440141924
 30
0.0
 10
-0.2851021845368298
 20
0.0276489440141924
 30
0.0
  0
SPLINE
  5
E6
330
7D
100
AcDbEntity
  8
0
  6
Continuous
 62
     8
370
     0
100
AcDbSpline
210
0.0
220
0.0
230
1.0
 70
     8
 71
     3
 72
     8
 73
     4
 74
     0
 42
0.000000001
 43
0.00000001
 40
5.0
 40
5.0
 40
5.0
 40
5.0
 40
6.0
 40
6.0
 40
6.0
 40
6.0
 10
-0.2851021845368298
 20
0.0276489440141924
 30
0.0
 10
-0.3245987383603895
 20
0.0276489440141924
 30
0.0
 10
-0.356608308080034
 20
-0.0043334989514518
 30
0.0
 10
-0.356608308080034
 20
-0.0438164893980128
 30
0.0
  0
SPLINE
  5
E7
330
7D
100
AcDbEntity
  8
0
  6
Continuous
 62
     8
370
     0
100
AcDbSpline
210
0.0
220
0.0
230
1.0
 70
     8
 71
     3
 72
     8
 73
     4
 74
     0
 42
0.000000001
 43
0.00000001
 40
8.0
 40
8.0
 40
8.0
 40
8.0
 40
9.0
 40
9.0
 40
9.0
 40
9.0
 10
-0.6435822386428437
 20
-0.1768596543895334
 30
0.0
 10
-0.653592010868732
 20
-0.1768596543895334
 30
0.0
 10
-0.661702910314642
 20
-0.168613121173625
 30
0.0
 10
-0.661702910314642
 20
-0.1586033489477364
 30
0.0
  0
SPLINE
  5
E8
330
7D
100
AcDbEntity
  8
0
  6
Continuous
 62
     8
370
     0
100
AcDbSpline
210
0.0
220
0.0
230
1.0
 70
     8
 71
     3
 72
     8
 73
     4
 74
     0
 42
0.000000001
 43
0.00000001
 40
11.0
 40
11.0
 40
11.0
 40
11.0
 40
12.0
 40
12.0
 40
12.0
 40
12.0
 10
-0.435737049497154
 20
-0.1405098040299376
 30
0.0
 10
-0.4092613375934499
 20
-0.1405098040299376
 30
0.0
 10
-0.3877498216716879
 20
-0.1190118514851766
 30
0.0
 10
-0.3877498216716879
 20
-0.0925497029584708
 30
0.0
  0
SPLINE
  5
E9
330
7D
100
AcDbEntity
  8
0
  6
Continuous
 62
     8
370
     0
100
AcDbSpline
210
0.0
220
0.0
230
1.0
 70
     8
 71
     3
 72
     8
 73
     4
 74
     0
 42
0.000000001
 43
0.00000001
 40
13.0
 40
13.0
 40
13.0
 40
13.0
 40
14.0
 40
14.0
 40
14.0
 40
14.0
 10
-0.3877498216716879
 20
-0.0510457693389324
 30
0.0
 10
-0.3877498216716879
 20
-0.01260715892136
 30
0.0
 10
-0.4207902080433197
 20
0.0185343546702939
 30
0.0
 10
-0.4615888460588679
 20
0.0185343546702939
 30
0.0
  0
SPLINE
  5
EA
330
7D
100
AcDbEntity
  8
0
  6
Continuous
 62
     8
370
     0
100
AcDbSpline
210
0.0
220
0.0
230
1.0
 70
     8
 71
     3
 72
     8
 73
     4
 74
     0
 42
0.000000001
 43
0.00000001
 40
17.0
 40
17.0
 40
17.0
 40
17.0
 40
18.0
 40
18.0
 40
18.0
 40
18.0
 10
-0.661485896282644
 20
0.0185343546702939
 30
0.0
 10
-0.7022302807901918
 20
0.0185343546702939
 30
0.0
 10
-0.7353249206698239
 20
-0.01260715892136
 30
0.0
 10
-0.7353249206698239
 20
-0.0510457693389324
 30
0.0
  0
SPLINE
  5
EB
330
7D
100
AcDbEntity
  8
0
  6
Continuous
 62
     8
370
     0
100
AcDbSpline
210
0.0
220
0.0
230
1.0
 70
     8
 71
     3
 72
     8
 73
     4
 74
     0
 42
0.000000001
 43
0.00000001
 40
21.0
 40
21.0
 40
21.0
 40
21.0
 40
22.0
 40
22.0
 40
22.0
 40
22.0
 10
-0.7353249206698239
 20
-0.1685588676656256
 30
0.0
 10
-0.7353249206698239
 20
-0.2070246048371978
 30
0.0
 10
-0.7022302807901918
 20
-0.2381661184288516
 30
0.0
 10
-0.661485896282644
 20
-0.2381661184288516
 30
0.0
  0
SPLINE
  5
EC
330
7D
100
AcDbEntity
  8
0
  6
Continuous
 62
     8
370
     0
100
AcDbSpline
210
0.0
220
0.0
230
1.0
 70
     8
 71
     3
 72
     8
 73
     4
 74
     0
 42
0.000000001
 43
0.00000001
 40
26.0
 40
26.0
 40
26.0
 40
26.0
 40
27.0
 40
27.0
 40
27.0
 40
27.0
 10
-0.282986297724854
 20
-0.0618286540538126
 30
0.0
 10
-0.282986297724854
 20
-0.0558607681738788
 30
0.0
 10
-0.2781306087589078
 20
-0.0509779524539332
 30
0.0
 10
-0.2721627228789741
 20
-0.0509779524539332
 30
0.0
  0
SPLINE
  5
ED
330
7D
100
AcDbEntity
  8
0
  6
Continuous
 62
     8
370
     0
100
AcDbSpline
210
0.0
220
0.0
230
1.0
 70
     8
 71
     3
 72
     8
 73
     4
 74
     0
 42
0.000000001
 43
0.00000001
 40
27.0
 40
27.0
 40
27.0
 40
27.0
 40
28.0
 40
28.0
 40
28.0
 40
28.0
 10
-0.2721627228789741
 20
-0.0509779524539332
 30
0.0
 10
-0.269016019415008
 20
-0.0509779524539332
 30
0.0
 10
-0.26624909050704
 20
-0.0522936000229186
 30
0.0
 10
-0.264268837465062
 20
-0.0543552333268956
 30
0.0
  0
SPLINE
  5
EE
330
7D
100
AcDbEntity
  8
0
  6
Continuous
 62
     8
370
     0
100
AcDbSpline
210
0.0
220
0.0
230
1.0
 70
     8
 71
     2
 72
     6
 73
     3
 74
     0
 42
0.000000001
 43
0.00000001
 40
28.0
 40
28.0
 40
28.0
 40
29.0
 40
29.0
 40
29.0
 10
-0.264268837465062
 20
-0.0543552333268956
 30
0.0
 10
-0.263834809401066
 20
-0.0548163881448906
 30
0.0
 10
-0.1263292933765955
 20
-0.2216187984890356
 30
0.0
  0
SPLINE
  5
EF
330
7D
100
AcDbEntity
  8
0
  6
Continuous
 62
     8
370
     0
100
AcDbSpline
210
0.0
220
0.0
230
1.0
 70
     8
 71
     3
 72
     8
 73
     4
 74
     0
 42
0.000000001
 43
0.00000001
 40
29.0
 40
29.0
 40
29.0
 40
29.0
 40
30.0
 40
30.0
 40
30.0
 40
30.0
 10
-0.1263292933765955
 20
-0.2216187984890356
 30
0.0
 10
-0.1132270711947421
 20
-0.2373523158088606
 30
0.0
 10
-0.0935330477909599
 20
-0.2473349612807496
 30
0.0
 10
-0.0715061235432058
 20
-0.2473349612807496
 30
0.0
  0
SPLINE
  5
F0
330
7D
100
AcDbEntity
  8
0
  6
Continuous
 62
     8
370
     0
100
AcDbSpline
210
0.0
220
0.0
230
1.0
 70
     8
 71
     3
 72
     8
 73
     4
 74
     0
 42
0.000000001
 43
0.00000001
 40
30.0
 40
30.0
 40
30.0
 40
30.0
 40
31.0
 40
31.0
 40
31.0
 40
31.0
 10
-0.0715061235432058
 20
-0.2473349612807496
 30
0.0
 10
-0.0320366964736437
 20
-0.2473349612807496
 30
0.0
 10
0.0
 20
-0.2152711380531062
 30
0.0
 10
0.0
 20
-0.1758559644915444
 30
0.0
  0
SPLINE
  5
F1
330
7D
100
AcDbEntity
  8
0
  6
Continuous
 62
     8
370
     0
100
AcDbSpline
210
0.0
220
0.0
230
1.0
 70
     8
 71
     3
 72
     8
 73
     4
 74
     0
 42
0.000000001
 43
0.00000001
 40
0.0
 40
0.0
 40
0.0
 40
0.0
 40
1.0
 40
1.0
 40
1.0
 40
1.0
 10
-0.661702910314642
 20
-0.0609877246798218
 30
0.0
 10
-0.661702910314642
 20
-0.0510050792079328
 30
0.0
 10
-0.6536733911307319
 20
-0.0429348698930226
 30
0.0
 10
-0.6436907456588418
 20
-0.0428534896310236
 30
0.0
  0
SPLINE
  5
F2
330
7D
100
AcDbEntity
  8
0
  6
Continuous
 62
     8
370
     0
100
AcDbSpline
210
0.0
220
0.0
230
1.0
 70
     8
 71
     3
 72
     8
 73
     4
 74
     0
 42
0.000000001
 43
0.00000001
 40
2.0
 40
2.0
 40
2.0
 40
2.0
 40
3.0
 40
3.0
 40
3.0
 40
3.0
 10
-0.4793839966826698
 20
-0.0428534896310236
 30
0.0
 10
-0.4693742244567797
 20
-0.0429348698930226
 30
0.0
 10
-0.46134470527287
 20
-0.0510050792079328
 30
0.0
 10
-0.46134470527287
 20
-0.0609877246798218
 30
0.0
  0
HATCH
  5
F3
330
7D
100
AcDbEntity
  8
0
  6
Continuous
 62
     7
100
AcDbHatch
 10
0.0
 20
0.0
 30
0.0
210
0.0
220
0.0
230
1.0
  2
SOLID
 70
     1
 71
     0
 91
        1
 92
        0
 93
       19
 72
     1
 10
-1.943442036800388
 20
-0.2377863438728558
 11
-1.869833589822207
 21
-0.2377863438728558
 72
     1
 10
-1.869833589822207
 20
-0.2377863438728558
 11
-1.869833589822207
 21
-0.047844812366968
 72
     4
 94
        3
 73
     1
 74
     0
 95
        8
 96
        4
 40
18.0
 40
18.0
 40
18.0
 40
18.0
 40
19.0
 40
19.0
 40
19.0
 40
19.0
 10
-1.869833589822207
 20
-0.047844812366968
 42
1.0
 10
-1.869833589822207
 20
-0.0083618219204072
 42
1.0
 10
-1.901829596164851
 20
0.023647747799237
 42
1.0
 10
-1.941299023234412
 20
0.023647747799237
 42
1.0
 72
     4
 94
        3
 73
     1
 74
     0
 95
        8
 96
        4
 40
0.0
 40
0.0
 40
0.0
 40
0.0
 40
1.0
 40
1.0
 40
1.0
 40
1.0
 10
-1.941299023234412
 20
0.023647747799237
 42
1.0
 10
-1.968222326579113
 20
0.023647747799237
 42
1.0
 10
-1.991605588526852
 20
0.0087822866074022
 42
1.0
 10
-2.003799064449717
 20
-0.0131903841323534
 42
1.0
 72
     1
 10
-2.003799064449717
 20
-0.0131903841323534
 11
-2.092924014715726
 21
-0.1707018812316018
 72
     1
 10
-2.092924014715726
 20
-0.1707018812316018
 11
-2.182035401604735
 21
-0.0142347641613418
 72
     4
 94
        3
 73
     1
 74
     0
 95
        8
 96
        4
 40
3.0
 40
3.0
 40
3.0
 40
3.0
 40
4.0
 40
4.0
 40
4.0
 40
4.0
 10
-2.182035401604735
 20
-0.0142347641613418
 42
1.0
 10
-2.194256004281599
 20
0.0077379065784138
 42
1.0
 10
-2.217639266229339
 20
0.023647747799237
 42
1.0
 10
-2.244549006197039
 20
0.023647747799237
 42
1.0
 72
     4
 94
        3
 73
     1
 74
     0
 95
        8
 96
        4
 40
4.0
 40
4.0
 40
4.0
 40
4.0
 40
5.0
 40
5.0
 40
5.0
 40
5.0
 10
-2.244549006197039
 20
0.023647747799237
 42
1.0
 10
-2.284031996643601
 20
0.023647747799237
 42
1.0
 10
-2.316014439609245
 20
-0.0083618219204072
 42
1.0
 10
-2.316014439609245
 20
-0.047844812366968
 42
1.0
 72
     1
 10
-2.316014439609245
 20
-0.047844812366968
 11
-2.316014439609245
 21
-0.2377863438728558
 72
     1
 10
-2.316014439609245
 20
-0.2377863438728558
 11
-2.242405992631063
 21
-0.2377863438728558
 72
     1
 10
-2.242405992631063
 20
-0.2377863438728558
 11
-2.242405992631063
 21
-0.0798408187096122
 72
     4
 94
        3
 73
     1
 74
     0
 95
        8
 96
        4
 40
8.0
 40
8.0
 40
8.0
 40
8.0
 40
9.0
 40
9.0
 40
9.0
 40
9.0
 10
-2.242405992631063
 20
-0.0798408187096122
 42
1.0
 10
-2.242405992631063
 20
-0.0738458060756788
 42
1.0
 10
-2.237577430419117
 20
-0.0690172438637326
 42
1.0
 10
-2.231568854408184
 20
-0.0690172438637326
 42
1.0
 72
     4
 94
        3
 73
     1
 74
     0
 95
        8
 96
        4
 40
9.0
 40
9.0
 40
9.0
 40
9.0
 40
10.0
 40
10.0
 40
10.0
 40
10.0
 10
-2.231568854408184
 20
-0.0690172438637326
 42
1.0
 10
-2.22743202442323
 20
-0.0690172438637326
 42
1.0
 10
-2.22381060276427
 20
-0.0713365813307068
 42
1.0
 10
-2.22202023700029
 20
-0.074727425580669
 42
1.0
 72
     1
 10
-2.22202023700029
 20
-0.074727425580669
 11
-2.129735019893316
 21
-0.2377863438728558
 72
     1
 10
-2.129735019893316
 20
-0.2377863438728558
 11
-2.056126572915135
 21
-0.2377863438728558
 72
     4
 94
        2
 73
     1
 74
     0
 95
        6
 96
        3
 40
12.0
 40
12.0
 40
12.0
 40
13.0
 40
13.0
 40
13.0
 10
-2.056126572915135
 20
-0.2377863438728558
 42
1.0
 10
-1.963665031907163
 20
-0.0742391440086746
 42
1.0
 10
-1.963271693974167
 20
-0.0736966089286806
 42
1.0
 72
     4
 94
        3
 73
     1
 74
     0
 95
        8
 96
        4
 40
13.0
 40
13.0
 40
13.0
 40
13.0
 40
14.0
 40
14.0
 40
14.0
 40
14.0
 10
-1.963271693974167
 20
-0.0736966089286806
 42
1.0
 10
-1.96129144093219
 20
-0.0708754265127119
 42
1.0
 10
-1.957995540321226
 20
-0.0690172438637326
 42
1.0
 10
-1.954279175023267
 20
-0.0690172438637326
 42
1.0
 72
     4
 94
        3
 73
     1
 74
     0
 95
        8
 96
        4
 40
14.0
 40
14.0
 40
14.0
 40
14.0
 40
15.0
 40
15.0
 40
15.0
 40
15.0
 10
-1.954279175023267
 20
-0.0690172438637326
 42
1.0
 10
-1.948297725766334
 20
-0.0690172438637326
 42
1.0
 10
-1.943442036800388
 20
-0.0738458060756788
 42
1.0
 10
-1.943442036800388
 20
-0.0798408187096122
 42
1.0
 72
     1
 10
-1.943442036800388
 20
-0.0798408187096122
 11
-1.943442036800388
 21
-0.2377863438728558
 97
        0
 75
     0
 76
     1
 98
        1
 10
0.0
 20
0.0
  0
HATCH
  5
F4
330
7D
100
AcDbEntity
  8
0
  6
Continuous
 62
     7
100
AcDbHatch
 10
0.0
 20
0.0
 30
0.0
210
0.0
220
0.0
230
1.0
  2
SOLID
 70
     1
 71
     0
 91
        2
 92
        0
 93
       34
 72
     4
 94
        3
 73
     1
 74
     0
 95
        8
 96
        4
 40
8.0
 40
8.0
 40
8.0
 40
8.0
 40
9.0
 40
9.0
 40
9.0
 40
9.0
 10
-1.206421694005584
 20
-0.0609877246798218
 42
1.0
 10
-1.206421694005584
 20
-0.0710110602827104
 42
1.0
 10
-1.214573283582493
 20
-0.0791219597286202
 42
1.0
 10
-1.224596619185382
 20
-0.0791219597286202
 42
1.0
 72
     1
 10
-1.224596619185382
 20
-0.0791219597286202
 11
-1.459894083378765
 21
-0.0791219597286202
 72
     1
 10
-1.459894083378765
 20
-0.0791219597286202
 11
-1.459894083378765
 21
-0.1768596543895334
 72
     1
 10
-1.459894083378765
 20
-0.1768596543895334
 11
-1.746868013941574
 21
-0.1768596543895334
 72
     4
 94
        3
 73
     1
 74
     0
 95
        8
 96
        4
 40
12.0
 40
12.0
 40
12.0
 40
12.0
 40
13.0
 40
13.0
 40
13.0
 40
13.0
 10
-1.746868013941574
 20
-0.1768596543895334
 42
1.0
 10
-1.756891349544462
 20
-0.1768596543895334
 42
1.0
 10
-1.765029375744372
 20
-0.168613121173625
 42
1.0
 10
-1.765029375744372
 20
-0.1586033489477364
 42
1.0
 72
     1
 10
-1.765029375744372
 20
-0.1586033489477364
 11
-1.765029375744372
 21
-0.1405098040299376
 72
     1
 10
-1.765029375744372
 20
-0.1405098040299376
 11
-1.539049951549885
 21
-0.1405098040299376
 72
     4
 94
        3
 73
     1
 74
     0
 95
        8
 96
        4
 40
15.0
 40
15.0
 40
15.0
 40
15.0
 40
16.0
 40
16.0
 40
16.0
 40
16.0
 10
-1.539049951549885
 20
-0.1405098040299376
 42
1.0
 10
-1.51256067626918
 20
-0.1405098040299376
 42
1.0
 10
-1.491076287101419
 20
-0.1190118514851766
 42
1.0
 10
-1.491076287101419
 20
-0.0925497029584708
 42
1.0
 72
     1
 10
-1.491076287101419
 20
-0.0925497029584708
 11
-1.491076287101419
 21
-0.0510457693389324
 72
     4
 94
        3
 73
     1
 74
     0
 95
        8
 96
        4
 40
17.0
 40
17.0
 40
17.0
 40
17.0
 40
18.0
 40
18.0
 40
18.0
 40
18.0
 10
-1.491076287101419
 20
-0.0510457693389324
 42
1.0
 10
-1.491076287101419
 20
-0.01260715892136
 42
1.0
 10
-1.524116673473051
 20
0.0185343546702939
 42
1.0
 10
-1.564888184734598
 20
0.0185343546702939
 42
1.0
 72
     1
 10
-1.564888184734598
 20
0.0185343546702939
 11
-1.564901748111597
 21
0.0185343546702939
 72
     1
 10
-1.564901748111597
 20
0.0185343546702939
 11
-1.764785234958375
 21
0.0185343546702939
 72
     1
 10
-1.764785234958375
 20
0.0185343546702939
 11
-1.764798798335375
 21
0.0185343546702939
 72
     4
 94
        3
 73
     1
 74
     0
 95
        8
 96
        4
 40
21.0
 40
21.0
 40
21.0
 40
21.0
 40
22.0
 40
22.0
 40
22.0
 40
22.0
 10
-1.764798798335375
 20
0.0185343546702939
 42
1.0
 10
-1.805570309596921
 20
0.0185343546702939
 42
1.0
 10
-1.838624259345554
 20
-0.01260715892136
 42
1.0
 10
-1.838624259345554
 20
-0.0510457693389324
 42
1.0
 72
     1
 10
-1.838624259345554
 20
-0.0510457693389324
 11
-1.838637822722553
 21
-0.0511135862239316
 72
     1
 10
-1.838637822722553
 20
-0.0511135862239316
 11
-1.838637822722553
 21
-0.1685046141576262
 72
     1
 10
-1.838637822722553
 20
-0.1685046141576262
 11
-1.838624259345554
 21
-0.1685588676656256
 72
     4
 94
        3
 73
     1
 74
     0
 95
        8
 96
        4
 40
25.0
 40
25.0
 40
25.0
 40
25.0
 40
26.0
 40
26.0
 40
26.0
 40
26.0
 10
-1.838624259345554
 20
-0.1685588676656256
 42
1.0
 10
-1.838624259345554
 20
-0.2070246048371978
 42
1.0
 10
-1.805570309596921
 20
-0.2381661184288516
 42
1.0
 10
-1.764798798335375
 20
-0.2381661184288516
 42
1.0
 72
     1
 10
-1.764798798335375
 20
-0.2381661184288516
 11
-1.459894083378765
 21
-0.2381661184288516
 72
     1
 10
-1.459894083378765
 20
-0.2381661184288516
 11
-1.386258509646584
 21
-0.2381661184288516
 72
     1
 10
-1.386258509646584
 20
-0.2381661184288516
 11
-1.386258509646584
 21
-0.1405098040299376
 72
     1
 10
-1.386258509646584
 20
-0.1405098040299376
 11
-1.274672607068825
 21
-0.1405098040299376
 72
     1
 10
-1.274672607068825
 20
-0.1405098040299376
 11
-1.211006115431533
 21
-0.2381661184288516
 72
     1
 10
-1.211006115431533
 20
-0.2381661184288516
 11
-1.120741841497537
 21
-0.2381661184288516
 72
     1
 10
-1.120741841497537
 20
-0.2381661184288516
 11
-1.192844753628735
 21
-0.1405098040299376
 72
     1
 10
-1.192844753628735
 20
-0.1405098040299376
 11
-1.180814038229869
 21
-0.1405098040299376
 72
     4
 94
        3
 73
     1
 74
     0
 95
        8
 96
        4
 40
0.0
 40
0.0
 40
0.0
 40
0.0
 40
1.0
 40
1.0
 40
1.0
 40
1.0
 10
-1.180814038229869
 20
-0.1405098040299376
 42
1.0
 10
-1.154324762949163
 20
-0.1405098040299376
 42
1.0
 10
-1.132840373781403
 20
-0.1190118514851766
 42
1.0
 10
-1.132840373781403
 20
-0.0925497029584708
 42
1.0
 72
     1
 10
-1.132840373781403
 20
-0.0925497029584708
 11
-1.132840373781403
 21
-0.029412183024173
 72
     4
 94
        3
 73
     1
 74
     0
 95
        8
 96
        4
 40
2.0
 40
2.0
 40
2.0
 40
2.0
 40
3.0
 40
3.0
 40
3.0
 40
3.0
 10
-1.132840373781403
 20
-0.029412183024173
 42
1.0
 10
-1.132840373781403
 20
-0.0029229077434676
 42
1.0
 10
-1.154324762949163
 20
0.0185614814242936
 42
1.0
 10
-1.180814038229869
 20
0.0185614814242936
 42
1.0
 72
     1
 10
-1.180814038229869
 20
0.0185614814242936
 11
-1.459894083378765
 21
0.0185614814242936
 72
     1
 10
-1.459894083378765
 20
0.0185614814242936
 11
-1.459894083378765
 21
0.0181817068682978
 72
     1
 10
-1.459894083378765
 20
0.0181817068682978
 11
-1.459894083378765
 21
-0.0428399262540236
 72
     1
 10
-1.459894083378765
 20
-0.0428399262540236
 11
-1.224555929054382
 21
-0.0428399262540236
 72
     4
 94
        3
 73
     1
 74
     0
 95
        8
 96
        4
 40
7.0
 40
7.0
 40
7.0
 40
7.0
 40
8.0
 40
8.0
 40
8.0
 40
8.0
 10
-1.224555929054382
 20
-0.0428399262540236
 42
1.0
 10
-1.214559720205494
 20
-0.0428806163850232
 42
1.0
 10
-1.206421694005584
 20
-0.0509643890769334
 42
1.0
 10
-1.206421694005584
 20
-0.0609877246798218
 42
1.0
 97
        0
 92
        0
 93
        6
 72
     1
 10
-1.747003647711572
 20
-0.0428534896310236
 11
-1.5827104621124
 21
-0.0428534896310236
 72
     4
 94
        3
 73
     1
 74
     0
 95
        8
 96
        4
 40
2.0
 40
2.0
 40
2.0
 40
2.0
 40
3.0
 40
3.0
 40
3.0
 40
3.0
 10
-1.5827104621124
 20
-0.0428534896310236
 42
1.0
 10
-1.572727816640511
 20
-0.0429348698930226
 42
1.0
 10
-1.5646847340796
 20
-0.0510050792079328
 42
1.0
 10
-1.5646847340796
 20
-0.0609877246798218
 42
1.0
 72
     1
 10
-1.5646847340796
 20
-0.0609877246798218
 11
-1.5646847340796
 21
-0.0791219597286202
 72
     1
 10
-1.5646847340796
 20
-0.0791219597286202
 11
-1.765029375744372
 21
-0.0791219597286202
 72
     1
 10
-1.765029375744372
 20
-0.0791219597286202
 11
-1.765029375744372
 21
-0.0609877246798218
 72
     4
 94
        3
 73
     1
 74
     0
 95
        8
 96
        4
 40
0.0
 40
0.0
 40
0.0
 40
0.0
 40
1.0
 40
1.0
 40
1.0
 40
1.0
 10
-1.765029375744372
 20
-0.0609877246798218
 42
1.0
 10
-1.765029375744372
 20
-0.0510050792079328
 42
1.0
 10
-1.756986293183461
 20
-0.0429348698930226
 42
1.0
 10
-1.747003647711572
 20
-0.0428534896310236
 42
1.0
 97
        0
 75
     0
 76
     1
 98
        1
 10
0.0
 20
0.0
  0
HATCH
  5
F5
330
7D
100
AcDbEntity
  8
0
  6
Continuous
 62
     7
100
AcDbHatch
 10
0.0
 20
0.0
 30
0.0
210
0.0
220
0.0
230
1.0
  2
SOLID
 70
     1
 71
     0
 91
        1
 92
        0
 93
       18
 72
     4
 94
        3
 73
     1
 74
     0
 95
        8
 96
        4
 40
3.0
 40
3.0
 40
3.0
 40
3.0
 40
4.0
 40
4.0
 40
4.0
 40
4.0
 10
-0.8581277360264573
 20
-0.1405098040299376
 42
1.0
 10
-0.8481450905545684
 20
-0.1405911842919366
 42
1.0
 10
-0.840169824878657
 20
-0.1486749569838468
 42
1.0
 10
-0.840169824878657
 20
-0.1586033489477364
 42
1.0
 72
     4
 94
        3
 73
     1
 74
     0
 95
        8
 96
        4
 40
4.0
 40
4.0
 40
4.0
 40
4.0
 40
5.0
 40
5.0
 40
5.0
 40
5.0
 10
-0.840169824878657
 20
-0.1586033489477364
 42
1.0
 10
-0.840169824878657
 20
-0.168613121173625
 42
1.0
 10
-0.8481993440625677
 20
-0.1768596543895334
 42
1.0
 10
-0.8582633697964558
 20
-0.1768596543895334
 42
1.0
 72
     1
 10
-0.8582633697964558
 20
-0.1768596543895334
 11
-1.089573201151883
 21
-0.1768596543895334
 72
     1
 10
-1.089573201151883
 20
-0.1768596543895334
 11
-1.089573201151883
 21
-0.2381661184288516
 72
     1
 10
-1.089573201151883
 20
-0.2381661184288516
 11
-0.8145079155949424
 21
-0.2381661184288516
 72
     4
 94
        3
 73
     1
 74
     0
 95
        8
 96
        4
 40
8.0
 40
8.0
 40
8.0
 40
8.0
 40
9.0
 40
9.0
 40
9.0
 40
9.0
 10
-0.8145079155949424
 20
-0.2381661184288516
 42
1.0
 10
-0.7879779501832377
 20
-0.2381661184288516
 42
1.0
 10
-0.766493561015476
 20
-0.2166817292610904
 42
1.0
 10
-0.766493561015476
 20
-0.1902060173573848
 42
1.0
 72
     1
 10
-0.766493561015476
 20
-0.1902060173573848
 11
-0.766493561015476
 21
-0.1270956241770868
 72
     4
 94
        3
 73
     1
 74
     0
 95
        8
 96
        4
 40
10.0
 40
10.0
 40
10.0
 40
10.0
 40
11.0
 40
11.0
 40
11.0
 40
11.0
 10
-0.766493561015476
 20
-0.1270956241770868
 42
1.0
 10
-0.766493561015476
 20
-0.1006741657813806
 42
1.0
 10
-0.7878694431672377
 20
-0.0792440301216188
 42
1.0
 10
-0.8142637748089452
 20
-0.0791219597286202
 42
1.0
 72
     1
 10
-0.8142637748089452
 20
-0.0791219597286202
 11
-0.997803392370904
 21
-0.0791219597286202
 72
     4
 94
        3
 73
     1
 74
     0
 95
        8
 96
        4
 40
12.0
 40
12.0
 40
12.0
 40
12.0
 40
13.0
 40
13.0
 40
13.0
 40
13.0
 10
-0.997803392370904
 20
-0.0791219597286202
 42
1.0
 10
-1.007786037842793
 20
-0.0791219597286202
 42
1.0
 10
-1.015978317550702
 20
-0.0710110602827104
 42
1.0
 10
-1.015978317550702
 20
-0.0609877246798218
 42
1.0
 72
     4
 94
        3
 73
     1
 74
     0
 95
        8
 96
        4
 40
13.0
 40
13.0
 40
13.0
 40
13.0
 40
14.0
 40
14.0
 40
14.0
 40
14.0
 10
-1.015978317550702
 20
-0.0609877246798218
 42
1.0
 10
-1.015978317550702
 20
-0.0509643890769334
 42
1.0
 10
-1.007840291350792
 20
-0.0428806163850232
 42
1.0
 10
-0.9978576458789036
 20
-0.0428399262540236
 42
1.0
 72
     1
 10
-0.9978576458789036
 20
-0.0428399262540236
 11
-0.766493561015476
 21
-0.0428399262540236
 72
     1
 10
-0.766493561015476
 20
-0.0428399262540236
 11
-0.766493561015476
 21
0.0185614814242936
 72
     1
 10
-0.766493561015476
 20
0.0185614814242936
 11
-1.041558846572418
 21
0.0185614814242936
 72
     4
 94
        3
 73
     1
 74
     0
 95
        8
 96
        4
 40
17.0
 40
17.0
 40
17.0
 40
17.0
 40
18.0
 40
18.0
 40
18.0
 40
18.0
 10
-1.041558846572418
 20
0.0185614814242936
 42
1.0
 10
-1.068061685230123
 20
0.0185614814242936
 42
1.0
 10
-1.089573201151883
 20
-0.0029229077434676
 42
1.0
 10
-1.089573201151883
 20
-0.029412183024173
 42
1.0
 72
     1
 10
-1.089573201151883
 20
-0.029412183024173
 11
-1.089573201151883
 21
-0.0925497029584708
 72
     4
 94
        3
 73
     1
 74
     0
 95
        8
 96
        4
 40
1.0
 40
1.0
 40
1.0
 40
1.0
 40
2.0
 40
2.0
 40
2.0
 40
2.0
 10
-1.089573201151883
 20
-0.0925497029584708
 42
1.0
 10
-1.089573201151883
 20
-0.1190118514851766
 42
1.0
 10
-1.068061685230123
 20
-0.1405098040299376
 42
1.0
 10
-1.041558846572418
 20
-0.1405098040299376
 42
1.0
 72
     1
 10
-1.041558846572418
 20
-0.1405098040299376
 11
-0.8581277360264573
 21
-0.1405098040299376
 97
        0
 75
     0
 76
     1
 98
        1
 10
0.0
 20
0.0
  0
HATCH
  5
F6
330
7D
100
AcDbEntity
  8
0
  6
Continuous
 62
     7
100
AcDbHatch
 10
0.0
 20
0.0
 30
0.0
210
0.0
220
0.0
230
1.0
  2
SOLID
 70
     1
 71
     0
 91
        2
 92
        0
 93
       32
 72
     4
 94
        3
 73
     1
 74
     0
 95
        8
 96
        4
 40
30.0
 40
30.0
 40
30.0
 40
30.0
 40
31.0
 40
31.0
 40
31.0
 40
31.0
 10
-0.0715061235432058
 20
-0.2473349612807496
 42
1.0
 10
-0.0320366964736437
 20
-0.2473349612807496
 42
1.0
 10
0.0
 20
-0.2152711380531062
 42
1.0
 10
0.0
 20
-0.1758559644915444
 42
1.0
 72
     1
 10
0.0
 20
-0.1758559644915444
 11
0.0
 21
0.1758559644915445
 72
     1
 10
0.0
 20
0.1758559644915444
 11
-0.0735948836011818
 21
0.128045060567076
 72
     1
 10
-0.0735948836011818
 20
0.128045060567076
 11
-0.0735948836011818
 21
-0.1578437998357448
 72
     4
 94
        3
 73
     1
 74
     0
 95
        8
 96
        4
 40
1.0
 40
1.0
 40
1.0
 40
1.0
 40
2.0
 40
2.0
 40
2.0
 40
2.0
 10
-0.0735948836011818
 20
-0.1578437998357448
 42
1.0
 10
-0.0735948836011818
 20
-0.1638116857156784
 42
1.0
 10
-0.0784776993211278
 20
-0.1686673746816243
 42
1.0
 10
-0.0844455852010621
 20
-0.1686673746816243
 42
1.0
 72
     4
 94
        3
 73
     1
 74
     0
 95
        8
 96
        4
 40
2.0
 40
2.0
 40
2.0
 40
2.0
 40
3.0
 40
3.0
 40
3.0
 40
3.0
 10
-0.0844455852010621
 20
-0.1686673746816243
 42
1.0
 10
-0.0874024013870275
 20
-0.1686673746816243
 42
1.0
 10
-0.0900879500329978
 20
-0.1674737975056378
 42
1.0
 10
-0.092041076320976
 20
-0.1655749247256588
 42
1.0
 72
     4
 94
        3
 73
     1
 74
     0
 95
        8
 96
        4
 40
3.0
 40
3.0
 40
3.0
 40
3.0
 40
4.0
 40
4.0
 40
4.0
 40
4.0
 10
-0.092041076320976
 20
-0.1655749247256588
 42
1.0
 10
-0.0926107381549699
 20
-0.1649510093836657
 42
1.0
 10
-0.23022476119544
 20
0.0019870347304778
 42
1.0
 10
-0.2305231554894361
 20
0.0023803726634734
 42
1.0
 72
     4
 94
        3
 73
     1
 74
     0
 95
        8
 96
        4
 40
4.0
 40
4.0
 40
4.0
 40
4.0
 40
5.0
 40
5.0
 40
5.0
 40
5.0
 10
-0.2305231554894361
 20
0.0023803726634734
 42
1.0
 10
-0.2436796311792901
 20
0.0178290590663016
 42
1.0
 10
-0.2632922743210718
 20
0.0276489440141924
 42
1.0
 10
-0.2851021845368298
 20
0.0276489440141924
 42
1.0
 72
     4
 94
        3
 73
     1
 74
     0
 95
        8
 96
        4
 40
5.0
 40
5.0
 40
5.0
 40
5.0
 40
6.0
 40
6.0
 40
6.0
 40
6.0
 10
-0.2851021845368298
 20
0.0276489440141924
 42
1.0
 10
-0.3245987383603895
 20
0.0276489440141924
 42
1.0
 10
-0.356608308080034
 20
-0.0043334989514518
 42
1.0
 10
-0.356608308080034
 20
-0.0438164893980128
 42
1.0
 72
     1
 10
-0.356608308080034
 20
-0.0438164893980128
 11
-0.356608308080034
 21
-0.1768596543895334
 72
     1
 10
-0.356608308080034
 20
-0.1768596543895334
 11
-0.6435822386428437
 21
-0.1768596543895334
 72
     4
 94
        3
 73
     1
 74
     0
 95
        8
 96
        4
 40
8.0
 40
8.0
 40
8.0
 40
8.0
 40
9.0
 40
9.0
 40
9.0
 40
9.0
 10
-0.6435822386428437
 20
-0.1768596543895334
 42
1.0
 10
-0.653592010868732
 20
-0.1768596543895334
 42
1.0
 10
-0.661702910314642
 20
-0.168613121173625
 42
1.0
 10
-0.661702910314642
 20
-0.1586033489477364
 42
1.0
 72
     1
 10
-0.661702910314642
 20
-0.1586033489477364
 11
-0.661702910314642
 21
-0.1405098040299376
 72
     1
 10
-0.661702910314642
 20
-0.1405098040299376
 11
-0.435737049497154
 21
-0.1405098040299376
 72
     4
 94
        3
 73
     1
 74
     0
 95
        8
 96
        4
 40
11.0
 40
11.0
 40
11.0
 40
11.0
 40
12.0
 40
12.0
 40
12.0
 40
12.0
 10
-0.435737049497154
 20
-0.1405098040299376
 42
1.0
 10
-0.4092613375934499
 20
-0.1405098040299376
 42
1.0
 10
-0.3877498216716879
 20
-0.1190118514851766
 42
1.0
 10
-0.3877498216716879
 20
-0.0925497029584708
 42
1.0
 72
     1
 10
-0.3877498216716879
 20
-0.0925497029584708
 11
-0.3877498216716879
 21
-0.0510457693389324
 72
     4
 94
        3
 73
     1
 74
     0
 95
        8
 96
        4
 40
13.0
 40
13.0
 40
13.0
 40
13.0
 40
14.0
 40
14.0
 40
14.0
 40
14.0
 10
-0.3877498216716879
 20
-0.0510457693389324
 42
1.0
 10
-0.3877498216716879
 20
-0.01260715892136
 42
1.0
 10
-0.4207902080433197
 20
0.0185343546702939
 42
1.0
 10
-0.4615888460588679
 20
0.0185343546702939
 42
1.0
 72
     1
 10
-0.4615888460588679
 20
0.0185343546702939
 11
-0.6614316427746436
 21
0.0185343546702939
 72
     1
 10
-0.6614316427746436
 20
0.0185343546702939
 11
-0.661485896282644
 21
0.0185343546702939
 72
     4
 94
        3
 73
     1
 74
     0
 95
        8
 96
        4
 40
17.0
 40
17.0
 40
17.0
 40
17.0
 40
18.0
 40
18.0
 40
18.0
 40
18.0
 10
-0.661485896282644
 20
0.0185343546702939
 42
1.0
 10
-0.7022302807901918
 20
0.0185343546702939
 42
1.0
 10
-0.7353249206698239
 20
-0.01260715892136
 42
1.0
 10
-0.7353249206698239
 20
-0.0510457693389324
 42
1.0
 72
     1
 10
-0.7353249206698239
 20
-0.0510457693389324
 11
-0.7353249206698239
 21
-0.0511135862239316
 72
     1
 10
-0.7353249206698239
 20
-0.0511135862239316
 11
-0.7353249206698239
 21
-0.1685046141576262
 72
     1
 10
-0.7353249206698239
 20
-0.1685046141576262
 11
-0.7353249206698239
 21
-0.1685588676656256
 72
     4
 94
        3
 73
     1
 74
     0
 95
        8
 96
        4
 40
21.0
 40
21.0
 40
21.0
 40
21.0
 40
22.0
 40
22.0
 40
22.0
 40
22.0
 10
-0.7353249206698239
 20
-0.1685588676656256
 42
1.0
 10
-0.7353249206698239
 20
-0.2070246048371978
 42
1.0
 10
-0.7022302807901918
 20
-0.2381661184288516
 42
1.0
 10
-0.661485896282644
 20
-0.2381661184288516
 42
1.0
 72
     1
 10
-0.661485896282644
 20
-0.2381661184288516
 11
-0.356608308080034
 21
-0.2381661184288516
 72
     1
 10
-0.356608308080034
 20
-0.2381661184288516
 11
-0.356608308080034
 21
-0.4378732813746306
 72
     1
 10
-0.356608308080034
 20
-0.4378732813746306
 11
-0.282986297724854
 21
-0.3900759408271622
 72
     1
 10
-0.282986297724854
 20
-0.3900759408271622
 11
-0.282986297724854
 21
-0.0618286540538125
 72
     4
 94
        3
 73
     1
 74
     0
 95
        8
 96
        4
 40
26.0
 40
26.0
 40
26.0
 40
26.0
 40
27.0
 40
27.0
 40
27.0
 40
27.0
 10
-0.282986297724854
 20
-0.0618286540538126
 42
1.0
 10
-0.282986297724854
 20
-0.0558607681738788
 42
1.0
 10
-0.2781306087589078
 20
-0.0509779524539332
 42
1.0
 10
-0.2721627228789741
 20
-0.0509779524539332
 42
1.0
 72
     4
 94
        3
 73
     1
 74
     0
 95
        8
 96
        4
 40
27.0
 40
27.0
 40
27.0
 40
27.0
 40
28.0
 40
28.0
 40
28.0
 40
28.0
 10
-0.2721627228789741
 20
-0.0509779524539332
 42
1.0
 10
-0.269016019415008
 20
-0.0509779524539332
 42
1.0
 10
-0.26624909050704
 20
-0.0522936000229186
 42
1.0
 10
-0.264268837465062
 20
-0.0543552333268956
 42
1.0
 72
     4
 94
        2
 73
     1
 74
     0
 95
        6
 96
        3
 40
28.0
 40
28.0
 40
28.0
 40
29.0
 40
29.0
 40
29.0
 10
-0.264268837465062
 20
-0.0543552333268956
 42
1.0
 10
-0.263834809401066
 20
-0.0548163881448906
 42
1.0
 10
-0.1263292933765955
 20
-0.2216187984890356
 42
1.0
 72
     4
 94
        3
 73
     1
 74
     0
 95
        8
 96
        4
 40
29.0
 40
29.0
 40
29.0
 40
29.0
 40
30.0
 40
30.0
 40
30.0
 40
30.0
 10
-0.1263292933765955
 20
-0.2216187984890356
 42
1.0
 10
-0.1132270711947421
 20
-0.2373523158088606
 42
1.0
 10
-0.0935330477909599
 20
-0.2473349612807496
 42
1.0
 10
-0.0715061235432058
 20
-0.2473349612807496
 42
1.0
 97
        0
 92
        0
 93
        6
 72
     1
 10
-0.6436907456588418
 20
-0.0428534896310236
 11
-0.4793839966826698
 21
-0.0428534896310236
 72
     4
 94
        3
 73
     1
 74
     0
 95
        8
 96
        4
 40
2.0
 40
2.0
 40
2.0
 40
2.0
 40
3.0
 40
3.0
 40
3.0
 40
3.0
 10
-0.4793839966826698
 20
-0.0428534896310236
 42
1.0
 10
-0.4693742244567797
 20
-0.0429348698930226
 42
1.0
 10
-0.46134470527287
 20
-0.0510050792079328
 42
1.0
 10
-0.46134470527287
 20
-0.0609877246798218
 42
1.0
 72
     1
 10
-0.46134470527287
 20
-0.0609877246798218
 11
-0.46134470527287
 21
-0.0791219597286202
 72
     1
 10
-0.46134470527287
 20
-0.0791219597286202
 11
-0.661702910314642
 21
-0.0791219597286202
 72
     1
 10
-0.661702910314642
 20
-0.0791219597286202
 11
-0.661702910314642
 21
-0.0609877246798218
 72
     4
 94
        3
 73
     1
 74
     0
 95
        8
 96
        4
 40
0.0
 40
0.0
 40
0.0
 40
0.0
 40
1.0
 40
1.0
 40
1.0
 40
1.0
 10
-0.661702910314642
 20
-0.0609877246798218
 42
1.0
 10
-0.661702910314642
 20
-0.0510050792079328
 42
1.0
 10
-0.6536733911307319
 20
-0.0429348698930226
 42
1.0
 10
-0.6436907456588418
 20
-0.0428534896310236
 42
1.0
 97
        0
 75
     0
 76
     1
 98
        1
 10
0.0
 20
0.0
  0
ENDBLK
  5
7F
330
7D
100
AcDbEntity
  8
0
100
AcDbBlockEnd
  0
BLOCK
  5
10B
330
10A
100
AcDbEntity
  8
0
100
AcDbBlockBegin
  2
SW_NOTE_0
 70
     0
 10
0.0
 20
0.0
 30
0.0
  3
SW_NOTE_0
  1

  0
MTEXT
  5
10D
330
10A
100
AcDbEntity
  8
0
  6
Continuous
 62
     0
370
     0
100
AcDbMText
 10
1.1393229167
 20
0.3759780908
 30
0.0
 40
0.2916666667
 41
0.0
 71
     2
 72
     1
  1
STXH Series
  7
SLDTEXTSTYLE0
 73
     1
 44
1.0
  0
MTEXT
  5
10E
330
10A
100
AcDbEntity
  8
0
  6
Continuous
 62
     0
370
     0
100
AcDbMText
 10
1.1419221747
 20
-0.0129107934
 30
0.0
 40
0.2916666667
 41
0.0
 71
     2
 72
     1
  1
Surge-Trap® SPD Type 1
  7
SLDTEXTSTYLE0
 73
     1
 44
1.0
  0
ENDBLK
  5
10C
330
10A
100
AcDbEntity
  8
0
100
AcDbBlockEnd
  0
BLOCK
  5
115
330
114
100
AcDbEntity
  8
0
100
AcDbBlockBegin
  2
SW_NOTE_1
 70
     0
 10
0.0
 20
0.0
 30
0.0
  3
SW_NOTE_1
  1

  0
MTEXT
  5
118
330
114
100
AcDbEntity
  8
0
  6
Continuous
 62
     0
370
     0
100
AcDbMText
 10
1.1857096354
 20
0.2417002012
 30
0.0
 40
0.1875
 41
0.0
 71
     2
 72
     1
  1
OUTLINE DIMENSIONS
  7
SLDTEXTSTYLE2
 73
     1
 44
1.0
  0
MTEXT
  5
119
330
114
100
AcDbEntity
  8
0
  6
Continuous
 62
     0
370
     0
100
AcDbMText
 10
1.2244107909
 20
-0.0082997958
 30
0.0
 40
0.1875
 41
0.0
 71
     2
 72
     1
  1
NOT TO BE USED FOR PRODUCTION
  7
SLDTEXTSTYLE2
 73
     1
 44
1.0
  0
ENDBLK
  5
116
330
114
100
AcDbEntity
  8
0
100
AcDbBlockEnd
  0
BLOCK
  5
11C
330
11B
100
AcDbEntity
  8
0
100
AcDbBlockBegin
  2
SW_NOTE_2
 70
     0
 10
0.0
 20
0.0
 30
0.0
  3
SW_NOTE_2
  1

  0
MTEXT
  5
11F
330
11B
100
AcDbEntity
  8
0
  6
Continuous
 62
     0
370
     0
100
AcDbMText
 10
0.0
 20
0.2417002012
 30
0.0
 40
0.1875
 41
0.0
 71
     1
 72
     1
  1
SIGN:
  7
SLDTEXTSTYLE3
 73
     1
 44
1.0
  0
MTEXT
  5
120
330
11B
100
AcDbEntity
  8
0
  6
Continuous
 62
     0
370
     0
100
AcDbMText
 10
0.0
 20
-0.2582997928
 30
0.0
 40
0.1875
 41
0.0
 71
     1
 72
     1
  1
DATE:
  7
SLDTEXTSTYLE3
 73
     1
 44
1.0
  0
ENDBLK
  5
11D
330
11B
100
AcDbEntity
  8
0
100
AcDbBlockEnd
  0
BLOCK
  5
126
330
125
100
AcDbEntity
  8
0
100
AcDbBlockBegin
  2
SW_NOTE_3
 70
     0
 10
0.0
 20
0.0
 30
0.0
  3
SW_NOTE_3
  1

  0
MTEXT
  5
128
330
125
100
AcDbEntity
  8
0
  6
Continuous
 62
     0
370
     0
100
AcDbMText
 10
0.0
 20
0.2417002012
 30
0.0
 40
0.1875
 41
0.0
 71
     1
 72
     1
  1
SIGN:
  7
SLDTEXTSTYLE3
 73
     1
 44
1.0
  0
MTEXT
  5
129
330
125
100
AcDbEntity
  8
0
  6
Continuous
 62
     0
370
     0
100
AcDbMText
 10
0.0
 20
-0.2582997928
 30
0.0
 40
0.1875
 41
0.0
 71
     1
 72
     1
  1
DATE:
  7
SLDTEXTSTYLE3
 73
     1
 44
1.0
  0
ENDBLK
  5
127
330
125
100
AcDbEntity
  8
0
100
AcDbBlockEnd
  0
BLOCK
  5
12C
330
12B
100
AcDbEntity
  8
0
100
AcDbBlockBegin
  2
SW_NOTE_4
 70
     0
 10
0.0
 20
0.0
 30
0.0
  3
SW_NOTE_4
  1

  0
MTEXT
  5
12F
330
12B
100
AcDbEntity
  8
0
  6
Continuous
 62
     0
370
     0
100
AcDbMText
 10
0.0
 20
0.1611334675
 30
0.0
 40
0.125
 41
0.0
 71
     1
 72
     1
  1
MERSEN USA NEWBURYPORT-MA, LLC
  7
SLDTEXTSTYLE5
 73
     1
 44
1.0
  0
MTEXT
  5
130
330
12B
100
AcDbEntity
  8
0
  6
Continuous
 62
     0
370
     0
100
AcDbMText
 10
0.0
 20
-0.0055331972
 30
0.0
 40
0.125
 41
0.0
 71
     1
 72
     1
  1
374 MERRIMAC STREET
  7
SLDTEXTSTYLE5
 73
     1
 44
1.0
  0
MTEXT
  5
131
330
12B
100
AcDbEntity
  8
0
  6
Continuous
 62
     0
370
     0
100
AcDbMText
 10
0.0
 20
-0.1721998618
 30
0.0
 40
0.125
 41
0.0
 71
     1
 72
     1
  1
NEWBURYPORT,MA 01950
  7
SLDTEXTSTYLE5
 73
     1
 44
1.0
  0
ENDBLK
  5
12D
330
12B
100
AcDbEntity
  8
0
100
AcDbBlockEnd
  0
BLOCK
  5
137
330
136
100
AcDbEntity
  8
0
100
AcDbBlockBegin
  2
SW_TABLEANNOTATION_0
 70
     0
 10
0.0
 20
0.0
 30
0.0
  3
SW_TABLEANNOTATION_0
  1

  0
LINE
  5
139
330
136
100
AcDbEntity
  8
DATA
 62
     0
100
AcDbLine
 10
0.0
 20
0.0
 30
0.0
 11
0.0
 21
-0.556
 31
0.0
  0
LINE
  5
13A
330
136
100
AcDbEntity
  8
DATA
 62
     0
100
AcDbLine
 10
0.0
 20
-0.556
 30
0.0
 11
9.16
 21
-0.556
 31
0.0
  0
LINE
  5
13B
330
136
100
AcDbEntity
  8
DATA
 62
     0
100
AcDbLine
 10
9.16
 20
-0.556
 30
0.0
 11
9.16
 21
0.0
 31
0.0
  0
LINE
  5
13C
330
136
100
AcDbEntity
  8
DATA
 62
     0
100
AcDbLine
 10
9.16
 20
0.0
 30
0.0
 11
0.0
 21
0.0
 31
0.0
  0
LINE
  5
13D
330
136
100
AcDbEntity
  8
DATA
 62
     0
100
AcDbLine
 10
0.6
 20
0.0
 30
0.0
 11
0.6
 21
-0.28
 31
0.0
  0
LINE
  5
13E
330
136
100
AcDbEntity
  8
DATA
 62
     0
100
AcDbLine
 10
1.8
 20
0.0
 30
0.0
 11
1.8
 21
-0.28
 31
0.0
  0
LINE
  5
13F
330
136
100
AcDbEntity
  8
DATA
 62
     0
100
AcDbLine
 10
2.8
 20
0.0
 30
0.0
 11
2.8
 21
-0.28
 31
0.0
  0
LINE
  5
140
330
136
100
AcDbEntity
  8
DATA
 62
     0
100
AcDbLine
 10
7.3
 20
0.0
 30
0.0
 11
7.3
 21
-0.28
 31
0.0
  0
LINE
  5
141
330
136
100
AcDbEntity
  8
DATA
 62
     0
100
AcDbLine
 10
7.9
 20
0.0
 30
0.0
 11
7.9
 21
-0.28
 31
0.0
  0
LINE
  5
142
330
136
100
AcDbEntity
  8
DATA
 62
     0
100
AcDbLine
 10
8.5
 20
0.0
 30
0.0
 11
8.5
 21
-0.28
 31
0.0
  0
LINE
  5
143
330
136
100
AcDbEntity
  8
DATA
 62
     0
100
AcDbLine
 10
0.6
 20
-0.28
 30
0.0
 11
0.6
 21
-0.556
 31
0.0
  0
LINE
  5
144
330
136
100
AcDbEntity
  8
DATA
 62
     0
100
AcDbLine
 10
1.8
 20
-0.28
 30
0.0
 11
1.8
 21
-0.556
 31
0.0
  0
LINE
  5
145
330
136
100
AcDbEntity
  8
DATA
 62
     0
100
AcDbLine
 10
2.8
 20
-0.28
 30
0.0
 11
2.8
 21
-0.556
 31
0.0
  0
LINE
  5
146
330
136
100
AcDbEntity
  8
DATA
 62
     0
100
AcDbLine
 10
7.3
 20
-0.28
 30
0.0
 11
7.3
 21
-0.556
 31
0.0
  0
LINE
  5
147
330
136
100
AcDbEntity
  8
DATA
 62
     0
100
AcDbLine
 10
7.9
 20
-0.28
 30
0.0
 11
7.9
 21
-0.556
 31
0.0
  0
LINE
  5
148
330
136
100
AcDbEntity
  8
DATA
 62
     0
100
AcDbLine
 10
8.5
 20
-0.28
 30
0.0
 11
8.5
 21
-0.556
 31
0.0
  0
LINE
  5
149
330
136
100
AcDbEntity
  8
DATA
 62
     0
100
AcDbLine
 10
0.0
 20
-0.28
 30
0.0
 11
9.16
 21
-0.28
 31
0.0
  0
MTEXT
  5
14A
330
136
100
AcDbEntity
  8
DATA
 62
     0
100
AcDbMText
 10
0.0731481356
 20
-0.0678917122
 30
0.0
 40
0.1458333333
 41
0.0
 71
     1
 72
     1
  1
REV.
  7
SLDTEXTSTYLE0
 73
     1
 44
1.0
  0
MTEXT
  5
14B
330
136
100
AcDbEntity
  8
DATA
 62
     0
100
AcDbMText
 10
0.9407407317
 20
-0.0678917122
 30
0.0
 40
0.1458333333
 41
0.0
 71
     1
 72
     1
  1
DATE
  7
SLDTEXTSTYLE0
 73
     1
 44
1.0
  0
MTEXT
  5
14C
330
136
100
AcDbEntity
  8
DATA
 62
     0
100
AcDbMText
 10
2.0893518468
 20
-0.0678917122
 30
0.0
 40
0.1458333333
 41
0.0
 71
     1
 72
     1
  1
ECO
  7
SLDTEXTSTYLE0
 73
     1
 44
1.0
  0
MTEXT
  5
14D
330
136
100
AcDbEntity
  8
DATA
 62
     0
100
AcDbMText
 10
4.385648228
 20
-0.0678917122
 30
0.0
 40
0.1458333333
 41
0.0
 71
     1
 72
     1
  1
DESCRIPTION
  7
SLDTEXTSTYLE0
 73
     1
 44
1.0
  0
MTEXT
  5
14E
330
136
100
AcDbEntity
  8
DATA
 62
     0
100
AcDbMText
 10
7.4703703658
 20
-0.0678917122
 30
0.0
 40
0.1458333333
 41
0.0
 71
     1
 72
     1
  1
BY
  7
SLDTEXTSTYLE0
 73
     1
 44
1.0
  0
MTEXT
  5
14F
330
136
100
AcDbEntity
  8
DATA
 62
     0
100
AcDbMText
 10
8.0649691349
 20
-0.0678917122
 30
0.0
 40
0.1458333333
 41
0.0
 71
     1
 72
     1
  1
CK
  7
SLDTEXTSTYLE0
 73
     1
 44
1.0
  0
MTEXT
  5
150
330
136
100
AcDbEntity
  8
DATA
 62
     0
100
AcDbMText
 10
8.6355555396
 20
-0.0678917122
 30
0.0
 40
0.1458333333
 41
0.0
 71
     1
 72
     1
  1
APP
  7
SLDTEXTSTYLE0
 73
     1
 44
1.0
  0
MTEXT
  5
151
330
136
100
AcDbEntity
  8
DATA
 62
     0
100
AcDbMText
 10
0.2675925915
 20
-0.3458917122
 30
0.0
 40
0.1458333333
 41
0.0
 71
     1
 72
     1
  1
-
  7
SLDTEXTSTYLE0
 73
     1
 44
1.0
  0
MTEXT
  5
152
330
136
100
AcDbEntity
  8
DATA
 62
     0
100
AcDbMText
 10
0.7679012316
 20
-0.3458917122
 30
0.0
 40
0.1458333333
 41
0.0
 71
     1
 72
     1
  1
2/29/2016
  7
SLDTEXTSTYLE0
 73
     1
 44
1.0
  0
MTEXT
  5
153
330
136
100
AcDbEntity
  8
DATA
 62
     0
100
AcDbMText
 10
2.1379629619
 20
-0.3458917122
 30
0.0
 40
0.1458333333
 41
0.0
 71
     1
 72
     1
  1
N/A
  7
SLDTEXTSTYLE0
 73
     1
 44
1.0
  0
MTEXT
  5
154
330
136
100
AcDbEntity
  8
DATA
 62
     0
100
AcDbMText
 10
4.2452160036
 20
-0.3458917122
 30
0.0
 40
0.1458333333
 41
0.0
 71
     1
 72
     1
  1
INITIAL RELEASE
  7
SLDTEXTSTYLE0
 73
     1
 44
1.0
  0
MTEXT
  5
155
330
136
100
AcDbEntity
  8
DATA
 62
     0
100
AcDbMText
 10
7.4163580381
 20
-0.3458917122
 30
0.0
 40
0.1458333333
 41
0.0
 71
     1
 72
     1
  1
JRB
  7
SLDTEXTSTYLE0
 73
     1
 44
1.0
  0
MTEXT
  5
156
330
136
100
AcDbEntity
  8
DATA
 62
     0
100
AcDbMText
 10
8.0379629619
 20
-0.3458917122
 30
0.0
 40
0.1458333333
 41
0.0
 71
     1
 72
     1
  1
N/A
  7
SLDTEXTSTYLE0
 73
     1
 44
1.0
  0
MTEXT
  5
157
330
136
100
AcDbEntity
  8
DATA
 62
     0
100
AcDbMText
 10
8.6679629619
 20
-0.3458917122
 30
0.0
 40
0.1458333333
 41
0.0
 71
     1
 72
     1
  1
N/A
  7
SLDTEXTSTYLE0
 73
     1
 44
1.0
  0
ENDBLK
  5
138
330
136
100
AcDbEntity
  8
0
100
AcDbBlockEnd
  0
BLOCK
  5
271
330
270
100
AcDbEntity
  8
0
100
AcDbBlockBegin
  2
_D
 70
     0
 10
0.0
 20
0.0
 30
0.0
  3
_D
  1

  0
SOLID
  5
273
330
270
100
AcDbEntity
  8
DATA
100
AcDbTrace
 10
10.8933009658
 20
7.2474260584
 30
0.0
 11
11.1533009658
 21
7.2074260584
 31
0.0
 12
11.1533009658
 22
7.2874260584
 32
0.0
 13
11.1533009658
 23
7.2874260584
 33
0.0
  0
SOLID
  5
274
330
270
100
AcDbEntity
  8
DATA
100
AcDbTrace
 10
13.9593009658
 20
7.2474260584
 30
0.0
 11
13.6993009658
 21
7.2874260584
 31
0.0
 12
13.6993009658
 22
7.2074260584
 32
0.0
 13
13.6993009658
 23
7.2074260584
 33
0.0
  0
LINE
  5
275
330
270
100
AcDbEntity
  8
DATA
100
AcDbLine
 10
10.8933009658
 20
8.3222963224
 30
0.0
 11
10.8933009658
 21
6.9974260584
 31
0.0
  0
LINE
  5
276
330
270
100
AcDbEntity
  8
DATA
100
AcDbLine
 10
13.9593009658
 20
8.3390673614
 30
0.0
 11
13.9593009658
 21
6.9974260584
 31
0.0
  0
LINE
  5
277
330
270
100
AcDbEntity
  8
DATA
100
AcDbLine
 10
10.8933009658
 20
7.2474260584
 30
0.0
 11
12.2199069268
 21
7.2474260584
 31
0.0
  0
LINE
  5
278
330
270
100
AcDbEntity
  8
DATA
100
AcDbLine
 10
13.9593009658
 20
7.2474260584
 30
0.0
 11
12.5979933491
 21
7.2474260584
 31
0.0
  0
MTEXT
  5
279
330
270
100
AcDbEntity
  8
DATA
100
AcDbMText
 10
12.2199069268
 20
7.3267152578
 30
0.0
 40
0.1458333333
 41
0.0
 71
     1
 72
     1
  1
3.07
  7
SLDTEXTSTYLE0
 73
     1
 44
1.0
  0
ENDBLK
  5
272
330
270
100
AcDbEntity
  8
0
100
AcDbBlockEnd
  0
BLOCK
  5
27D
330
27C
100
AcDbEntity
  8
0
100
AcDbBlockBegin
  2
_D_1
 70
     0
 10
0.0
 20
0.0
 30
0.0
  3
_D_1
  1

  0
SOLID
  5
27F
330
27C
100
AcDbEntity
  8
DATA
100
AcDbTrace
 10
13.9593009658
 20
7.2474260584
 30
0.0
 11
14.2193009658
 21
7.2074260584
 31
0.0
 12
14.2193009658
 22
7.2874260584
 32
0.0
 13
14.2193009658
 23
7.2874260584
 33
0.0
  0
SOLID
  5
280
330
27C
100
AcDbEntity
  8
DATA
100
AcDbTrace
 10
18.8449357722
 20
7.2474260584
 30
0.0
 11
18.5849357722
 21
7.2874260584
 31
0.0
 12
18.5849357722
 22
7.2074260584
 32
0.0
 13
18.5849357722
 23
7.2074260584
 33
0.0
  0
LINE
  5
281
330
27C
100
AcDbEntity
  8
DATA
100
AcDbLine
 10
13.9593009658
 20
8.3390673614
 30
0.0
 11
13.9593009658
 21
6.9974260584
 31
0.0
  0
LINE
  5
282
330
27C
100
AcDbEntity
  8
DATA
100
AcDbLine
 10
18.8449357722
 20
9.1594653267
 30
0.0
 11
18.8449357722
 21
6.9974260584
 31
0.0
  0
LINE
  5
283
330
27C
100
AcDbEntity
  8
DATA
100
AcDbLine
 10
13.9593009658
 20
7.2474260584
 30
0.0
 11
15.9832119149
 21
7.2474260584
 31
0.0
  0
LINE
  5
284
330
27C
100
AcDbEntity
  8
DATA
100
AcDbLine
 10
18.8449357722
 20
7.2474260584
 30
0.0
 11
16.9540838726
 21
7.2474260584
 31
0.0
  0
MTEXT
  5
285
330
27C
100
AcDbEntity
  8
DATA
100
AcDbMText
 10
15.9832119149
 20
7.3267152578
 30
0.0
 40
0.1458333333
 41
0.0
 71
     1
 72
     1
  1
21.00
  7
SLDTEXTSTYLE0
 73
     1
 44
1.0
  0
MTEXT
  5
286
330
27C
100
AcDbEntity
  8
DATA
100
AcDbMText
 10
16.4693230293
 20
7.3267152578
 30
0.0
 40
0.1458333333
 41
0.0
 71
     1
 72
     1
  1
±2.00
  7
SLDTEXTSTYLE0
 73
     1
 44
1.0
  0
ENDBLK
  5
27E
330
27C
100
AcDbEntity
  8
0
100
AcDbBlockEnd
  0
BLOCK
  5
28A
330
289
100
AcDbEntity
  8
0
100
AcDbBlockBegin
  2
_D_2
 70
     0
 10
0.0
 20
0.0
 30
0.0
  3
_D_2
  1

  0
SOLID
  5
28C
330
289
100
AcDbEntity
  8
DATA
100
AcDbTrace
 10
13.9593009658
 20
7.7668163829
 30
0.0
 11
13.6993009658
 21
7.8068163829
 31
0.0
 12
13.6993009658
 22
7.7268163829
 32
0.0
 13
13.6993009658
 23
7.7268163829
 33
0.0
  0
SOLID
  5
28D
330
289
100
AcDbEntity
  8
DATA
100
AcDbTrace
 10
14.8343009658
 20
7.7668163829
 30
0.0
 11
15.0943009658
 21
7.7268163829
 31
0.0
 12
15.0943009658
 22
7.8068163829
 32
0.0
 13
15.0943009658
 23
7.8068163829
 33
0.0
  0
LINE
  5
28E
330
289
100
AcDbEntity
  8
DATA
100
AcDbLine
 10
13.9593009658
 20
8.3390673614
 30
0.0
 11
13.9593009658
 21
7.5168163829
 31
0.0
  0
LINE
  5
28F
330
289
100
AcDbEntity
  8
DATA
100
AcDbLine
 10
14.8343009658
 20
8.9350673614
 30
0.0
 11
14.8343009658
 21
7.5168163829
 31
0.0
  0
LINE
  5
290
330
289
100
AcDbEntity
  8
DATA
100
AcDbLine
 10
13.9593009658
 20
7.7668163829
 30
0.0
 11
13.4593009658
 21
7.7668163829
 31
0.0
  0
LINE
  5
291
330
289
100
AcDbEntity
  8
DATA
100
AcDbLine
 10
14.8343009658
 20
7.7668163829
 30
0.0
 11
15.3343009658
 21
7.7668163829
 31
0.0
  0
MTEXT
  5
292
330
289
100
AcDbEntity
  8
DATA
100
AcDbMText
 10
14.225025302
 20
7.8461055823
 30
0.0
 40
0.1458333333
 41
0.0
 71
     1
 72
     1
  1
.88
  7
SLDTEXTSTYLE0
 73
     1
 44
1.0
  0
ENDBLK
  5
28B
330
289
100
AcDbEntity
  8
0
100
AcDbBlockEnd
  0
BLOCK
  5
295
330
294
100
AcDbEntity
  8
0
100
AcDbBlockBegin
  2
_D_3
 70
     0
 10
0.0
 20
0.0
 30
0.0
  3
_D_3
  1

  0
SOLID
  5
297
330
294
100
AcDbEntity
  8
DATA
100
AcDbTrace
 10
14.0843009658
 20
11.968888911
 30
0.0
 11
14.3443009658
 21
11.928888911
 31
0.0
 12
14.3443009658
 22
12.008888911
 32
0.0
 13
14.3443009658
 23
12.008888911
 33
0.0
  0
SOLID
  5
298
330
294
100
AcDbEntity
  8
DATA
100
AcDbTrace
 10
13.9593009658
 20
11.968888911
 30
0.0
 11
13.6993009658
 21
12.008888911
 31
0.0
 12
13.6993009658
 22
11.928888911
 32
0.0
 13
13.6993009658
 23
11.928888911
 33
0.0
  0
LINE
  5
299
330
294
100
AcDbEntity
  8
DATA
100
AcDbLine
 10
14.0843009658
 20
10.8465673614
 30
0.0
 11
14.0843009658
 21
12.218888911
 31
0.0
  0
LINE
  5
29A
330
294
100
AcDbEntity
  8
DATA
100
AcDbLine
 10
13.9593009658
 20
11.2040673614
 30
0.0
 11
13.9593009658
 21
12.218888911
 31
0.0
  0
LINE
  5
29B
330
294
100
AcDbEntity
  8
DATA
100
AcDbLine
 10
14.0843009658
 20
11.968888911
 30
0.0
 11
14.5843009658
 21
11.968888911
 31
0.0
  0
LINE
  5
29C
330
294
100
AcDbEntity
  8
DATA
100
AcDbLine
 10
13.9593009658
 20
11.968888911
 30
0.0
 11
13.2280010689
 21
11.968888911
 31
0.0
  0
MTEXT
  5
29D
330
294
100
AcDbEntity
  8
DATA
100
AcDbMText
 10
13.0065504537
 20
12.0466927701
 30
0.0
 40
0.1458333333
 41
0.0
 71
     1
 72
     1
  1
.13
  7
SLDTEXTSTYLE0
 73
     1
 44
1.0
  0
ENDBLK
  5
296
330
294
100
AcDbEntity
  8
0
100
AcDbBlockEnd
  0
BLOCK
  5
302
330
301
100
AcDbEntity
  8
0
100
AcDbBlockBegin
  2
_D_4
 70
     0
 10
0.0
 20
0.0
 30
0.0
  3
_D_4
  1

  0
SOLID
  5
304
330
301
100
AcDbEntity
  8
DATA
100
AcDbTrace
 10
3.8429591843
 20
7.3741657866
 30
0.0
 11
4.1029591843
 21
7.3341657866
 31
0.0
 12
4.1029591843
 22
7.4141657866
 32
0.0
 13
4.1029591843
 23
7.4141657866
 33
0.0
  0
SOLID
  5
305
330
301
100
AcDbEntity
  8
DATA
100
AcDbTrace
 10
5.6940275001
 20
7.3741657866
 30
0.0
 11
5.4340275001
 21
7.4141657866
 31
0.0
 12
5.4340275001
 22
7.3341657866
 32
0.0
 13
5.4340275001
 23
7.3341657866
 33
0.0
  0
LINE
  5
306
330
301
100
AcDbEntity
  8
DATA
100
AcDbLine
 10
3.8429591843
 20
8.3369755574
 30
0.0
 11
3.8429591843
 21
7.1241657866
 31
0.0
  0
LINE
  5
307
330
301
100
AcDbEntity
  8
DATA
100
AcDbLine
 10
5.6940275001
 20
8.3366318993
 30
0.0
 11
5.6940275001
 21
7.1241657866
 31
0.0
  0
LINE
  5
308
330
301
100
AcDbEntity
  8
DATA
100
AcDbLine
 10
3.8429591843
 20
7.3741657866
 30
0.0
 11
4.5050981605
 21
7.3741657866
 31
0.0
  0
LINE
  5
309
330
301
100
AcDbEntity
  8
DATA
100
AcDbLine
 10
5.6940275001
 20
7.3741657866
 30
0.0
 11
4.8831845828
 21
7.3741657866
 31
0.0
  0
MTEXT
  5
30A
330
301
100
AcDbEntity
  8
DATA
100
AcDbMText
 10
4.5050981605
 20
7.453454986
 30
0.0
 40
0.1458333333
 41
0.0
 71
     1
 72
     1
  1
1.85
  7
SLDTEXTSTYLE0
 73
     1
 44
1.0
  0
ENDBLK
  5
303
330
301
100
AcDbEntity
  8
0
100
AcDbBlockEnd
  0
BLOCK
  5
30D
330
30C
100
AcDbEntity
  8
0
100
AcDbBlockBegin
  2
_D_5
 70
     0
 10
0.0
 20
0.0
 30
0.0
  3
_D_5
  1

  0
SOLID
  5
30F
330
30C
100
AcDbEntity
  8
DATA
100
AcDbTrace
 10
3.0555576095
 20
8.1615673614
 30
0.0
 11
3.0955576095
 21
8.4215673614
 31
0.0
 12
3.0155576095
 22
8.4215673614
 32
0.0
 13
3.0155576095
 23
8.4215673614
 33
0.0
  0
SOLID
  5
310
330
30C
100
AcDbEntity
  8
DATA
100
AcDbTrace
 10
3.0555576095
 20
11.3815673614
 30
0.0
 11
3.0155576095
 21
11.1215673614
 31
0.0
 12
3.0955576095
 22
11.1215673614
 32
0.0
 13
3.0955576095
 23
11.1215673614
 33
0.0
  0
LINE
  5
311
330
30C
100
AcDbEntity
  8
DATA
100
AcDbLine
 10
4.018092038
 20
8.1615673614
 30
0.0
 11
2.8055576095
 21
8.1615673614
 31
0.0
  0
LINE
  5
312
330
30C
100
AcDbEntity
  8
DATA
100
AcDbLine
 10
4.018092038
 20
11.3815673614
 30
0.0
 11
2.8055576095
 21
11.3815673614
 31
0.0
  0
LINE
  5
313
330
30C
100
AcDbEntity
  8
DATA
100
AcDbLine
 10
3.0555576095
 20
8.1615673614
 30
0.0
 11
3.0555576095
 21
9.6590488832
 31
0.0
  0
LINE
  5
314
330
30C
100
AcDbEntity
  8
DATA
100
AcDbLine
 10
3.0555576095
 20
11.3815673614
 30
0.0
 11
3.0555576095
 21
9.8764485751
 31
0.0
  0
MTEXT
  5
315
330
30C
100
AcDbEntity
  8
DATA
100
AcDbMText
 10
2.8665143983
 20
9.8470379286
 30
0.0
 40
0.1458333333
 41
0.0
 71
     1
 72
     1
  1
3.22
  7
SLDTEXTSTYLE0
 73
     1
 44
1.0
  0
ENDBLK
  5
30E
330
30C
100
AcDbEntity
  8
0
100
AcDbBlockEnd
  0
ENDSEC
  0
SECTION
  2
ENTITIES
  0
LINE
  5
F7
330
1F
100
AcDbEntity
  8
0
  6
Continuous
 62
     7
370
    40
100
AcDbLine
 10
0.659854
 20
16.2591463415
 30
0.0
 11
21.259854
 21
16.2591463415
 31
0.0
  0
LINE
  5
F8
330
1F
100
AcDbEntity
  8
0
  6
Continuous
 62
     7
370
    40
100
AcDbLine
 10
0.659854
 20
16.2591463415
 30
0.0
 11
0.659854
 21
0.6591463415
 31
0.0
  0
LINE
  5
F9
330
1F
100
AcDbEntity
  8
0
  6
Continuous
 62
     7
370
    40
100
AcDbLine
 10
21.259854
 20
0.6591463415
 30
0.0
 11
0.659854
 21
0.6591463415
 31
0.0
  0
LINE
  5
FA
330
1F
100
AcDbEntity
  8
0
  6
Continuous
 62
     7
370
    40
100
AcDbLine
 10
21.259854
 20
0.6591463415
 30
0.0
 11
21.259854
 21
16.2591463415
 31
0.0
  0
LINE
  5
FB
330
1F
100
AcDbEntity
  8
0
  6
Continuous
 62
     7
370
    30
100
AcDbLine
 10
7.759854
 20
2.0677884289
 30
0.0
 11
0.759854
 21
2.0677884289
 31
0.0
  0
LINE
  5
FC
330
1F
100
AcDbEntity
  8
0
  6
Continuous
 62
     7
370
    30
100
AcDbLine
 10
4.259854
 20
0.7591463415
 30
0.0
 11
4.259854
 21
2.0677884289
 31
0.0
  0
LINE
  5
FD
330
1F
100
AcDbEntity
  8
0
  6
Continuous
 62
     7
370
    30
100
AcDbLine
 10
16.459858
 20
0.7591463415
 30
0.0
 11
16.459858
 21
2.9077884289
 31
0.0
  0
LINE
  5
FE
330
1F
100
AcDbEntity
  8
0
  6
Continuous
 62
     7
370
    30
100
AcDbLine
 10
16.459858
 20
2.0677884289
 30
0.0
 11
21.159854
 21
2.0677884289
 31
0.0
  0
LINE
  5
FF
330
1F
100
AcDbEntity
  8
0
  6
Continuous
 62
     7
370
    30
100
AcDbLine
 10
21.159854
 20
2.9077884289
 30
0.0
 11
0.759854
 21
2.9077884289
 31
0.0
  0
LINE
  5
100
330
1F
100
AcDbEntity
  8
0
  6
Continuous
 62
     7
370
    30
100
AcDbLine
 10
7.759854
 20
0.7591463415
 30
0.0
 11
7.759854
 21
2.9077884289
 31
0.0
  0
LINE
  5
101
330
1F
100
AcDbEntity
  8
0
  6
Continuous
 62
     7
370
    40
100
AcDbLine
 10
21.159854
 20
0.7591463415
 30
0.0
 11
21.159854
 21
16.1591463415
 31
0.0
  0
LINE
  5
102
330
1F
100
AcDbEntity
  8
0
  6
Continuous
 62
     7
370
    40
100
AcDbLine
 10
0.759854
 20
16.1591463415
 30
0.0
 11
21.159854
 21
16.1591463415
 31
0.0
  0
LINE
  5
103
330
1F
100
AcDbEntity
  8
0
  6
Continuous
 62
     7
370
    40
100
AcDbLine
 10
0.759854
 20
16.1591463415
 30
0.0
 11
0.759854
 21
0.7591463415
 31
0.0
  0
LINE
  5
104
330
1F
100
AcDbEntity
  8
0
  6
Continuous
 62
     7
370
    40
100
AcDbLine
 10
21.159854
 20
0.7591463415
 30
0.0
 11
0.759854
 21
0.7591463415
 31
0.0
  0
INSERT
  5
105
330
1F
100
AcDbEntity
  8
DATA
100
AcDbBlockReference
  2
Mersen-Logo
 10
3.6497632286
 20
2.622645202
 30
0.0
  0
INSERT
  5
106
330
1F
100
AcDbEntity
  8
DATA
100
AcDbBlockReference
  2
mm DIM NOTE
 10
16.459858
 20
2.9077884289
 30
0.0
  0
MTEXT
  5
108
330
1F
100
AcDbEntity
  8
0
  6
Continuous
 62
     7
370
     0
100
AcDbMText
 10
17.9693975762
 20
16.4993715677
 30
0.0
 40
0.1875
 41
0.0
 71
     1
 72
     1
  1
CONTROL No:____________
  7
SLDTEXTSTYLE1
 73
     1
 44
1.0
  0
MTEXT
  5
109
330
1F
100
AcDbEntity
  8
0
  6
Continuous
 62
     7
370
     0
100
AcDbMText
 10
20.4755190593
 20
16.5394837313
 30
0.0
 40
0.1875
 41
0.0
 71
     2
 72
     1
  1
1773
  7
SLDTEXTSTYLE0
 73
     1
 44
1.0
  0
INSERT
  5
10F
330
1F
100
AcDbEntity
  8
0
  6
Continuous
 62
     7
370
     0
100
AcDbBlockReference
  2
SW_NOTE_0
 10
10.9726848623
 20
1.8105649975
 30
0.0
  0
MTEXT
  5
110
330
1F
100
AcDbEntity
  8
0
  6
Continuous
 62
     7
370
     0
100
AcDbMText
 10
5.0635591358
 20
1.0698157134
 30
0.0
 40
0.1875
 41
0.0
 71
     1
 72
     1
  1
3/2/16
  7
SLDTEXTSTYLE0
 73
     1
 44
1.0
  0
MTEXT
  5
111
330
1F
100
AcDbEntity
  8
0
  6
Continuous
 62
     7
370
     0
100
AcDbMText
 10
5.0164824317
 20
1.5742089721
 30
0.0
 40
0.1875
 41
0.0
 71
     1
 72
     1
  1
C. MCKENZIE
  7
SLDTEXTSTYLE0
 73
     1
 44
1.0
  0
MTEXT
  5
112
330
1F
100
AcDbEntity
  8
0
  6
Continuous
 62
     7
370
     0
100
AcDbMText
 10
1.5515763471
 20
1.0637691451
 30
0.0
 40
0.1875
 41
0.0
 71
     1
 72
     1
  1
3/2/16
  7
SLDTEXTSTYLE0
 73
     1
 44
1.0
  0
MTEXT
  5
113
330
1F
100
AcDbEntity
  8
0
  6
Continuous
 62
     7
370
     0
100
AcDbMText
 10
1.4913082468
 20
1.5652371
 30
0.0
 40
0.1875
 41
0.0
 71
     1
 72
     1
  1
R. LYONS
  7
SLDTEXTSTYLE0
 73
     1
 44
1.0
  0
INSERT
  5
11A
330
1F
100
AcDbEntity
  8
0
  6
Continuous
 62
     7
370
     0
100
AcDbBlockReference
  2
SW_NOTE_1
 10
17.8226624792
 20
2.4809328781
 30
0.0
  0
INSERT
  5
121
330
1F
100
AcDbEntity
  8
0
  6
Continuous
 62
     7
370
     0
100
AcDbBlockReference
  2
SW_NOTE_2
 10
4.3882495138
 20
1.303398954
 30
0.0
  0
MTEXT
  5
123
330
1F
100
AcDbEntity
  8
0
  6
Continuous
 62
     7
370
     0
100
AcDbMText
 10
5.3714580804
 20
1.9105808372
 30
0.0
 40
0.1875
 41
0.0
 71
     1
 72
     1
  1
\LDESIGN ENGINEER
  7
SLDTEXTSTYLE4
 73
     1
 44
1.0
  0
MTEXT
  5
124
330
1F
100
AcDbEntity
  8
0
  6
Continuous
 62
     7
370
     0
100
AcDbMText
 10
1.6491855019
 20
1.9034671132
 30
0.0
 40
0.1875
 41
0.0
 71
     1
 72
     1
  1
\LPRODUCT MANAGER
  7
SLDTEXTSTYLE4
 73
     1
 44
1.0
  0
INSERT
  5
12A
330
1F
100
AcDbEntity
  8
0
  6
Continuous
 62
     7
370
     0
100
AcDbBlockReference
  2
SW_NOTE_3
 10
0.86857659
 20
1.3000237121
 30
0.0
  0
INSERT
  5
132
330
1F
100
AcDbEntity
  8
0
  6
Continuous
 62
     7
370
     0
100
AcDbBlockReference
  2
SW_NOTE_4
 10
4.5871222469
 20
2.550624597
 30
0.0
  0
MTEXT
  5
134
330
1F
100
AcDbEntity
  8
0
  6
Continuous
 62
     7
370
     0
100
AcDbMText
 10
19.5143264262
 20
1.0080049377
 30
0.0
 40
0.1458333333
 41
0.0
 71
     1
 72
     1
  1
SHEET 1   OF 1
  7
SLDTEXTSTYLE6
 73
     1
 44
1.0
  0
MTEXT
  5
135
330
1F
100
AcDbEntity
  8
0
  6
Continuous
 62
     7
370
     0
100
AcDbMText
 10
19.0454874445
 20
1.8233347521
 30
0.0
 40
0.5
 41
0.0
 71
     2
 72
     1
  1
702103
  7
SLDTEXTSTYLE0
 73
     1
 44
1.0
  0
INSERT
  5
158
330
1F
100
AcDbEntity
  8
DATA
100
AcDbBlockReference
  2
SW_TABLEANNOTATION_0
 10
11.999854
 20
16.1591463415
 30
0.0
  0
LINE
  5
159
330
1F
100
AcDbEntity
  8
0
  6
Continuous
 62
     7
370
    15
100
AcDbLine
 10
14.3271145074
 20
8.8315634255
 30
0.0
 11
14.3518009356
 21
8.9715673515
 31
0.0
  0
LINE
  5
15A
330
1F
100
AcDbEntity
  8
0
  6
Continuous
 62
     7
370
    15
100
AcDbLine
 10
14.3518009356
 20
9.83156741
 30
0.0
 11
14.3271145074
 21
9.9715712994
 31
0.0
  0
LINE
  5
15B
330
1F
100
AcDbEntity
  8
0
  6
Continuous
 62
     7
370
    15
100
AcDbLine
 10
14.1943009417
 20
9.2577592587
 30
0.0
 11
14.1900109912
 21
9.1728292398
 31
0.0
  0
LINE
  5
15C
330
1F
100
AcDbEntity
  8
0
  6
Continuous
 62
     7
370
    15
100
AcDbLine
 10
14.1943009417
 20
9.8866373205
 30
0.0
 11
14.0843009657
 21
9.8866373205
 31
0.0
  0
LINE
  5
15D
330
1F
100
AcDbEntity
  8
0
  6
Continuous
 62
     7
370
    15
100
AcDbLine
 10
14.0843009657
 20
8.9164973677
 30
0.0
 11
14.1943009417
 21
8.9164973677
 31
0.0
  0
LINE
  5
15E
330
1F
100
AcDbEntity
  8
0
  6
Continuous
 62
     7
370
    15
100
AcDbLine
 10
16.0843010149
 20
9.6255160304
 30
0.0
 11
15.8343010363
 21
9.6255160304
 31
0.0
  0
LINE
  5
15F
330
1F
100
AcDbEntity
  8
0
  6
Continuous
 62
     7
370
    15
100
AcDbLine
 10
15.8343010363
 20
9.4175160599
 30
0.0
 11
16.0843010149
 21
9.4175160599
 31
0.0
  0
LINE
  5
160
330
1F
100
AcDbEntity
  8
0
  6
Continuous
 62
     7
370
    15
100
AcDbLine
 10
16.0843010149
 20
9.4104542148
 30
0.0
 11
15.8343010363
 21
9.4104542148
 31
0.0
  0
LINE
  5
161
330
1F
100
AcDbEntity
  8
0
  6
Continuous
 62
     7
370
    15
100
AcDbLine
 10
15.8343010363
 20
9.2024542443
 30
0.0
 11
16.0843010149
 21
9.2024542443
 31
0.0
  0
ARC
  5
162
330
1F
100
AcDbEntity
  8
0
  6
Continuous
 62
     7
370
    15
100
AcDbCircle
 10
13.9793009658
 20
8.8065673614
 30
0.0
 40
0.0199999999999996
100
AcDbArc
 50
90.0
 51
180.0
  0
ARC
  5
163
330
1F
100
AcDbEntity
  8
0
  6
Continuous
 62
     7
370
    15
100
AcDbCircle
 10
13.9793009658
 20
9.9965673614
 30
0.0
 40
0.0200000000000014
100
AcDbArc
 50
180.0
 51
270.0
  0
LINE
  5
164
330
1F
100
AcDbEntity
  8
0
  6
Continuous
 62
     7
370
    15
100
AcDbLine
 10
13.979300982
 20
8.8265673565
 30
0.0
 11
14.0643009968
 21
8.8265673565
 31
0.0
  0
LINE
  5
165
330
1F
100
AcDbEntity
  8
0
  6
Continuous
 62
     7
370
    15
100
AcDbLine
 10
14.0643009968
 20
9.976567295
 30
0.0
 11
13.979300982
 21
9.976567295
 31
0.0
  0
ARC
  5
166
330
1F
100
AcDbEntity
  8
0
  6
Continuous
 62
     7
370
    15
100
AcDbCircle
 10
14.0643009658
 20
9.9565673614
 30
0.0
 40
0.0199999999999996
100
AcDbArc
 50
0.0
 51
90.0
  0
ARC
  5
167
330
1F
100
AcDbEntity
  8
0
  6
Continuous
 62
     7
370
    15
100
AcDbCircle
 10
14.0643009658
 20
8.8465673614
 30
0.0
 40
0.0199999999999996
100
AcDbArc
 50
270.0
 51
0.0
  0
SPLINE
  5
168
330
1F
100
AcDbEntity
  8
0
  6
Continuous
 62
     7
370
    15
100
AcDbSpline
210
0.0
220
0.0
230
1.0
 70
     8
 71
     3
 72
     9
 73
     5
 74
     0
 42
0.000000001
 43
0.00000001
 40
0.0
 40
0.0
 40
0.0
 40
0.0
 40
0.5049048940908435
 40
0.9999999999999999
 40
0.9999999999999999
 40
0.9999999999999999
 40
0.9999999999999999
 10
14.71499576656828
 20
8.994921108373601
 30
0.0
 10
14.71973091820577
 20
9.001677943805333
 30
0.0
 10
14.72910922230406
 20
9.015060336233708
 30
0.0
 10
14.73848839324124
 20
9.028442099231976
 30
0.0
 10
14.74313197486973
 20
9.035067344600856
 30
0.0
  0
SPLINE
  5
169
330
1F
100
AcDbEntity
  8
0
  6
Continuous
 62
     7
370
    15
100
AcDbSpline
210
0.0
220
0.0
230
1.0
 70
     8
 71
     3
 72
     9
 73
     5
 74
     0
 42
0.000000001
 43
0.00000001
 40
0.0
 40
0.0
 40
0.0
 40
0.0
 40
0.5049040271403347
 40
1.0
 40
1.0
 40
1.0
 40
1.0
 10
14.64356713838455
 20
8.994921108373601
 30
0.0
 10
14.64830228158184
 20
9.001677949720865
 30
0.0
 10
14.65768058506676
 20
9.015060376843758
 30
0.0
 10
14.66705985471819
 20
9.028442104920272
 30
0.0
 10
14.67170349335098
 20
9.035067344600856
 30
0.0
  0
SPLINE
  5
16A
330
1F
100
AcDbEntity
  8
0
  6
Continuous
 62
     7
370
    15
100
AcDbSpline
210
0.0
220
0.0
230
1.0
 70
     8
 71
     3
 72
     9
 73
     5
 74
     0
 42
0.000000001
 43
0.00000001
 40
0.0
 40
0.0
 40
0.0
 40
0.0
 40
0.504904460615982
 40
1.0
 40
1.0
 40
1.0
 40
1.0
 10
14.57213858353331
 20
8.994921108373601
 30
0.0
 10
14.57687373095069
 20
9.0016779467631
 30
0.0
 10
14.58625203474226
 20
9.015060356538715
 30
0.0
 10
14.59563125503662
 20
9.028442102076117
 30
0.0
 10
14.60027486516725
 20
9.035067344600856
 30
0.0
  0
SPLINE
  5
16B
330
1F
100
AcDbEntity
  8
0
  6
Continuous
 62
     7
370
    15
100
AcDbSpline
210
0.0
220
0.0
230
1.0
 70
     8
 71
     3
 72
     9
 73
     5
 74
     0
 42
0.000000001
 43
0.00000001
 40
0.0
 40
0.0
 40
0.0
 40
0.0
 40
0.504904460615982
 40
1.0
 40
1.0
 40
1.0
 40
1.0
 10
14.50071002868208
 20
8.994921108373601
 30
0.0
 10
14.50544517609945
 20
9.0016779467631
 30
0.0
 10
14.51482347989102
 20
9.015060356538715
 30
0.0
 10
14.52420270018538
 20
9.028442102076117
 30
0.0
 10
14.52884631031602
 20
9.035067344600856
 30
0.0
  0
SPLINE
  5
16C
330
1F
100
AcDbEntity
  8
0
  6
Continuous
 62
     7
370
    15
100
AcDbSpline
210
0.0
220
0.0
230
1.0
 70
     8
 71
     3
 72
     9
 73
     5
 74
     0
 42
0.000000001
 43
0.00000001
 40
0.0
 40
0.0
 40
0.0
 40
0.0
 40
0.504904460615982
 40
1.0
 40
1.0
 40
1.0
 40
1.0
 10
14.42928147383084
 20
8.994921108373601
 30
0.0
 10
14.43401662124821
 20
9.0016779467631
 30
0.0
 10
14.44339492503978
 20
9.015060356538715
 30
0.0
 10
14.45277414533414
 20
9.028442102076117
 30
0.0
 10
14.45741775546478
 20
9.035067344600856
 30
0.0
  0
SPLINE
  5
16D
330
1F
100
AcDbEntity
  8
0
  6
Continuous
 62
     7
370
    15
100
AcDbSpline
210
0.0
220
0.0
230
1.0
 70
     8
 71
     3
 72
     9
 73
     5
 74
     0
 42
0.000000001
 43
0.00000001
 40
0.0
 40
0.0
 40
0.0
 40
0.0
 40
0.5049040271403347
 40
1.0
 40
1.0
 40
1.0
 40
1.0
 10
14.35785284564711
 20
8.994921108373601
 30
0.0
 10
14.3625879888444
 20
9.001677949720865
 30
0.0
 10
14.37196629232932
 20
9.015060376843758
 30
0.0
 10
14.38134556198075
 20
9.028442104920272
 30
0.0
 10
14.38598920061354
 20
9.035067344600856
 30
0.0
  0
SPLINE
  5
16E
330
1F
100
AcDbEntity
  8
0
  6
Continuous
 62
     7
370
    15
100
AcDbSpline
210
0.0
220
0.0
230
1.0
 70
     8
 71
     3
 72
     9
 73
     5
 74
     0
 42
0.000000001
 43
0.00000001
 40
0.0
 40
0.0
 40
0.0
 40
0.0
 40
0.4999819872542555
 40
1.0
 40
1.0
 40
1.0
 40
1.0
 10
14.70769273093357
 20
9.767675014787867
 30
0.0
 10
14.70295742034703
 20
9.7744310262275
 30
0.0
 10
14.69348645797788
 20
9.787943535901572
 30
0.0
 10
14.68401651914165
 20
9.801456785125858
 30
0.0
 10
14.67928137914393
 20
9.808213653148723
 30
0.0
  0
SPLINE
  5
16F
330
1F
100
AcDbEntity
  8
0
  6
Continuous
 62
     7
370
    15
100
AcDbSpline
210
0.0
220
0.0
230
1.0
 70
     8
 71
     3
 72
     9
 73
     5
 74
     0
 42
0.000000001
 43
0.00000001
 40
0.0
 40
0.0
 40
0.0
 40
0.0
 40
0.4999815621282198
 40
1.0
 40
1.0
 40
1.0
 40
1.0
 10
14.63626417608233
 20
9.767675014787867
 30
0.0
 10
14.631528894038
 20
9.774431029099732
 30
0.0
 10
14.62205798070236
 20
9.78794355600794
 30
0.0
 10
14.61258804172125
 20
9.801456787998303
 30
0.0
 10
14.60785289762518
 20
9.808213653148723
 30
0.0
  0
SPLINE
  5
170
330
1F
100
AcDbEntity
  8
0
  6
Continuous
 62
     7
370
    15
100
AcDbSpline
210
0.0
220
0.0
230
1.0
 70
     8
 71
     3
 72
     9
 73
     5
 74
     0
 42
0.000000001
 43
0.00000001
 40
0.0
 40
0.0
 40
0.0
 40
0.0
 40
0.4999819872542555
 40
1.0
 40
1.0
 40
1.0
 40
1.0
 10
14.56483562123109
 20
9.767675014787867
 30
0.0
 10
14.56010031064455
 20
9.7744310262275
 30
0.0
 10
14.55062934827541
 20
9.787943535901572
 30
0.0
 10
14.54115940943917
 20
9.801456785125858
 30
0.0
 10
14.53642426944145
 20
9.808213653148723
 30
0.0
  0
SPLINE
  5
171
330
1F
100
AcDbEntity
  8
0
  6
Continuous
 62
     7
370
    15
100
AcDbSpline
210
0.0
220
0.0
230
1.0
 70
     8
 71
     3
 72
     9
 73
     5
 74
     0
 42
0.000000001
 43
0.00000001
 40
0.0
 40
0.0
 40
0.0
 40
0.0
 40
0.4999819872542555
 40
1.0
 40
1.0
 40
1.0
 40
1.0
 10
14.49340706637985
 20
9.767675014787867
 30
0.0
 10
14.48867175579332
 20
9.7744310262275
 30
0.0
 10
14.47920079342416
 20
9.787943535901572
 30
0.0
 10
14.46973085458793
 20
9.801456785125858
 30
0.0
 10
14.46499571459021
 20
9.808213653148723
 30
0.0
  0
SPLINE
  5
172
330
1F
100
AcDbEntity
  8
0
  6
Continuous
 62
     7
370
    15
100
AcDbSpline
210
0.0
220
0.0
230
1.0
 70
     8
 71
     3
 72
     9
 73
     5
 74
     0
 42
0.000000001
 43
0.00000001
 40
0.0
 40
0.0
 40
0.0
 40
0.0
 40
0.4999819872542555
 40
1.0
 40
1.0
 40
1.0
 40
1.0
 10
14.42197851152861
 20
9.767675014787867
 30
0.0
 10
14.41724320094208
 20
9.7744310262275
 30
0.0
 10
14.40777223857293
 20
9.787943535901572
 30
0.0
 10
14.39830229973669
 20
9.801456785125858
 30
0.0
 10
14.39356715973897
 20
9.808213653148723
 30
0.0
  0
SPLINE
  5
173
330
1F
100
AcDbEntity
  8
0
  6
Continuous
 62
     7
370
    15
100
AcDbSpline
210
0.0
220
0.0
230
1.0
 70
     8
 71
     3
 72
     9
 73
     5
 74
     0
 42
0.000000001
 43
0.00000001
 40
0.0
 40
0.0
 40
0.0
 40
0.0
 40
0.4488114102543004
 40
1.0
 40
1.0
 40
1.0
 40
1.0
 10
14.19534372963295
 20
9.78529431791484
 30
0.0
 10
14.19472483794759
 20
9.78617727963496
 30
0.0
 10
14.19334588083726
 20
9.788144613129493
 30
0.0
 10
14.19196713804643
 20
9.790112100054698
 30
0.0
 10
14.19120719075194
 20
9.791196556398344
 30
0.0
  0
SPLINE
  5
174
330
1F
100
AcDbEntity
  8
0
  6
Continuous
 62
     7
370
    15
100
AcDbSpline
210
0.0
220
0.0
230
1.0
 70
     8
 71
     3
 72
     9
 73
     5
 74
     0
 42
0.000000001
 43
0.00000001
 40
0.0
 40
0.0
 40
0.0
 40
0.0
 40
0.4999819872542555
 40
1.0
 40
1.0
 40
1.0
 40
1.0
 10
14.7791213591173
 20
9.767675014787867
 30
0.0
 10
14.77438604853076
 20
9.7744310262275
 30
0.0
 10
14.76491508616161
 20
9.787943535901572
 30
0.0
 10
14.75544514732537
 20
9.801456785125858
 30
0.0
 10
14.75071000732765
 20
9.808213653148723
 30
0.0
  0
SPLINE
  5
175
330
1F
100
AcDbEntity
  8
0
  6
Continuous
 62
     7
370
    15
100
AcDbSpline
210
0.0
220
0.0
230
1.0
 70
     8
 71
     3
 72
     9
 73
     5
 74
     0
 42
0.000000001
 43
0.00000001
 40
0.0
 40
0.0
 40
0.0
 40
0.0
 40
0.5049040271403347
 40
1.0
 40
1.0
 40
1.0
 40
1.0
 10
14.78642424808703
 20
8.994921108373601
 30
0.0
 10
14.79115939128431
 20
9.001677949720865
 30
0.0
 10
14.80053769476924
 20
9.015060376843758
 30
0.0
 10
14.80991696442067
 20
9.028442104920272
 30
0.0
 10
14.81456060305346
 20
9.035067344600856
 30
0.0
  0
LINE
  5
176
330
1F
100
AcDbEntity
  8
0
  6
Continuous
 62
     7
370
    15
100
AcDbLine
 10
14.7062307745
 20
8.9945673525
 30
0.0
 11
14.7145139721
 21
8.9945673525
 31
0.0
  0
LINE
  5
177
330
1F
100
AcDbEntity
  8
0
  6
Continuous
 62
     7
370
    15
100
AcDbLine
 10
14.6348022196
 20
8.9945673525
 30
0.0
 11
14.6430854173
 21
8.9945673525
 31
0.0
  0
LINE
  5
178
330
1F
100
AcDbEntity
  8
0
  6
Continuous
 62
     7
370
    15
100
AcDbLine
 10
14.5633736648
 20
8.9945673525
 30
0.0
 11
14.5716568624
 21
8.9945673525
 31
0.0
  0
LINE
  5
179
330
1F
100
AcDbEntity
  8
0
  6
Continuous
 62
     7
370
    15
100
AcDbLine
 10
14.4919451099
 20
8.9945673525
 30
0.0
 11
14.5002283076
 21
8.9945673525
 31
0.0
  0
LINE
  5
17A
330
1F
100
AcDbEntity
  8
0
  6
Continuous
 62
     7
370
    15
100
AcDbLine
 10
14.4205164818
 20
8.9945673525
 30
0.0
 11
14.4287996794
 21
8.9945673525
 31
0.0
  0
LINE
  5
17B
330
1F
100
AcDbEntity
  8
0
  6
Continuous
 62
     7
370
    15
100
AcDbLine
 10
14.3490879269
 20
8.9945673525
 30
0.0
 11
14.3573711245
 21
8.9945673525
 31
0.0
  0
LINE
  5
17C
330
1F
100
AcDbEntity
  8
0
  6
Continuous
 62
     7
370
    15
100
AcDbLine
 10
14.6787997314
 20
9.8085674091
 30
0.0
 11
14.6705165337
 21
9.8085674091
 31
0.0
  0
LINE
  5
17D
330
1F
100
AcDbEntity
  8
0
  6
Continuous
 62
     7
370
    15
100
AcDbLine
 10
14.6073711032
 20
9.8085674091
 30
0.0
 11
14.5990879789
 21
9.8085674091
 31
0.0
  0
LINE
  5
17E
330
1F
100
AcDbEntity
  8
0
  6
Continuous
 62
     7
370
    15
100
AcDbLine
 10
14.5359425483
 20
9.8085674091
 30
0.0
 11
14.5276593507
 21
9.8085674091
 31
0.0
  0
LINE
  5
17F
330
1F
100
AcDbEntity
  8
0
  6
Continuous
 62
     7
370
    15
100
AcDbLine
 10
14.4645139935
 20
9.8085674091
 30
0.0
 11
14.4562307958
 21
9.8085674091
 31
0.0
  0
LINE
  5
180
330
1F
100
AcDbEntity
  8
0
  6
Continuous
 62
     7
370
    15
100
AcDbLine
 10
14.3930854386
 20
9.8085674091
 30
0.0
 11
14.384802241
 21
9.8085674091
 31
0.0
  0
LINE
  5
181
330
1F
100
AcDbEntity
  8
0
  6
Continuous
 62
     7
370
    15
100
AcDbLine
 10
14.7502282129
 20
9.8085674091
 30
0.0
 11
14.7419450152
 21
9.8085674091
 31
0.0
  0
LINE
  5
182
330
1F
100
AcDbEntity
  8
0
  6
Continuous
 62
     7
370
    15
100
AcDbLine
 10
14.7776594027
 20
8.9945673525
 30
0.0
 11
14.7859426003
 21
8.9945673525
 31
0.0
  0
SPLINE
  5
183
330
1F
100
AcDbEntity
  8
0
  6
Continuous
 62
     7
370
    15
100
AcDbSpline
210
0.0
220
0.0
230
1.0
 70
     8
 71
     3
 72
     9
 73
     5
 74
     0
 42
0.000000001
 43
0.00000001
 40
0.0
 40
0.0
 40
0.0
 40
0.0
 40
0.4999832003471221
 40
1.0
 40
1.0
 40
1.0
 40
1.0
 10
14.67733777492995
 20
9.035459746734459
 30
0.0
 10
14.68207307977301
 20
9.02870370682534
 30
0.0
 10
14.69154400767575
 20
9.015191172995346
 30
0.0
 10
14.7010139809768
 20
9.001677947925844
 30
0.0
 10
14.70574912671959
 20
8.994921108373601
 30
0.0
  0
SPLINE
  5
184
330
1F
100
AcDbEntity
  8
0
  6
Continuous
 62
     7
370
    15
100
AcDbSpline
210
0.0
220
0.0
230
1.0
 70
     8
 71
     3
 72
     9
 73
     5
 74
     0
 42
0.000000001
 43
0.00000001
 40
0.0
 40
0.0
 40
0.0
 40
0.0
 40
0.4999832003471221
 40
1.0
 40
1.0
 40
1.0
 40
1.0
 10
14.60590914674622
 20
9.035459746734459
 30
0.0
 10
14.61064445158929
 20
9.02870370682534
 30
0.0
 10
14.62011537949203
 20
9.015191172995346
 30
0.0
 10
14.62958535279307
 20
9.001677947925844
 30
0.0
 10
14.63432049853586
 20
8.994921108373601
 30
0.0
  0
SPLINE
  5
185
330
1F
100
AcDbEntity
  8
0
  6
Continuous
 62
     7
370
    15
100
AcDbSpline
210
0.0
220
0.0
230
1.0
 70
     8
 71
     3
 72
     9
 73
     5
 74
     0
 42
0.000000001
 43
0.00000001
 40
0.0
 40
0.0
 40
0.0
 40
0.0
 40
0.4999832003471221
 40
1.0
 40
1.0
 40
1.0
 40
1.0
 10
14.53448059189498
 20
9.035459746734459
 30
0.0
 10
14.53921589673805
 20
9.02870370682534
 30
0.0
 10
14.54868682464079
 20
9.015191172995346
 30
0.0
 10
14.55815679794183
 20
9.001677947925844
 30
0.0
 10
14.56289194368462
 20
8.994921108373601
 30
0.0
  0
SPLINE
  5
186
330
1F
100
AcDbEntity
  8
0
  6
Continuous
 62
     7
370
    15
100
AcDbSpline
210
0.0
220
0.0
230
1.0
 70
     8
 71
     3
 72
     9
 73
     5
 74
     0
 42
0.000000001
 43
0.00000001
 40
0.0
 40
0.0
 40
0.0
 40
0.0
 40
0.4999827752231493
 40
1.0
 40
1.0
 40
1.0
 40
1.0
 10
14.46305203704374
 20
9.035459746734459
 30
0.0
 10
14.4677873133446
 20
9.028703703953115
 30
0.0
 10
14.47725819221387
 20
9.015191152889075
 30
0.0
 10
14.48672816565977
 20
9.00167794505342
 30
0.0
 10
14.49146331550089
 20
8.994921108373601
 30
0.0
  0
SPLINE
  5
187
330
1F
100
AcDbEntity
  8
0
  6
Continuous
 62
     7
370
    15
100
AcDbSpline
210
0.0
220
0.0
230
1.0
 70
     8
 71
     3
 72
     9
 73
     5
 74
     0
 42
0.000000001
 43
0.00000001
 40
0.0
 40
0.0
 40
0.0
 40
0.0
 40
0.4999832003471221
 40
1.0
 40
1.0
 40
1.0
 40
1.0
 10
14.39162340886002
 20
9.035459746734459
 30
0.0
 10
14.39635871370309
 20
9.02870370682534
 30
0.0
 10
14.40582964160583
 20
9.015191172995346
 30
0.0
 10
14.41529961490687
 20
9.001677947925844
 30
0.0
 10
14.42003476064966
 20
8.994921108373601
 30
0.0
  0
SPLINE
  5
188
330
1F
100
AcDbEntity
  8
0
  6
Continuous
 62
     7
370
    15
100
AcDbSpline
210
0.0
220
0.0
230
1.0
 70
     8
 71
     3
 72
     9
 73
     5
 74
     0
 42
0.000000001
 43
0.00000001
 40
0.0
 40
0.0
 40
0.0
 40
0.0
 40
0.40235952040767
 40
1.0
 40
1.0
 40
1.0
 40
1.0
 10
14.18968671498327
 20
9.017840443607486
 30
0.0
 10
14.19030563099284
 20
9.016957457345418
 30
0.0
 10
14.19184384738437
 20
9.014762936730685
 30
0.0
 10
14.19338179933685
 20
9.012568227025573
 30
0.0
 10
14.19430094167933
 20
9.011256579664844
 30
0.0
  0
SPLINE
  5
189
330
1F
100
AcDbEntity
  8
0
  6
Continuous
 62
     7
370
    15
100
AcDbSpline
210
0.0
220
0.0
230
1.0
 70
     8
 71
     3
 72
     9
 73
     5
 74
     0
 42
0.000000001
 43
0.00000001
 40
0.0
 40
0.0
 40
0.0
 40
0.0
 40
0.5049050670936396
 40
1.0
 40
1.0
 40
1.0
 40
1.0
 10
14.67003473929524
 20
9.808213653148723
 30
0.0
 10
14.66529959477841
 20
9.801456788282309
 30
0.0
 10
14.65592130799653
 20
9.788074342141869
 30
0.0
 10
14.6465420705805
 20
9.774692584159457
 30
0.0
 10
14.64189845766129
 20
9.768067343588985
 30
0.0
  0
SPLINE
  5
18A
330
1F
100
AcDbEntity
  8
0
  6
Continuous
 62
     7
370
    15
100
AcDbSpline
210
0.0
220
0.0
230
1.0
 70
     8
 71
     3
 72
     9
 73
     5
 74
     0
 42
0.000000001
 43
0.00000001
 40
0.0
 40
0.0
 40
0.0
 40
0.0
 40
0.5049050670936396
 40
1.0
 40
1.0
 40
1.0
 40
1.0
 10
14.598606184444
 20
9.808213653148723
 30
0.0
 10
14.59387103992717
 20
9.801456788282309
 30
0.0
 10
14.58449275314529
 20
9.788074342141869
 30
0.0
 10
14.57511351572926
 20
9.774692584159457
 30
0.0
 10
14.57046990281006
 20
9.768067343588985
 30
0.0
  0
SPLINE
  5
18B
330
1F
100
AcDbEntity
  8
0
  6
Continuous
 62
     7
370
    15
100
AcDbSpline
210
0.0
220
0.0
230
1.0
 70
     8
 71
     3
 72
     9
 73
     5
 74
     0
 42
0.000000001
 43
0.00000001
 40
0.0
 40
0.0
 40
0.0
 40
0.0
 40
0.5049050670936396
 40
1.0
 40
1.0
 40
1.0
 40
1.0
 10
14.52717762959276
 20
9.808213653148723
 30
0.0
 10
14.52244248507593
 20
9.801456788282309
 30
0.0
 10
14.51306419829405
 20
9.788074342141869
 30
0.0
 10
14.50368496087802
 20
9.774692584159457
 30
0.0
 10
14.49904134795882
 20
9.768067343588985
 30
0.0
  0
SPLINE
  5
18C
330
1F
100
AcDbEntity
  8
0
  6
Continuous
 62
     7
370
    15
100
AcDbSpline
210
0.0
220
0.0
230
1.0
 70
     8
 71
     3
 72
     9
 73
     5
 74
     0
 42
0.000000001
 43
0.00000001
 40
0.0
 40
0.0
 40
0.0
 40
0.0
 40
0.5049046336180025
 40
1.0
 40
1.0
 40
1.0
 40
1.0
 10
14.45574907474152
 20
9.808213653148723
 30
0.0
 10
14.45101393444479
 20
9.801456785324536
 30
0.0
 10
14.4416356479696
 20
9.78807432183679
 30
0.0
 10
14.43225636119645
 20
9.7746925813153
 30
0.0
 10
14.42761271977509
 20
9.768067343588985
 30
0.0
  0
SPLINE
  5
18D
330
1F
100
AcDbEntity
  8
0
  6
Continuous
 62
     7
370
    15
100
AcDbSpline
210
0.0
220
0.0
230
1.0
 70
     8
 71
     3
 72
     9
 73
     5
 74
     0
 42
0.000000001
 43
0.00000001
 40
0.0
 40
0.0
 40
0.0
 40
0.0
 40
0.5049046336180025
 40
1.0
 40
1.0
 40
1.0
 40
1.0
 10
14.38432051989028
 20
9.808213653148723
 30
0.0
 10
14.37958537959356
 20
9.801456785324536
 30
0.0
 10
14.37020709311836
 20
9.78807432183679
 30
0.0
 10
14.36082780634521
 20
9.7746925813153
 30
0.0
 10
14.35618416492385
 20
9.768067343588985
 30
0.0
  0
SPLINE
  5
18E
330
1F
100
AcDbEntity
  8
0
  6
Continuous
 62
     7
370
    15
100
AcDbSpline
210
0.0
220
0.0
230
1.0
 70
     8
 71
     3
 72
     9
 73
     5
 74
     0
 42
0.000000001
 43
0.00000001
 40
0.0
 40
0.0
 40
0.0
 40
0.0
 40
0.874599657441775
 40
1.0
 40
1.0
 40
1.0
 40
1.0
 10
14.08668045825367
 20
9.791196556398344
 30
0.0
 10
14.08592058670616
 20
9.790112046803987
 30
0.0
 10
14.08505176456445
 20
9.788872039921836
 30
0.0
 10
14.08418256022413
 20
9.787632302825408
 30
0.0
 10
14.08407356170209
 20
9.787476839368832
 30
0.0
  0
SPLINE
  5
18F
330
1F
100
AcDbEntity
  8
0
  6
Continuous
 62
     7
370
    15
100
AcDbSpline
210
0.0
220
0.0
230
1.0
 70
     8
 71
     3
 72
     9
 73
     5
 74
     0
 42
0.000000001
 43
0.00000001
 40
0.0
 40
0.0
 40
0.0
 40
0.0
 40
0.5049046336180025
 40
1.0
 40
1.0
 40
1.0
 40
1.0
 10
14.74146336747896
 20
9.808213653148723
 30
0.0
 10
14.73672822718224
 20
9.801456785324536
 30
0.0
 10
14.72734994070704
 20
9.78807432183679
 30
0.0
 10
14.71797065393389
 20
9.7746925813153
 30
0.0
 10
14.71332701251253
 20
9.768067343588985
 30
0.0
  0
SPLINE
  5
190
330
1F
100
AcDbEntity
  8
0
  6
Continuous
 62
     7
370
    15
100
AcDbSpline
210
0.0
220
0.0
230
1.0
 70
     8
 71
     3
 72
     9
 73
     5
 74
     0
 42
0.000000001
 43
0.00000001
 40
0.0
 40
0.0
 40
0.0
 40
0.0
 40
0.4999832003471221
 40
1.0
 40
1.0
 40
1.0
 40
1.0
 10
14.7487662564487
 20
9.035459746734459
 30
0.0
 10
14.75350156129177
 20
9.02870370682534
 30
0.0
 10
14.76297248919451
 20
9.015191172995346
 30
0.0
 10
14.77244246249555
 20
9.001677947925844
 30
0.0
 10
14.77717760823834
 20
8.994921108373601
 30
0.0
  0
LINE
  5
191
330
1F
100
AcDbEntity
  8
0
  6
Continuous
 62
     7
370
    15
100
AcDbLine
 10
14.8143010061
 20
9.0350673446
 30
0.0
 11
14.834300975
 21
9.0350673446
 31
0.0
  0
LINE
  5
192
330
1F
100
AcDbEntity
  8
0
  6
Continuous
 62
     7
370
    15
100
AcDbLine
 10
14.7428723779
 20
9.0350673446
 30
0.0
 11
14.7490412533
 21
9.0350673446
 31
0.0
  0
LINE
  5
193
330
1F
100
AcDbEntity
  8
0
  6
Continuous
 62
     7
370
    15
100
AcDbLine
 10
14.6714437497
 20
9.0350673446
 30
0.0
 11
14.6776127718
 21
9.0350673446
 31
0.0
  0
LINE
  5
194
330
1F
100
AcDbEntity
  8
0
  6
Continuous
 62
     7
370
    15
100
AcDbLine
 10
14.6000152682
 20
9.0350673446
 30
0.0
 11
14.6061841436
 21
9.0350673446
 31
0.0
  0
LINE
  5
195
330
1F
100
AcDbEntity
  8
0
  6
Continuous
 62
     7
370
    15
100
AcDbLine
 10
14.5285867133
 20
9.0350673446
 30
0.0
 11
14.5347555887
 21
9.0350673446
 31
0.0
  0
LINE
  5
196
330
1F
100
AcDbEntity
  8
0
  6
Continuous
 62
     7
370
    15
100
AcDbLine
 10
14.4571580851
 20
9.0350673446
 30
0.0
 11
14.4633270339
 21
9.0350673446
 31
0.0
  0
LINE
  5
197
330
1F
100
AcDbEntity
  8
0
  6
Continuous
 62
     7
370
    15
100
AcDbLine
 10
14.3857295303
 20
9.0350673446
 30
0.0
 11
14.391898479
 21
9.0350673446
 31
0.0
  0
LINE
  5
198
330
1F
100
AcDbEntity
  8
0
  6
Continuous
 62
     7
370
    15
100
AcDbLine
 10
14.3564438353
 20
9.7680673436
 30
0.0
 11
14.3518009356
 21
9.7680673436
 31
0.0
  0
LINE
  5
199
330
1F
100
AcDbEntity
  8
0
  6
Continuous
 62
     7
370
    15
100
AcDbLine
 10
14.4278723901
 20
9.7680673436
 30
0.0
 11
14.4217034414
 21
9.7680673436
 31
0.0
  0
LINE
  5
19A
330
1F
100
AcDbEntity
  8
0
  6
Continuous
 62
     7
370
    15
100
AcDbLine
 10
14.499300945
 20
9.7680673436
 30
0.0
 11
14.4931320696
 21
9.7680673436
 31
0.0
  0
LINE
  5
19B
330
1F
100
AcDbEntity
  8
0
  6
Continuous
 62
     7
370
    15
100
AcDbLine
 10
14.5707295731
 20
9.7680673436
 30
0.0
 11
14.5645606244
 21
9.7680673436
 31
0.0
  0
LINE
  5
19C
330
1F
100
AcDbEntity
  8
0
  6
Continuous
 62
     7
370
    15
100
AcDbLine
 10
14.642158128
 20
9.7680673436
 30
0.0
 11
14.6359891793
 21
9.7680673436
 31
0.0
  0
LINE
  5
19D
330
1F
100
AcDbEntity
  8
0
  6
Continuous
 62
     7
370
    15
100
AcDbLine
 10
14.7135866095
 20
9.7680673436
 30
0.0
 11
14.7074177341
 21
9.7680673436
 31
0.0
  0
LINE
  5
19E
330
1F
100
AcDbEntity
  8
0
  6
Continuous
 62
     7
370
    15
100
AcDbLine
 10
14.834300975
 20
9.7680673436
 30
0.0
 11
14.7788463623
 21
9.7680673436
 31
0.0
  0
ARC
  5
19F
330
1F
100
AcDbEntity
  8
0
  6
Continuous
 62
     7
370
    15
100
AcDbCircle
 10
13.9793009658
 20
10.3965673614
 30
0.0
 40
0.0199999999999996
100
AcDbArc
 50
90.0
 51
180.0
  0
ARC
  5
1A0
330
1F
100
AcDbEntity
  8
0
  6
Continuous
 62
     7
370
    15
100
AcDbCircle
 10
13.9793009658
 20
10.7865673614
 30
0.0
 40
0.0199999999999996
100
AcDbArc
 50
180.0
 51
270.0
  0
ARC
  5
1A1
330
1F
100
AcDbEntity
  8
0
  6
Continuous
 62
     7
370
    15
100
AcDbCircle
 10
14.0643009658
 20
10.7465673614
 30
0.0
 40
0.0200000000000014
100
AcDbArc
 50
0.0
 51
90.0
  0
ARC
  5
1A2
330
1F
100
AcDbEntity
  8
0
  6
Continuous
 62
     7
370
    15
100
AcDbCircle
 10
14.0643009658
 20
10.4365673614
 30
0.0
 40
0.0200000000000014
100
AcDbArc
 50
270.0
 51
0.0
  0
LINE
  5
1A3
330
1F
100
AcDbEntity
  8
0
  6
Continuous
 62
     7
370
    15
100
AcDbLine
 10
13.979300982
 20
10.4165673454
 30
0.0
 11
14.0643009968
 21
10.4165673454
 31
0.0
  0
LINE
  5
1A4
330
1F
100
AcDbEntity
  8
0
  6
Continuous
 62
     7
370
    15
100
AcDbLine
 10
14.0643009968
 20
10.7665673155
 30
0.0
 11
13.979300982
 21
10.7665673155
 31
0.0
  0
LINE
  5
1A5
330
1F
100
AcDbEntity
  8
0
  6
Continuous
 62
     7
370
    15
100
AcDbLine
 10
18.8449009909
 20
9.6240160877
 30
0.0
 11
16.0843010149
 21
9.6240160877
 31
0.0
  0
LINE
  5
1A6
330
1F
100
AcDbEntity
  8
0
  6
Continuous
 62
     7
370
    15
100
AcDbLine
 10
15.8343010363
 20
9.6240160877
 30
0.0
 11
14.834300975
 21
9.6240160877
 31
0.0
  0
LINE
  5
1A7
330
1F
100
AcDbEntity
  8
0
  6
Continuous
 62
     7
370
    15
100
AcDbLine
 10
14.834300975
 20
9.4190160759
 30
0.0
 11
15.8343010363
 21
9.4190160759
 31
0.0
  0
LINE
  5
1A8
330
1F
100
AcDbEntity
  8
0
  6
Continuous
 62
     7
370
    15
100
AcDbLine
 10
16.0843010149
 20
9.4190160759
 30
0.0
 11
18.8449009909
 21
9.4190160759
 31
0.0
  0
LINE
  5
1A9
330
1F
100
AcDbEntity
  8
0
  6
Continuous
 62
     7
370
    15
100
AcDbLine
 10
14.834300975
 20
9.2026336155
 30
0.0
 11
15.8343010363
 21
9.2026336155
 31
0.0
  0
LINE
  5
1AA
330
1F
100
AcDbEntity
  8
0
  6
Continuous
 62
     7
370
    15
100
AcDbLine
 10
16.0843010149
 20
9.2026336155
 30
0.0
 11
18.8450505892
 21
9.2026336155
 31
0.0
  0
LINE
  5
1AB
330
1F
100
AcDbEntity
  8
0
  6
Continuous
 62
     7
370
    15
100
AcDbLine
 10
18.8447285129
 20
9.4076334074
 30
0.0
 11
16.0843010149
 21
9.4076334074
 31
0.0
  0
LINE
  5
1AC
330
1F
100
AcDbEntity
  8
0
  6
Continuous
 62
     7
370
    15
100
AcDbLine
 10
15.8343010363
 20
9.4076334074
 30
0.0
 11
14.834300975
 21
9.4076334074
 31
0.0
  0
LINE
  5
1AD
330
1F
100
AcDbEntity
  8
0
  6
Continuous
 62
     7
370
    15
100
AcDbLine
 10
18.8449356038
 20
9.4644653508
 30
0.0
 11
18.8449009909
 21
9.4644653508
 31
0.0
  0
LINE
  5
1AE
330
1F
100
AcDbEntity
  8
0
  6
Continuous
 62
     7
370
    15
100
AcDbLine
 10
14.1943009417
 20
9.538582348
 30
0.0
 11
14.1943009417
 21
9.5453754295
 31
0.0
  0
LINE
  5
1AF
330
1F
100
AcDbEntity
  8
0
  6
Continuous
 62
     7
370
    15
100
AcDbLine
 10
14.1743535521
 20
9.5878404389
 30
0.0
 11
14.1943009417
 21
9.5453754295
 31
0.0
  0
LINE
  5
1B0
330
1F
100
AcDbEntity
  8
0
  6
Continuous
 62
     7
370
    15
100
AcDbLine
 10
14.1743535521
 20
9.5878404389
 30
0.0
 11
14.3251247771
 21
9.5878404389
 31
0.0
  0
LINE
  5
1B1
330
1F
100
AcDbEntity
  8
0
  6
Continuous
 62
     7
370
    15
100
AcDbLine
 10
14.3420906144
 20
9.538582348
 30
0.0
 11
14.3251247771
 21
9.5878404389
 31
0.0
  0
LINE
  5
1B2
330
1F
100
AcDbEntity
  8
0
  6
Continuous
 62
     7
370
    15
100
AcDbLine
 10
14.1943009417
 20
9.538582348
 30
0.0
 11
14.3420906144
 21
9.538582348
 31
0.0
  0
LINE
  5
1B3
330
1F
100
AcDbEntity
  8
0
  6
Continuous
 62
     7
370
    15
100
AcDbLine
 10
14.3518009356
 20
9.83156741
 30
0.0
 11
14.3518009356
 21
8.9715673515
 31
0.0
  0
LINE
  5
1B4
330
1F
100
AcDbEntity
  8
0
  6
Continuous
 62
     7
370
    15
100
AcDbLine
 10
14.3251247771
 20
8.8315673488
 30
0.0
 11
14.3420906144
 21
8.9300836407
 31
0.0
  0
LINE
  5
1B5
330
1F
100
AcDbEntity
  8
0
  6
Continuous
 62
     7
370
    15
100
AcDbLine
 10
14.3420906144
 20
9.0670986079
 30
0.0
 11
14.3420906144
 21
8.9300836407
 31
0.0
  0
LINE
  5
1B6
330
1F
100
AcDbEntity
  8
0
  6
Continuous
 62
     7
370
    15
100
AcDbLine
 10
14.3420906144
 20
9.0670986079
 30
0.0
 11
14.3251247771
 21
9.0178404436
 31
0.0
  0
LINE
  5
1B7
330
1F
100
AcDbEntity
  8
0
  6
Continuous
 62
     7
370
    15
100
AcDbLine
 10
14.3251247771
 20
9.0178404436
 30
0.0
 11
14.3251247771
 21
9.2152942493
 31
0.0
  0
LINE
  5
1B8
330
1F
100
AcDbEntity
  8
0
  6
Continuous
 62
     7
370
    15
100
AcDbLine
 10
14.3251247771
 20
9.2152942493
 30
0.0
 11
14.3420906144
 21
9.2645524136
 31
0.0
  0
LINE
  5
1B9
330
1F
100
AcDbEntity
  8
0
  6
Continuous
 62
     7
370
    15
100
AcDbLine
 10
14.3420906144
 20
9.538582348
 30
0.0
 11
14.3420906144
 21
9.2645524136
 31
0.0
  0
LINE
  5
1BA
330
1F
100
AcDbEntity
  8
0
  6
Continuous
 62
     7
370
    15
100
AcDbLine
 10
14.3251247771
 20
9.5878404389
 30
0.0
 11
14.3251247771
 21
9.7852943179
 31
0.0
  0
LINE
  5
1BB
330
1F
100
AcDbEntity
  8
0
  6
Continuous
 62
     7
370
    15
100
AcDbLine
 10
14.3251247771
 20
9.7852943179
 30
0.0
 11
14.3420906144
 21
9.7360361536
 31
0.0
  0
LINE
  5
1BC
330
1F
100
AcDbEntity
  8
0
  6
Continuous
 62
     7
370
    15
100
AcDbLine
 10
14.3420906144
 20
9.8730511575
 30
0.0
 11
14.3420906144
 21
9.7360361536
 31
0.0
  0
LINE
  5
1BD
330
1F
100
AcDbEntity
  8
0
  6
Continuous
 62
     7
370
    15
100
AcDbLine
 10
14.3420906144
 20
9.8730511575
 30
0.0
 11
14.3251247771
 21
9.9715673394
 31
0.0
  0
LINE
  5
1BE
330
1F
100
AcDbEntity
  8
0
  6
Continuous
 62
     7
370
    15
100
AcDbLine
 10
14.1943009417
 20
9.7852943179
 30
0.0
 11
14.1743535521
 21
9.5878404389
 31
0.0
  0
LINE
  5
1BF
330
1F
100
AcDbEntity
  8
0
  6
Continuous
 62
     7
370
    15
100
AcDbLine
 10
14.3251247771
 20
9.7852943179
 30
0.0
 11
14.1943009417
 21
9.7852943179
 31
0.0
  0
LINE
  5
1C0
330
1F
100
AcDbEntity
  8
0
  6
Continuous
 62
     7
370
    15
100
AcDbLine
 10
14.1943009417
 20
9.2152942493
 30
0.0
 11
14.1743535521
 21
9.0178404436
 31
0.0
  0
LINE
  5
1C1
330
1F
100
AcDbEntity
  8
0
  6
Continuous
 62
     7
370
    15
100
AcDbLine
 10
14.3251247771
 20
9.2152942493
 30
0.0
 11
14.1943009417
 21
9.2152942493
 31
0.0
  0
LINE
  5
1C2
330
1F
100
AcDbEntity
  8
0
  6
Continuous
 62
     7
370
    15
100
AcDbLine
 10
14.1743535521
 20
9.0178404436
 30
0.0
 11
14.3251247771
 21
9.0178404436
 31
0.0
  0
LINE
  5
1C3
330
1F
100
AcDbEntity
  8
0
  6
Continuous
 62
     7
370
    15
100
AcDbLine
 10
14.1943009417
 20
9.2152942493
 30
0.0
 11
14.1943009417
 21
9.2577592587
 31
0.0
  0
LINE
  5
1C4
330
1F
100
AcDbEntity
  8
0
  6
Continuous
 62
     7
370
    15
100
AcDbLine
 10
14.1943009417
 20
9.2645524136
 30
0.0
 11
14.1943009417
 21
9.2577592587
 31
0.0
  0
LINE
  5
1C5
330
1F
100
AcDbEntity
  8
0
  6
Continuous
 62
     7
370
    15
100
AcDbLine
 10
14.3420906144
 20
9.2645524136
 30
0.0
 11
14.1943009417
 21
9.2645524136
 31
0.0
  0
LINE
  5
1C6
330
1F
100
AcDbEntity
  8
0
  6
Continuous
 62
     7
370
    15
100
AcDbLine
 10
14.1943009417
 20
9.2645524136
 30
0.0
 11
14.1943009417
 21
9.538582348
 31
0.0
  0
LINE
  5
1C7
330
1F
100
AcDbEntity
  8
0
  6
Continuous
 62
     7
370
    15
100
AcDbLine
 10
14.3420906144
 20
8.9300836407
 30
0.0
 11
14.1943009417
 21
8.9300836407
 31
0.0
  0
LINE
  5
1C8
330
1F
100
AcDbEntity
  8
0
  6
Continuous
 62
     7
370
    15
100
AcDbLine
 10
14.1943009417
 20
8.9300836407
 30
0.0
 11
14.1943009417
 21
9.0167736026
 31
0.0
  0
LINE
  5
1C9
330
1F
100
AcDbEntity
  8
0
  6
Continuous
 62
     7
370
    15
100
AcDbLine
 10
14.1943009417
 20
9.8730511575
 30
0.0
 11
14.3420906144
 21
9.8730511575
 31
0.0
  0
LINE
  5
1CA
330
1F
100
AcDbEntity
  8
0
  6
Continuous
 62
     7
370
    15
100
AcDbLine
 10
14.1943009417
 20
9.7872019892
 30
0.0
 11
14.1943009417
 21
9.8730511575
 31
0.0
  0
LINE
  5
1CB
330
1F
100
AcDbEntity
  8
0
  6
Continuous
 62
     7
370
    15
100
AcDbLine
 10
14.1743535521
 20
9.9715673394
 30
0.0
 11
14.1943009417
 21
9.8866373205
 31
0.0
  0
LINE
  5
1CC
330
1F
100
AcDbEntity
  8
0
  6
Continuous
 62
     7
370
    15
100
AcDbLine
 10
14.1743535521
 20
9.9715673394
 30
0.0
 11
14.3251247771
 21
9.9715673394
 31
0.0
  0
LINE
  5
1CD
330
1F
100
AcDbEntity
  8
0
  6
Continuous
 62
     7
370
    15
100
AcDbLine
 10
14.1943009417
 20
9.8730511575
 30
0.0
 11
14.1943009417
 21
9.8866373205
 31
0.0
  0
LINE
  5
1CE
330
1F
100
AcDbEntity
  8
0
  6
Continuous
 62
     7
370
    15
100
AcDbLine
 10
14.1943009417
 20
8.8315673488
 30
0.0
 11
14.1943009417
 21
8.9164973677
 31
0.0
  0
LINE
  5
1CF
330
1F
100
AcDbEntity
  8
0
  6
Continuous
 62
     7
370
    15
100
AcDbLine
 10
14.3251247771
 20
8.8315673488
 30
0.0
 11
14.1943009417
 21
8.8315673488
 31
0.0
  0
LINE
  5
1D0
330
1F
100
AcDbEntity
  8
0
  6
Continuous
 62
     7
370
    15
100
AcDbLine
 10
14.1943009417
 20
8.9300836407
 30
0.0
 11
14.1943009417
 21
8.9164973677
 31
0.0
  0
LINE
  5
1D1
330
1F
100
AcDbEntity
  8
0
  6
Continuous
 62
     7
370
    15
100
AcDbLine
 10
14.1743535521
 20
8.8315673488
 30
0.0
 11
14.1943009417
 21
8.9164973677
 31
0.0
  0
LINE
  5
1D2
330
1F
100
AcDbEntity
  8
0
  6
Continuous
 62
     7
370
    15
100
AcDbLine
 10
14.1943009417
 20
8.8315673488
 30
0.0
 11
14.1743535521
 21
8.8315673488
 31
0.0
  0
LINE
  5
1D3
330
1F
100
AcDbEntity
  8
0
  6
Continuous
 62
     7
370
    15
100
AcDbLine
 10
14.1943009417
 20
9.4015673441
 30
0.0
 11
14.1943009417
 21
9.538582348
 31
0.0
  0
LINE
  5
1D4
330
1F
100
AcDbEntity
  8
0
  6
Continuous
 62
     7
370
    15
100
AcDbLine
 10
14.1943009417
 20
9.7863375459
 30
0.0
 11
14.1943009417
 21
9.8730511575
 31
0.0
  0
LINE
  5
1D5
330
1F
100
AcDbEntity
  8
0
  6
Continuous
 62
     7
370
    15
100
AcDbLine
 10
14.1943009417
 20
8.9300836407
 30
0.0
 11
14.1943009417
 21
9.0167714026
 31
0.0
  0
LINE
  5
1D6
330
1F
100
AcDbEntity
  8
0
  6
Continuous
 62
     7
370
    15
100
AcDbLine
 10
14.1943009417
 20
9.2645524136
 30
0.0
 11
14.1943009417
 21
9.4015673441
 31
0.0
  0
LINE
  5
1D7
330
1F
100
AcDbEntity
  8
0
  6
Continuous
 62
     7
370
    15
100
AcDbLine
 10
15.965642599
 20
9.4868214192
 30
0.0
 11
15.9394321018
 21
9.524237047
 31
0.0
  0
LINE
  5
1D8
330
1F
100
AcDbEntity
  8
0
  6
Continuous
 62
     7
370
    15
100
AcDbLine
 10
15.965642599
 20
9.4868214192
 30
0.0
 11
15.965642599
 21
9.4866537812
 31
0.0
  0
LINE
  5
1D9
330
1F
100
AcDbEntity
  8
0
  6
Continuous
 62
     7
370
    15
100
AcDbLine
 10
15.965642599
 20
9.4866537812
 30
0.0
 11
15.9394321018
 21
9.5242501735
 31
0.0
  0
LINE
  5
1DA
330
1F
100
AcDbEntity
  8
0
  6
Continuous
 62
     7
370
    15
100
AcDbLine
 10
15.9392910101
 20
9.5547936673
 30
0.0
 11
15.9626098607
 21
9.5214248195
 31
0.0
  0
LINE
  5
1DB
330
1F
100
AcDbEntity
  8
0
  6
Continuous
 62
     7
370
    15
100
AcDbLine
 10
15.9392910101
 20
9.5547936673
 30
0.0
 11
15.9392910101
 21
9.5549544122
 31
0.0
  0
LINE
  5
1DC
330
1F
100
AcDbEntity
  8
0
  6
Continuous
 62
     7
370
    15
100
AcDbLine
 10
15.9392910101
 20
9.5549544122
 30
0.0
 11
15.965642599
 21
9.5170636632
 31
0.0
  0
LINE
  5
1DD
330
1F
100
AcDbEntity
  8
0
  6
Continuous
 62
     7
370
    15
100
AcDbLine
 10
16.0843010149
 20
9.5215161184
 30
0.0
 11
16.0843010149
 21
9.6255160304
 31
0.0
  0
LINE
  5
1DE
330
1F
100
AcDbEntity
  8
0
  6
Continuous
 62
     7
370
    15
100
AcDbLine
 10
16.0843010149
 20
9.4175160599
 30
0.0
 11
16.0843010149
 21
9.5215161184
 31
0.0
  0
LINE
  5
1DF
330
1F
100
AcDbEntity
  8
0
  6
Continuous
 62
     7
370
    15
100
AcDbLine
 10
15.8343010363
 20
9.5215161184
 30
0.0
 11
15.8343010363
 21
9.6255160304
 31
0.0
  0
LINE
  5
1E0
330
1F
100
AcDbEntity
  8
0
  6
Continuous
 62
     7
370
    15
100
AcDbLine
 10
15.8343010363
 20
9.4175160599
 30
0.0
 11
15.8343010363
 21
9.5215161184
 31
0.0
  0
LINE
  5
1E1
330
1F
100
AcDbEntity
  8
0
  6
Continuous
 62
     7
370
    15
100
AcDbLine
 10
15.9864303055
 20
9.4866537812
 30
0.0
 11
15.965642599
 21
9.4866537812
 31
0.0
  0
LINE
  5
1E2
330
1F
100
AcDbEntity
  8
0
  6
Continuous
 62
     7
370
    15
100
AcDbLine
 10
15.9864303055
 20
9.5549544122
 30
0.0
 11
15.9864303055
 21
9.4866537812
 31
0.0
  0
LINE
  5
1E3
330
1F
100
AcDbEntity
  8
0
  6
Continuous
 62
     7
370
    15
100
AcDbLine
 10
15.965642599
 20
9.5549544122
 30
0.0
 11
15.9864303055
 21
9.5549544122
 31
0.0
  0
LINE
  5
1E4
330
1F
100
AcDbEntity
  8
0
  6
Continuous
 62
     7
370
    15
100
AcDbLine
 10
15.965642599
 20
9.5549544122
 30
0.0
 11
15.965642599
 21
9.5170636632
 31
0.0
  0
LINE
  5
1E5
330
1F
100
AcDbEntity
  8
0
  6
Continuous
 62
     7
370
    15
100
AcDbLine
 10
15.9195481448
 20
9.5549544122
 30
0.0
 11
15.9392910101
 21
9.5549544122
 31
0.0
  0
LINE
  5
1E6
330
1F
100
AcDbEntity
  8
0
  6
Continuous
 62
     7
370
    15
100
AcDbLine
 10
15.9195481448
 20
9.5549544122
 30
0.0
 11
15.9195481448
 21
9.4866537812
 31
0.0
  0
LINE
  5
1E7
330
1F
100
AcDbEntity
  8
0
  6
Continuous
 62
     7
370
    15
100
AcDbLine
 10
15.9394321018
 20
9.4866537812
 30
0.0
 11
15.9195481448
 21
9.4866537812
 31
0.0
  0
LINE
  5
1E8
330
1F
100
AcDbEntity
  8
0
  6
Continuous
 62
     7
370
    15
100
AcDbLine
 10
15.9394321018
 20
9.5242501735
 30
0.0
 11
15.9394321018
 21
9.4866537812
 31
0.0
  0
LINE
  5
1E9
330
1F
100
AcDbEntity
  8
0
  6
Continuous
 62
     7
370
    15
100
AcDbLine
 10
15.9195481448
 20
9.5547936673
 30
0.0
 11
15.9392910101
 21
9.5547936673
 31
0.0
  0
LINE
  5
1EA
330
1F
100
AcDbEntity
  8
0
  6
Continuous
 62
     7
370
    15
100
AcDbLine
 10
15.965642599
 20
9.5547936673
 30
0.0
 11
15.9864303055
 21
9.5547936673
 31
0.0
  0
LINE
  5
1EB
330
1F
100
AcDbEntity
  8
0
  6
Continuous
 62
     7
370
    15
100
AcDbLine
 10
15.9864303055
 20
9.4868214192
 30
0.0
 11
15.965642599
 21
9.4868214192
 31
0.0
  0
LINE
  5
1EC
330
1F
100
AcDbEntity
  8
0
  6
Continuous
 62
     7
370
    15
100
AcDbLine
 10
15.9394321018
 20
9.4868214192
 30
0.0
 11
15.9195481448
 21
9.4868214192
 31
0.0
  0
SPLINE
  5
1ED
330
1F
100
AcDbEntity
  8
0
  6
Continuous
 62
     7
370
    15
100
AcDbSpline
210
0.0
220
0.0
230
1.0
 70
     8
 71
     3
 72
    10
 73
     6
 74
     0
 42
0.000000001
 43
0.00000001
 40
0.0
 40
0.0
 40
0.0
 40
0.0
 40
0.2475689281377483
 40
0.4994507456614492
 40
1.0
 40
1.0
 40
1.0
 40
1.0
 10
16.02106083879312
 20
9.328727798876894
 30
0.0
 10
16.02076845853548
 20
9.326182288070992
 30
0.0
 10
16.02017860447427
 20
9.321046921207062
 30
0.0
 10
16.01435388569454
 20
9.3120602904564
 30
0.0
 10
16.00795051491858
 20
9.307443255537487
 30
0.0
 10
16.00369071945422
 20
9.30437180690606
 30
0.0
  0
LINE
  5
1EE
330
1F
100
AcDbEntity
  8
0
  6
Continuous
 62
     7
370
    15
100
AcDbLine
 10
16.0036907195
 20
9.3043718069
 30
0.0
 11
16.0036907195
 21
9.3043817801
 31
0.0
  0
LINE
  5
1EF
330
1F
100
AcDbEntity
  8
0
  6
Continuous
 62
     7
370
    15
100
AcDbLine
 10
16.0063999148
 20
9.3066874268
 30
0.0
 11
16.0036907195
 21
9.3043817801
 31
0.0
  0
LINE
  5
1F0
330
1F
100
AcDbEntity
  8
0
  6
Continuous
 62
     7
370
    15
100
AcDbLine
 10
16.0210608388
 20
9.3287277989
 30
0.0
 11
16.0210608388
 21
9.3286207334
 31
0.0
  0
LINE
  5
1F1
330
1F
100
AcDbEntity
  8
0
  6
Continuous
 62
     7
370
    15
100
AcDbLine
 10
16.0036907195
 20
9.3043718069
 30
0.0
 11
15.9911787307
 21
9.2947791844
 31
0.0
  0
LINE
  5
1F2
330
1F
100
AcDbEntity
  8
0
  6
Continuous
 62
     7
370
    15
100
AcDbLine
 10
15.9911787307
 20
9.2947791844
 30
0.0
 11
15.9911787307
 21
9.2948352837
 31
0.0
  0
LINE
  5
1F3
330
1F
100
AcDbEntity
  8
0
  6
Continuous
 62
     7
370
    15
100
AcDbLine
 10
16.0036907195
 20
9.3043817801
 30
0.0
 11
15.9911787307
 21
9.2948352837
 31
0.0
  0
LINE
  5
1F4
330
1F
100
AcDbEntity
  8
0
  6
Continuous
 62
     7
370
    15
100
AcDbLine
 10
16.0843010149
 20
9.3064542295
 30
0.0
 11
16.0843010149
 21
9.4104542148
 31
0.0
  0
LINE
  5
1F5
330
1F
100
AcDbEntity
  8
0
  6
Continuous
 62
     7
370
    15
100
AcDbLine
 10
16.0843010149
 20
9.2024542443
 30
0.0
 11
16.0843010149
 21
9.3064542295
 31
0.0
  0
LINE
  5
1F6
330
1F
100
AcDbEntity
  8
0
  6
Continuous
 62
     7
370
    15
100
AcDbLine
 10
15.8343010363
 20
9.3064542295
 30
0.0
 11
15.8343010363
 21
9.4104542148
 31
0.0
  0
LINE
  5
1F7
330
1F
100
AcDbEntity
  8
0
  6
Continuous
 62
     7
370
    15
100
AcDbLine
 10
15.8343010363
 20
9.2024542443
 30
0.0
 11
15.8343010363
 21
9.3064542295
 31
0.0
  0
LINE
  5
1F8
330
1F
100
AcDbEntity
  8
0
  6
Continuous
 62
     7
370
    15
100
AcDbLine
 10
15.9243528893
 20
9.3469770281
 30
0.0
 11
15.9243528893
 21
9.295677654
 31
0.0
  0
LINE
  5
1F9
330
1F
100
AcDbEntity
  8
0
  6
Continuous
 62
     7
370
    15
100
AcDbLine
 10
15.9026614332
 20
9.3469770281
 30
0.0
 11
15.9243528893
 21
9.3469770281
 31
0.0
  0
LINE
  5
1FA
330
1F
100
AcDbEntity
  8
0
  6
Continuous
 62
     7
370
    15
100
AcDbLine
 10
15.9026614332
 20
9.3469770281
 30
0.0
 11
15.9026614332
 21
9.2788217421
 31
0.0
  0
LINE
  5
1FB
330
1F
100
AcDbEntity
  8
0
  6
Continuous
 62
     7
370
    15
100
AcDbLine
 10
15.9577939697
 20
9.2788217421
 30
0.0
 11
15.9026614332
 21
9.2788217421
 31
0.0
  0
LINE
  5
1FC
330
1F
100
AcDbEntity
  8
0
  6
Continuous
 62
     7
370
    15
100
AcDbLine
 10
15.9577939697
 20
9.295677654
 30
0.0
 11
15.9577939697
 21
9.2788217421
 31
0.0
  0
LINE
  5
1FD
330
1F
100
AcDbEntity
  8
0
  6
Continuous
 62
     7
370
    15
100
AcDbLine
 10
15.9243528893
 20
9.295677654
 30
0.0
 11
15.9577939697
 21
9.295677654
 31
0.0
  0
LINE
  5
1FE
330
1F
100
AcDbEntity
  8
0
  6
Continuous
 62
     7
370
    15
100
AcDbLine
 10
16.0219648817
 20
9.2947791844
 30
0.0
 11
16.0219648817
 21
9.2788217421
 31
0.0
  0
LINE
  5
1FF
330
1F
100
AcDbEntity
  8
0
  6
Continuous
 62
     7
370
    15
100
AcDbLine
 10
15.9911787307
 20
9.2947791844
 30
0.0
 11
16.0219648817
 21
9.2947791844
 31
0.0
  0
SPLINE
  5
200
330
1F
100
AcDbEntity
  8
0
  6
Continuous
 62
     7
370
    15
100
AcDbSpline
210
0.0
220
0.0
230
1.0
 70
     8
 71
     3
 72
    13
 73
     9
 74
     0
 42
0.000000001
 43
0.00000001
 40
0.0
 40
0.0
 40
0.0
 40
0.0
 40
0.250607155384943
 40
0.4998870424648615
 40
0.6245223093836635
 40
0.7499884471147389
 40
0.8749314947707713
 40
1.0
 40
1.0
 40
1.0
 40
1.0
 10
15.9930428424594
 20
9.34780781179629
 30
0.0
 10
15.99629077621019
 20
9.347732851170193
 30
0.0
 10
16.00276944197019
 20
9.34758332692527
 30
0.0
 10
16.01077025760294
 20
9.345407156771092
 30
0.0
 10
16.0158978428315
 20
9.34158561997381
 30
0.0
 10
16.01882844304244
 20
9.337862442325408
 30
0.0
 10
16.02074905172939
 20
9.333482799973833
 30
0.0
 10
16.02095687500947
 20
9.330313329396825
 30
0.0
 10
16.02106083879312
 20
9.328727798876894
 30
0.0
  0
SPLINE
  5
201
330
1F
100
AcDbEntity
  8
0
  6
Continuous
 62
     7
370
    15
100
AcDbSpline
210
0.0
220
0.0
230
1.0
 70
     8
 71
     3
 72
    13
 73
     9
 74
     0
 42
0.000000001
 43
0.00000001
 40
0.0
 40
0.0
 40
0.0
 40
0.0
 40
0.24977177459229
 40
0.3754983459385038
 40
0.4996258914110033
 40
0.6204713369998484
 40
0.7497349210851529
 40
1.0
 40
1.0
 40
1.0
 40
1.0
 10
15.96502455279574
 20
9.326834207418491
 30
0.0
 10
15.96562560881931
 20
9.330069172937398
 30
0.0
 10
15.96652921589437
 20
9.334932509491335
 30
0.0
 10
15.9700001052929
 20
9.340461628243178
 30
0.0
 10
15.97368019427799
 20
9.34365823870907
 30
0.0
 10
15.97811572597219
 20
9.345883862395265
 30
0.0
 10
15.98459332159251
 20
9.347589365051196
 30
0.0
 10
15.98968520349634
 20
9.347721006246694
 30
0.0
 10
15.9930428424594
 20
9.34780781179629
 30
0.0
  0
LINE
  5
202
330
1F
100
AcDbEntity
  8
0
  6
Continuous
 62
     7
370
    15
100
AcDbLine
 10
15.9840044669
 20
9.3253781176
 30
0.0
 11
15.9650245528
 21
9.3268342074
 31
0.0
  0
SPLINE
  5
203
330
1F
100
AcDbEntity
  8
0
  6
Continuous
 62
     7
370
    15
100
AcDbSpline
210
0.0
220
0.0
230
1.0
 70
     8
 71
     3
 72
    12
 73
     8
 74
     0
 42
0.000000001
 43
0.00000001
 40
0.0
 40
0.0
 40
0.0
 40
0.0
 40
0.2495373092146198
 40
0.376965902167864
 40
0.4999260099259442
 40
0.7493670616926835
 40
0.9999999999999999
 40
0.9999999999999999
 40
0.9999999999999999
 40
0.9999999999999999
 10
15.99353710341632
 20
9.335052799143286
 30
0.0
 10
15.99225000193024
 20
9.334950991116639
 30
0.0
 10
15.99030562986655
 20
9.334797193855888
 30
0.0
 10
15.9880250459949
 20
9.333615128824453
 30
0.0
 10
15.98610847050954
 20
9.331951687654032
 30
0.0
 10
15.98469987665476
 20
9.329071726017098
 30
0.0
 10
15.98423663816327
 20
9.326611275150414
 30
0.0
 10
15.98400446687148
 20
9.325378117572699
 30
0.0
  0
SPLINE
  5
204
330
1F
100
AcDbEntity
  8
0
  6
Continuous
 62
     7
370
    15
100
AcDbSpline
210
0.0
220
0.0
230
1.0
 70
     8
 71
     3
 72
    13
 73
     9
 74
     0
 42
0.000000001
 43
0.00000001
 40
0.0
 40
0.0
 40
0.0
 40
0.0
 40
0.1252820849320022
 40
0.2503667756002894
 40
0.3723967125712765
 40
0.500735351274656
 40
0.7501034032245353
 40
0.9999999999999999
 40
0.9999999999999999
 40
0.9999999999999999
 40
0.9999999999999999
 10
16.00208092471737
 20
9.327788849723715
 30
0.0
 10
16.00204961384618
 20
9.328305178907272
 30
0.0
 10
16.00198704143716
 20
9.329337023746902
 30
0.0
 10
16.00143958897841
 20
9.330787807705242
 30
0.0
 10
16.0005722992092
 20
9.332081498851688
 30
0.0
 10
15.99907390920156
 20
9.333516075755574
 30
0.0
 10
15.99671157730171
 20
9.33483577865214
 30
0.0
 10
15.9945960079249
 20
9.334980407942467
 30
0.0
 10
15.99353710341632
 20
9.335052799143286
 30
0.0
  0
SPLINE
  5
205
330
1F
100
AcDbEntity
  8
0
  6
Continuous
 62
     7
370
    15
100
AcDbSpline
210
0.0
220
0.0
230
1.0
 70
     8
 71
     3
 72
    12
 73
     8
 74
     0
 42
0.000000001
 43
0.00000001
 40
0.0
 40
0.0
 40
0.0
 40
0.0
 40
0.5004159377015075
 40
0.7500421292001664
 40
0.8749685308316785
 40
0.9374473617098316
 40
1.0
 40
1.0
 40
1.0
 40
1.0
 10
15.98836833645969
 20
9.31254485915693
 30
0.0
 10
15.99123119576628
 20
9.314625108543348
 30
0.0
 10
15.99552215640149
 20
9.317743064150884
 30
0.0
 10
15.99996542962334
 20
9.322116574190366
 30
0.0
 10
16.00147521300299
 20
9.324811813818163
 30
0.0
 10
16.00200370920048
 20
9.326485553688817
 30
0.0
 10
16.00205517608459
 20
9.327354246779146
 30
0.0
 10
16.00208092471737
 20
9.327788849723715
 30
0.0
  0
SPLINE
  5
206
330
1F
100
AcDbEntity
  8
0
  6
Continuous
 62
     7
370
    15
100
AcDbSpline
210
0.0
220
0.0
230
1.0
 70
     8
 71
     3
 72
    10
 73
     6
 74
     0
 42
0.000000001
 43
0.00000001
 40
0.0
 40
0.0
 40
0.0
 40
0.0
 40
0.2479723472201238
 40
0.4996462055731375
 40
1.0
 40
1.0
 40
1.0
 40
1.0
 10
15.96321676034618
 20
9.278821742062588
 30
0.0
 10
15.96394802570302
 20
9.282283014871766
 30
0.0
 10
15.96542147209698
 20
9.289257227298863
 30
0.0
 10
15.97361427036135
 20
9.301631607676244
 30
0.0
 10
15.98247376418541
 20
9.308184776372189
 30
0.0
 10
15.98836833645969
 20
9.31254485915693
 30
0.0
  0
LINE
  5
207
330
1F
100
AcDbEntity
  8
0
  6
Continuous
 62
     7
370
    15
100
AcDbLine
 10
16.0219648817
 20
9.2788217421
 30
0.0
 11
15.9632167603
 21
9.2788217421
 31
0.0
  0
LINE
  5
208
330
1F
100
AcDbEntity
  8
0
  6
Continuous
 62
     7
370
    15
100
AcDbLine
 10
15.9883683365
 20
9.3125448592
 30
0.0
 11
15.9883683365
 21
9.3125155262
 31
0.0
  0
LINE
  5
209
330
1F
100
AcDbEntity
  8
0
  6
Continuous
 62
     7
370
    15
100
AcDbLine
 10
15.9807798908
 20
9.3059667885
 30
0.0
 11
15.9883683365
 21
9.3125155262
 31
0.0
  0
LINE
  5
20A
330
1F
100
AcDbEntity
  8
0
  6
Continuous
 62
     7
370
    15
100
AcDbLine
 10
16.0020809247
 20
9.3277888497
 30
0.0
 11
16.0020809247
 21
9.3276862576
 31
0.0
  0
SPLINE
  5
20B
330
1F
100
AcDbEntity
  8
0
  6
Continuous
 62
     7
370
    15
100
AcDbSpline
210
0.0
220
0.0
230
1.0
 70
     8
 71
     3
 72
    12
 73
     8
 74
     0
 42
0.000000001
 43
0.00000001
 40
0.0
 40
0.0
 40
0.0
 40
0.0
 40
0.5008089124643879
 40
0.7504330432188372
 40
0.8752179054471144
 40
0.9375834075566867
 40
1.0
 40
1.0
 40
1.0
 40
1.0
 10
15.98836833645969
 20
9.312515526162453
 30
0.0
 10
15.99123069406662
 20
9.314585452582653
 30
0.0
 10
15.99551977055125
 20
9.317687116998139
 30
0.0
 10
15.99996403555999
 20
9.322039305029294
 30
0.0
 10
16.00147495698798
 20
9.324722871370536
 30
0.0
 10
16.00200367271804
 20
9.326388986423098
 30
0.0
 10
16.00205516702304
 20
9.327253715840818
 30
0.0
 10
16.00208092471737
 20
9.327686257575536
 30
0.0
  0
LINE
  5
20C
330
1F
100
AcDbEntity
  8
0
  6
Continuous
 62
     7
370
    15
100
AcDbLine
 10
16.0219648817
 20
9.2789546205
 30
0.0
 11
15.9632167603
 21
9.2789546205
 31
0.0
  0
SPLINE
  5
20D
330
1F
100
AcDbEntity
  8
0
  6
Continuous
 62
     7
370
    15
100
AcDbSpline
210
0.0
220
0.0
230
1.0
 70
     8
 71
     3
 72
    13
 73
     9
 74
     0
 42
0.000000001
 43
0.00000001
 40
0.0
 40
0.0
 40
0.0
 40
0.0
 40
0.249154666906653
 40
0.3747105679634108
 40
0.4987986001110348
 40
0.6197792210482107
 40
0.7492330762406415
 40
1.0
 40
1.0
 40
1.0
 40
1.0
 10
15.96502455279574
 20
9.326736235216941
 30
0.0
 10
15.96562602873641
 20
9.329956351735113
 30
0.0
 10
15.96653060497472
 20
9.334799173683475
 30
0.0
 10
15.97000222583384
 20
9.340300845499652
 30
0.0
 10
15.97368296887089
 20
9.343481106645031
 30
0.0
 10
15.97811777230895
 20
9.345694943599046
 30
0.0
 10
15.9845948543121
 20
9.347391753683386
 30
0.0
 10
15.98968544580879
 20
9.347522666515726
 30
0.0
 10
15.9930428424594
 20
9.347609007426229
 30
0.0
  0
SPLINE
  5
20E
330
1F
100
AcDbEntity
  8
0
  6
Continuous
 62
     7
370
    15
100
AcDbSpline
210
0.0
220
0.0
230
1.0
 70
     8
 71
     3
 72
    13
 73
     9
 74
     0
 42
0.000000001
 43
0.00000001
 40
0.0
 40
0.0
 40
0.0
 40
0.0
 40
0.2510141946458403
 40
0.5005646324788436
 40
0.6252120879109344
 40
0.7505312727100858
 40
0.8752709278849228
 40
1.0
 40
1.0
 40
1.0
 40
1.0
 10
15.9930428424594
 20
9.347609007426229
 30
0.0
 10
15.9962899529298
 20
9.347534343811407
 30
0.0
 10
16.00276523876583
 20
9.34738545197298
 30
0.0
 10
16.01076194623259
 20
9.3452236492771
 30
0.0
 10
16.01589282578974
 20
9.341422034122097
 30
0.0
 10
16.01882561052287
 20
9.337716234495257
 30
0.0
 10
16.02074853732648
 20
9.33335590773125
 30
0.0
 10
16.0209567412484
 20
9.330199080235065
 30
0.0
 10
16.02106083879312
 20
9.328620733447057
 30
0.0
  0
LINE
  5
20F
330
1F
100
AcDbEntity
  8
0
  6
Continuous
 62
     7
370
    15
100
AcDbLine
 10
15.9026614332
 20
9.3467821836
 30
0.0
 11
15.9243528893
 21
9.3467821836
 31
0.0
  0
LINE
  5
210
330
1F
100
AcDbEntity
  8
0
  6
Continuous
 62
     7
370
    15
100
AcDbLine
 10
15.9577939697
 20
9.2789546205
 30
0.0
 11
15.9026614332
 21
9.2789546205
 31
0.0
  0
SPLINE
  5
211
330
1F
100
AcDbEntity
  8
0
  6
Continuous
 62
     7
370
    15
100
AcDbSpline
210
0.0
220
0.0
230
1.0
 70
    24
 71
     3
 72
     9
 73
     5
 74
     0
 42
0.000000001
 43
0.00000001
 40
0.0
 40
0.0
 40
0.0
 40
0.0
 40
0.4999708413467549
 40
1.0
 40
1.0
 40
1.0
 40
1.0
 10
15.9930428424594
 20
9.34780781179629
 30
0.0
 10
15.9930428424594
 20
9.347774695100991
 30
0.0
 10
15.9930428424594
 20
9.347708457847613
 30
0.0
 10
15.9930428424594
 20
9.347642158855484
 30
0.0
 10
15.9930428424594
 20
9.347609007426229
 30
0.0
  0
LINE
  5
212
330
1F
100
AcDbEntity
  8
0
  6
Continuous
 62
     7
370
    15
100
AcDbLine
 10
15.8343010363
 20
9.4190160759
 30
0.0
 11
15.8343010363
 21
9.4104542148
 31
0.0
  0
LINE
  5
213
330
1F
100
AcDbEntity
  8
0
  6
Continuous
 62
     7
370
    15
100
AcDbLine
 10
16.0843010149
 20
9.4190160759
 30
0.0
 11
16.0843010149
 21
9.4104542148
 31
0.0
  0
LINE
  5
214
330
1F
100
AcDbEntity
  8
0
  6
Continuous
 62
     7
370
    15
100
AcDbLine
 10
11.2513009261
 20
8.4369755576
 30
0.0
 11
13.7252149723
 21
8.454862263
 31
0.0
  0
LINE
  5
215
330
1F
100
AcDbEntity
  8
0
  6
Continuous
 62
     7
370
    15
100
AcDbLine
 10
13.7252149723
 20
8.2049813672
 30
0.0
 11
13.7252149723
 21
8.454862263
 31
0.0
  0
LINE
  5
216
330
1F
100
AcDbEntity
  8
0
  6
Continuous
 62
     7
370
    15
100
AcDbLine
 10
11.2513009261
 20
8.1617990377
 30
0.0
 11
13.7252149723
 21
8.2049813672
 31
0.0
  0
LINE
  5
217
330
1F
100
AcDbEntity
  8
0
  6
Continuous
 62
     7
370
    15
100
AcDbLine
 10
11.2513009261
 20
11.381335547
 30
0.0
 11
13.7252149723
 21
11.3381532725
 31
0.0
  0
LINE
  5
218
330
1F
100
AcDbEntity
  8
0
  6
Continuous
 62
     7
370
    15
100
AcDbLine
 10
13.7252149723
 20
11.0882725325
 30
0.0
 11
13.7252149723
 21
11.3381532725
 31
0.0
  0
LINE
  5
219
330
1F
100
AcDbEntity
  8
0
  6
Continuous
 62
     7
370
    15
100
AcDbLine
 10
11.2513009261
 20
11.1061592058
 30
0.0
 11
13.7252149723
 21
11.0882725325
 31
0.0
  0
LINE
  5
21A
330
1F
100
AcDbEntity
  8
0
  6
Continuous
 62
     7
370
    15
100
AcDbLine
 10
13.7252149723
 20
8.454862263
 30
0.0
 11
13.7252149723
 21
11.0882725325
 31
0.0
  0
LINE
  5
21B
330
1F
100
AcDbEntity
  8
0
  6
Continuous
 62
     7
370
    15
100
AcDbLine
 10
13.7252149723
 20
8.454862263
 30
0.0
 11
13.9593009764
 21
8.5518238604
 31
0.0
  0
LINE
  5
21C
330
1F
100
AcDbEntity
  8
0
  6
Continuous
 62
     7
370
    15
100
AcDbLine
 10
13.9593009764
 20
8.5518238604
 30
0.0
 11
13.9593009764
 21
8.4390673621
 31
0.0
  0
LINE
  5
21D
330
1F
100
AcDbEntity
  8
0
  6
Continuous
 62
     7
370
    15
100
AcDbLine
 10
13.7252149723
 20
8.2049813672
 30
0.0
 11
13.9593009764
 21
8.4390673621
 31
0.0
  0
LINE
  5
21E
330
1F
100
AcDbEntity
  8
0
  6
Continuous
 62
     7
370
    15
100
AcDbLine
 10
13.7252149723
 20
11.0882725325
 30
0.0
 11
13.9593009764
 21
10.9913108526
 31
0.0
  0
LINE
  5
21F
330
1F
100
AcDbEntity
  8
0
  6
Continuous
 62
     7
370
    15
100
AcDbLine
 10
13.9593009764
 20
10.9913108526
 30
0.0
 11
13.9593009764
 21
8.5518238604
 31
0.0
  0
LINE
  5
220
330
1F
100
AcDbEntity
  8
0
  6
Continuous
 62
     7
370
    15
100
AcDbLine
 10
13.9593009764
 20
11.10406747
 30
0.0
 11
13.7252149723
 21
11.3381532725
 31
0.0
  0
LINE
  5
221
330
1F
100
AcDbEntity
  8
0
  6
Continuous
 62
     7
370
    15
100
AcDbLine
 10
13.9593009764
 20
11.10406747
 30
0.0
 11
13.9593009764
 21
10.9913108526
 31
0.0
  0
LINE
  5
222
330
1F
100
AcDbEntity
  8
0
  6
Continuous
 62
     7
370
    15
100
AcDbLine
 10
14.0843009657
 20
8.8465673622
 30
0.0
 11
14.0843009657
 21
9.956567326
 31
0.0
  0
SPLINE
  5
223
330
1F
100
AcDbEntity
  8
0
  6
Continuous
 62
     7
370
    15
100
AcDbSpline
210
0.0
220
0.0
230
1.0
 70
     8
 71
     3
 72
    24
 73
    20
 74
     0
 42
0.000000001
 43
0.00000001
 40
0.0
 40
0.0
 40
0.0
 40
0.0
 40
0.0131602306636048
 40
0.0751475994437145
 40
0.136248853066874
 40
0.1980919591212135
 40
0.2601758785125446
 40
0.3213816946780373
 40
0.3830335131974412
 40
0.4451657977860778
 40
0.5065800885815869
 40
0.5679943793770958
 40
0.6301267181722768
 40
0.6917784368102797
 40
0.7529843405662465
 40
0.8150681364598137
 40
0.8769112691868087
 40
0.9380126312198903
 40
1.0
 40
1.0
 40
1.0
 40
1.0
 10
14.78642366142714
 20
8.996244393086904
 30
0.0
 10
14.7862634532868
 20
8.995598332072403
 30
0.0
 10
14.78534863215136
 20
8.991909191997657
 30
0.0
 10
14.78366416906679
 20
9.00065873511596
 30
0.0
 10
14.78151653167881
 20
9.02290646502546
 30
0.0
 10
14.77925905775162
 20
9.061002426584741
 30
0.0
 10
14.77697136394798
 20
9.111920326746125
 30
0.0
 10
14.77480508055664
 20
9.173988476052989
 30
0.0
 10
14.77257495907053
 20
9.244763154985765
 30
0.0
 10
14.77028179144294
 20
9.321685942797822
 30
0.0
 10
14.7680854071768
 20
9.401567194490177
 30
0.0
 10
14.76588901882615
 20
9.481449370720135
 30
0.0
 10
14.76359586213917
 20
9.5583694102686
 30
0.0
 10
14.76136571409599
 20
9.629154081761925
 30
0.0
 10
14.75919950425409
 20
9.69118493524694
 30
0.0
 10
14.7569115650659
 20
9.742243807930302
 30
0.0
 10
14.75465496924918
 20
9.779816187736829
 30
0.0
 10
14.75250409290777
 20
9.804003104911313
 30
0.0
 10
14.75099047130525
 20
9.80703869084705
 30
0.0
 10
14.75022821289339
 20
9.808567409062105
 30
0.0
  0
SPLINE
  5
224
330
1F
100
AcDbEntity
  8
0
  6
Continuous
 62
     7
370
    15
100
AcDbSpline
210
0.0
220
0.0
230
1.0
 70
     8
 71
     3
 72
    24
 73
    20
 74
     0
 42
0.000000001
 43
0.00000001
 40
0.0
 40
0.0
 40
0.0
 40
0.0
 40
0.0131602307069104
 40
0.0751475996909983
 40
0.1362488535152201
 40
0.1980919597730632
 40
0.2601758793686902
 40
0.3213816957355893
 40
0.3830335144578672
 40
0.445165796034604
 40
0.506580090174271
 40
0.5679943811718724
 40
0.6301267169551564
 40
0.691778435796033
 40
0.7529843397534065
 40
0.8150681358512692
 40
0.876911268781768
 40
0.9380126310159121
 40
1.0
 40
1.0
 40
1.0
 40
1.0
 10
14.71499503324342
 20
8.996244393086904
 30
0.0
 10
14.71483482510247
 20
8.995598332072385
 30
0.0
 10
14.71392000396362
 20
8.991909191997545
 30
0.0
 10
14.71223554097912
 20
9.000658735118629
 30
0.0
 10
14.71008790315408
 20
9.022906465015991
 30
0.0
 10
14.70783043085672
 20
9.061002426620528
 30
0.0
 10
14.70554273096511
 20
9.111920326612864
 30
0.0
 10
14.70337647005301
 20
9.17398847654392
 30
0.0
 10
14.70114626415681
 20
9.244763151901237
 30
0.0
 10
14.6988534133667
 20
9.321685948322436
 30
0.0
 10
14.69665672548914
 20
9.401567191658769
 30
0.0
 10
14.69446035602647
 20
9.48144936841355
 30
0.0
 10
14.6921674289629
 20
9.558369412842472
 30
0.0
 10
14.68993721976608
 20
9.629154081406261
 30
0.0
 10
14.68777102621269
 20
9.691184935343477
 30
0.0
 10
14.68548308261381
 20
9.74224380790439
 30
0.0
 10
14.68322648797546
 20
9.779816187743632
 30
0.0
 10
14.68107561132703
 20
9.804003104909592
 30
0.0
 10
14.67956198976574
 20
9.807038690846474
 30
0.0
 10
14.67879973137463
 20
9.808567409062105
 30
0.0
  0
SPLINE
  5
225
330
1F
100
AcDbEntity
  8
0
  6
Continuous
 62
     7
370
    15
100
AcDbSpline
210
0.0
220
0.0
230
1.0
 70
     8
 71
     3
 72
    24
 73
    20
 74
     0
 42
0.000000001
 43
0.00000001
 40
0.0
 40
0.0
 40
0.0
 40
0.0
 40
0.0131602306855594
 40
0.0751475979684099
 40
0.1362488532481723
 40
0.1980919594056821
 40
0.2601758789005851
 40
0.3213816936080384
 40
0.3830335138135811
 40
0.4451657968976671
 40
0.5065800877956309
 40
0.5679943802646015
 40
0.6301267175552331
 40
0.6917784362960869
 40
0.7529843401541609
 40
0.8150681361512997
 40
0.8769112689814651
 40
0.9380126311164794
 40
1.0
 40
1.0
 40
1.0
 40
1.0
 10
14.64356647839218
 20
8.996244393086904
 30
0.0
 10
14.64340626942173
 20
8.995598332066928
 30
0.0
 10
14.64249144356572
 20
8.991909192039513
 30
0.0
 10
14.64080711911088
 20
9.000658735740009
 30
0.0
 10
14.63865931037574
 20
9.022906464450893
 30
0.0
 10
14.63640189409412
 20
9.061002426863109
 30
0.0
 10
14.63411414221488
 20
9.111920325462819
 30
0.0
 10
14.63194803145602
 20
9.173988478589283
 30
0.0
 10
14.62971771730233
 20
9.244763152241886
 30
0.0
 10
14.62742470822521
 20
9.321685944163255
 30
0.0
 10
14.62522832178037
 20
9.401567195849312
 30
0.0
 10
14.62303178473402
 20
9.481449367973191
 30
0.0
 10
14.62073878562428
 20
9.558369411806842
 30
0.0
 10
14.61850859560044
 20
9.629154081517552
 30
0.0
 10
14.61634239693833
 20
9.69118493531327
 30
0.0
 10
14.61405445472282
 20
9.7422438079125
 30
0.0
 10
14.61179785971488
 20
9.779816187741503
 30
0.0
 10
14.60964698316275
 20
9.804003104910132
 30
0.0
 10
14.60813336158853
 20
9.807038690846653
 30
0.0
 10
14.60737110319091
 20
9.808567409062105
 30
0.0
  0
SPLINE
  5
226
330
1F
100
AcDbEntity
  8
0
  6
Continuous
 62
     7
370
    15
100
AcDbSpline
210
0.0
220
0.0
230
1.0
 70
     8
 71
     3
 72
    24
 73
    20
 74
     0
 42
0.000000001
 43
0.00000001
 40
0.0
 40
0.0
 40
0.0
 40
0.0
 40
0.0131602306852586
 40
0.0751475995673622
 40
0.1362488532910577
 40
0.1980919594471538
 40
0.2601758789406377
 40
0.3213816952068383
 40
0.383033513827684
 40
0.4451657969103497
 40
0.5065800893779164
 40
0.5679943802744765
 40
0.6301267175636879
 40
0.6917784363031324
 40
0.7529843401598073
 40
0.815068136155527
 40
0.8769112689842787
 40
0.9380126311178963
 40
1.0
 40
1.0
 40
1.0
 40
1.0
 10
14.57213792354094
 20
8.996244393086904
 30
0.0
 10
14.57197771540029
 20
8.995598332072394
 30
0.0
 10
14.57106289426315
 20
8.9919091919976
 30
0.0
 10
14.56937843122862
 20
9.000658735117295
 30
0.0
 10
14.5672307936221
 20
9.022906465020727
 30
0.0
 10
14.56497332050983
 20
9.061002426602634
 30
0.0
 10
14.56268562366221
 20
9.111920326679494
 30
0.0
 10
14.56051935151048
 20
9.173988476298456
 30
0.0
 10
14.55828918781933
 20
9.244763153443483
 30
0.0
 10
14.55599617861048
 20
9.321685945560128
 30
0.0
 10
14.55379964253863
 20
9.401567193074497
 30
0.0
 10
14.55160326363197
 20
9.481449369566818
 30
0.0
 10
14.54931022175669
 20
9.558369411555558
 30
0.0
 10
14.5470800431367
 20
9.62915408158409
 30
0.0
 10
14.54491384143905
 20
9.69118493529521
 30
0.0
 10
14.54262590004551
 20
9.742243807917347
 30
0.0
 10
14.54036930481798
 20
9.77981618774023
 30
0.0
 10
14.53821842832306
 20
9.804003104910452
 30
0.0
 10
14.53670480674116
 20
9.807038690846761
 30
0.0
 10
14.53594254833967
 20
9.808567409062105
 30
0.0
  0
SPLINE
  5
227
330
1F
100
AcDbEntity
  8
0
  6
Continuous
 62
     7
370
    15
100
AcDbSpline
210
0.0
220
0.0
230
1.0
 70
     8
 71
     3
 72
    24
 73
    20
 74
     0
 42
0.000000001
 43
0.00000001
 40
0.0
 40
0.0
 40
0.0
 40
0.0
 40
0.0131602306858866
 40
0.0751475995709483
 40
0.1362488532975595
 40
0.1980919594566068
 40
0.2601758789530534
 40
0.3213816952221747
 40
0.3830335154292502
 40
0.4451657969067292
 40
0.5065800893772265
 40
0.5679943802767173
 40
0.6301267175688937
 40
0.6917784378945705
 40
0.752984340194022
 40
0.8150681361927045
 40
0.8769112690244074
 40
0.9380126327156084
 40
1.0
 40
1.0
 40
1.0
 40
1.0
 10
14.5007093686897
 20
8.996244393086904
 30
0.0
 10
14.50054916054792
 20
8.995598332072364
 30
0.0
 10
14.49963433940427
 20
8.991909191997403
 30
0.0
 10
14.49794987655982
 20
9.000658735122027
 30
0.0
 10
14.49580223812317
 20
9.02290646500392
 30
0.0
 10
14.49354476810658
 20
9.061002426666153
 30
0.0
 10
14.49125705969546
 20
9.11192032644297
 30
0.0
 10
14.48909083022234
 20
9.17398847770118
 30
0.0
 10
14.48686050612817
 20
9.244763150786655
 30
0.0
 10
14.48456765677694
 20
9.321685947121901
 30
0.0
 10
14.48237108114954
 20
9.401567192895785
 30
0.0
 10
14.48017470204821
 20
9.481449369418597
 30
0.0
 10
14.4778817007958
 20
9.558369412995352
 30
0.0
 10
14.47565136100452
 20
9.629154079230705
 30
0.0
 10
14.47348532321948
 20
9.691184936528344
 30
0.0
 10
14.47119732735968
 20
9.74224380765815
 30
0.0
 10
14.46894078417857
 20
9.779816188285464
 30
0.0
 10
14.46678975498738
 20
9.804003104392931
 30
0.0
 10
14.46527621219313
 20
9.807038690699303
 30
0.0
 10
14.46451399348843
 20
9.808567409062105
 30
0.0
  0
SPLINE
  5
228
330
1F
100
AcDbEntity
  8
0
  6
Continuous
 62
     7
370
    15
100
AcDbSpline
210
0.0
220
0.0
230
1.0
 70
     8
 71
     3
 72
    24
 73
    20
 74
     0
 42
0.000000001
 43
0.00000001
 40
0.0
 40
0.0
 40
0.0
 40
0.0
 40
0.0131602307062062
 40
0.0751475980863071
 40
0.1362488534619299
 40
0.1980919581232752
 40
0.2601758793212606
 40
0.3213816941247382
 40
0.3830335144270049
 40
0.4451657976085687
 40
0.506580088602884
 40
0.5679943795971991
 40
0.6301267169853088
 40
0.6917784374061767
 40
0.752984339800131
 40
0.8150681375003551
 40
0.8769112688343568
 40
0.9380126326198991
 40
1.0
 40
1.0
 40
1.0
 40
1.0
 10
14.42928074050598
 20
8.996244393086904
 30
0.0
 10
14.42912053147643
 20
8.995598332065999
 30
0.0
 10
14.428205705283
 20
8.991909192033269
 30
0.0
 10
14.42652139069638
 20
9.000658735889129
 30
0.0
 10
14.42437353888238
 20
9.02290646372984
 30
0.0
 10
14.4221162833171
 20
9.061002428469644
 30
0.0
 10
14.41982837066667
 20
9.111920324391718
 30
0.0
 10
14.41766230304081
 20
9.173988478744214
 30
0.0
 10
14.41543197522227
 20
9.244763152154249
 30
0.0
 10
14.41313897754522
 20
9.321685944357537
 30
0.0
 10
14.41094255958657
 20
9.401567194490166
 30
0.0
 10
14.40874613755274
 20
9.481449369160453
 30
0.0
 10
14.40645315078803
 20
9.558369413100017
 30
0.0
 10
14.40422279651526
 20
9.629154079071341
 30
0.0
 10
14.40205680205713
 20
9.691184937600038
 30
0.0
 10
14.39976864546243
 20
9.74224380605447
 30
0.0
 10
14.39751226265807
 20
9.779816189014396
 30
0.0
 10
14.39536119170024
 20
9.804003104261252
 30
0.0
 10
14.39384765451647
 20
9.8070386906552
 30
0.0
 10
14.39308543863719
 20
9.808567409062105
 30
0.0
  0
SPLINE
  5
229
330
1F
100
AcDbEntity
  8
0
  6
Continuous
 62
     7
370
    15
100
AcDbSpline
210
0.0
220
0.0
230
1.0
 70
     8
 71
     3
 72
    11
 73
     7
 74
     0
 42
0.000000001
 43
0.00000001
 40
0.0
 40
0.0
 40
0.0
 40
0.0
 40
0.0785965971895473
 40
0.4488025801679997
 40
0.8137164531648275
 40
1.0
 40
1.0
 40
1.0
 40
1.0
 10
14.35785218565474
 20
8.996244393086904
 30
0.0
 10
14.35769199127681
 20
8.995595296391967
 30
0.0
 10
14.3567772487471
 20
8.991888822042146
 30
0.0
 10
14.35509048731962
 20
9.001145327784204
 30
0.0
 10
14.35330754888061
 20
9.017858496506264
 30
0.0
 10
14.35218149761566
 20
9.037707551948078
 30
0.0
 10
14.35180093555929
 20
9.04441576994038
 30
0.0
  0
SPLINE
  5
22A
330
1F
100
AcDbEntity
  8
0
  6
Continuous
 62
     7
370
    15
100
AcDbSpline
210
0.0
220
0.0
230
1.0
 70
     8
 71
     3
 72
    23
 73
    19
 74
     0
 42
0.000000001
 43
0.00000001
 40
0.0
 40
0.0
 40
0.0
 40
0.0
 40
0.0637468655829671
 40
0.1265822540357674
 40
0.1901807193608703
 40
0.2540269881685221
 40
0.3169697609633486
 40
0.3803714971820067
 40
0.444267476185235
 40
0.5074248052220576
 40
0.5705821986281158
 40
0.6344781776313442
 40
0.6978798568269065
 40
0.7608226796280352
 40
0.8246689073889508
 40
0.8882673727140538
 40
0.9511027799464341
 40
1.0
 40
1.0
 40
1.0
 40
1.0
 10
14.81430100605234
 20
9.035067344600856
 30
0.0
 10
14.81353874872866
 20
9.036443910245056
 30
0.0
 10
14.81202513312881
 20
9.039177358869985
 30
0.0
 10
14.8098742448081
 20
9.06095770869726
 30
0.0
 10
14.80761764571299
 20
9.09479122170901
 30
0.0
 10
14.80532973161918
 20
9.140769028943161
 30
0.0
 10
14.80316349219661
 20
9.196627599875347
 30
0.0
 10
14.80093335854472
 20
9.26036855065445
 30
0.0
 10
14.79864020443717
 20
9.329634171625248
 30
0.0
 10
14.79644381055091
 20
9.401567327248378
 30
0.0
 10
14.794247422965
 20
9.47350073097189
 30
0.0
 10
14.79195426336709
 20
9.542765609616808
 30
0.0
 10
14.78972414495228
 20
9.60650927119947
 30
0.0
 10
14.78755783908465
 20
9.66235765306491
 30
0.0
 10
14.78527019125903
 20
9.708374062753284
 30
0.0
 10
14.78301259076069
 20
9.742063881267349
 30
0.0
 10
14.78103307002619
 20
9.762634205698175
 30
0.0
 10
14.77969850682166
 20
9.765260939591478
 30
0.0
 10
14.77911446586359
 20
9.766410469396003
 30
0.0
  0
SPLINE
  5
22B
330
1F
100
AcDbEntity
  8
0
  6
Continuous
 62
     7
370
    15
100
AcDbSpline
210
0.0
220
0.0
230
1.0
 70
     8
 71
     3
 72
    23
 73
    19
 74
     0
 42
0.000000001
 43
0.00000001
 40
0.0
 40
0.0
 40
0.0
 40
0.0
 40
0.0637468658489499
 40
0.1265822545639299
 40
0.1901807201543965
 40
0.254026989228446
 40
0.3169697622859002
 40
0.3803714987691011
 40
0.4442674739606307
 40
0.507424807245099
 40
0.5705822009146805
 40
0.63447817610621
 40
0.6978798555663148
 40
0.7608226786300715
 40
0.8246689066573846
 40
0.8882673722478512
 40
0.9511027797424112
 40
1.0
 40
1.0
 40
1.0
 40
1.0
 10
14.74287237786862
 20
9.035067344600856
 30
0.0
 10
14.74211012057358
 20
9.03644391024594
 30
0.0
 10
14.74059650503061
 20
9.039177358872621
 30
0.0
 10
14.73844561628627
 20
9.060957708686834
 30
0.0
 10
14.73618901881708
 20
9.09479122174872
 30
0.0
 10
14.73390109863741
 20
9.140769028795212
 30
0.0
 10
14.73173488168951
 20
9.196627600420406
 30
0.0
 10
14.72950466365249
 20
9.260368547229563
 30
0.0
 10
14.72721182632403
 20
9.329634177759212
 30
0.0
 10
14.72501512888154
 20
9.401567324104649
 30
0.0
 10
14.72281876018109
 20
9.473500728410894
 30
0.0
 10
14.72052583017263
 20
9.542765612474616
 30
0.0
 10
14.71829565062486
 20
9.606509270804583
 30
0.0
 10
14.71612936104276
 20
9.662357653172101
 30
0.0
 10
14.71384170880648
 20
9.708374062724495
 30
0.0
 10
14.71158410948929
 20
9.742063881274975
 30
0.0
 10
14.70960458846156
 20
9.762634205696761
 30
0.0
 10
14.70827002528894
 20
9.765260939591048
 30
0.0
 10
14.70768598434484
 20
9.766410469396003
 30
0.0
  0
SPLINE
  5
22C
330
1F
100
AcDbEntity
  8
0
  6
Continuous
 62
     7
370
    15
100
AcDbSpline
210
0.0
220
0.0
230
1.0
 70
     8
 71
     3
 72
    23
 73
    19
 74
     0
 42
0.000000001
 43
0.00000001
 40
0.0
 40
0.0
 40
0.0
 40
0.0
 40
0.0637468655905251
 40
0.1265822579934711
 40
0.1901807192858802
 40
0.2540269901370865
 40
0.316969760961113
 40
0.3803714991948845
 40
0.4442674761665039
 40
0.5074248052108146
 40
0.5705822006163873
 40
0.6344781775880066
 40
0.697879856791086
 40
0.7608226795996775
 40
0.824668907368163
 40
0.8882673727008065
 40
0.9511027799406366
 40
1.0
 40
1.0
 40
1.0
 40
1.0
 10
14.67144389634987
 20
9.035067344600856
 30
0.0
 10
14.67068166121495
 20
9.036443910519498
 30
0.0
 10
14.66916808962825
 20
9.039177359774525
 30
0.0
 10
14.66701687316499
 20
9.060957706082421
 30
0.0
 10
14.66476064067458
 20
9.094791224684727
 30
0.0
 10
14.66247246802912
 20
9.140769026227154
 30
0.0
 10
14.66030645432135
 20
9.196627602877058
 30
0.0
 10
14.65807611374652
 20
9.260368547557482
 30
0.0
 10
14.65578312201917
 20
9.329634173154663
 30
0.0
 10
14.65358672493001
 20
9.401567328753872
 30
0.0
 10
14.65139018894977
 20
9.473500727922925
 30
0.0
 10
14.6490971868259
 20
9.542765611324484
 30
0.0
 10
14.64686702646255
 20
9.606509270928212
 30
0.0
 10
14.64470073176744
 20
9.662357653138542
 30
0.0
 10
14.64241308091593
 20
9.708374062733508
 30
0.0
 10
14.64015548122791
 20
9.742063881272587
 30
0.0
 10
14.63817596029224
 20
9.762634205697205
 30
0.0
 10
14.6368413971096
 20
9.765260939591183
 30
0.0
 10
14.63625735616112
 20
9.766410469396003
 30
0.0
  0
SPLINE
  5
22D
330
1F
100
AcDbEntity
  8
0
  6
Continuous
 62
     7
370
    15
100
AcDbSpline
210
0.0
220
0.0
230
1.0
 70
     8
 71
     3
 72
    23
 73
    19
 74
     0
 42
0.000000001
 43
0.00000001
 40
0.0
 40
0.0
 40
0.0
 40
0.0
 40
0.0637468657159648
 40
0.1265822542998611
 40
0.1901807197576522
 40
0.2540269886985091
 40
0.3169697616246556
 40
0.3803714979755914
 40
0.4442674750729439
 40
0.5074248062335625
 40
0.5705821997713886
 40
0.634478176868741
 40
0.6978798561965808
 40
0.7608226791290298
 40
0.8246689070231504
 40
0.8882673724809415
 40
0.9511027798444178
 40
1.0
 40
1.0
 40
1.0
 40
1.0
 10
14.60001526816614
 20
9.035067344600856
 30
0.0
 10
14.59925301085678
 20
9.036443910245499
 30
0.0
 10
14.59773939528537
 20
9.039177358871303
 30
0.0
 10
14.59558850675284
 20
9.060957708692046
 30
0.0
 10
14.5933319084707
 20
9.094791221728865
 30
0.0
 10
14.59104399133395
 20
9.140769028869185
 30
0.0
 10
14.58887776314872
 20
9.19662760014788
 30
0.0
 10
14.58664758730426
 20
9.260368548941987
 30
0.0
 10
14.58435459158626
 20
9.329634174692229
 30
0.0
 10
14.58215804592188
 20
9.40156732567654
 30
0.0
 10
14.57996166777871
 20
9.473500729691365
 30
0.0
 10
14.57766862297552
 20
9.542765611045738
 30
0.0
 10
14.57543847399423
 20
9.606509271002023
 30
0.0
 10
14.57327217626936
 20
9.662357653118507
 30
0.0
 10
14.57098452623841
 20
9.708374062738889
 30
0.0
 10
14.56872692633065
 20
9.742063881271163
 30
0.0
 10
14.56674740544954
 20
9.762634205697468
 30
0.0
 10
14.56541284226096
 20
9.765260939591263
 30
0.0
 10
14.56482880130988
 20
9.766410469396003
 30
0.0
  0
SPLINE
  5
22E
330
1F
100
AcDbEntity
  8
0
  6
Continuous
 62
     7
370
    15
100
AcDbSpline
210
0.0
220
0.0
230
1.0
 70
     8
 71
     3
 72
    23
 73
    19
 74
     0
 42
0.000000001
 43
0.00000001
 40
0.0
 40
0.0
 40
0.0
 40
0.0
 40
0.0637468657198217
 40
0.1265822543075197
 40
0.1901807197691587
 40
0.2540269887138785
 40
0.3169697616438332
 40
0.3803715000062012
 40
0.4442674750683004
 40
0.5074248062327402
 40
0.5705821997743875
 40
0.6344781768756059
 40
0.6978798582148796
 40
0.7608226791728756
 40
0.8246689070708592
 40
0.8882673725324981
 40
0.9511027818710902
 40
1.0
 40
1.0
 40
1.0
 40
1.0
 10
14.5285867133149
 20
9.035067344600856
 30
0.0
 10
14.52782445605994
 20
9.036443910247067
 30
0.0
 10
14.52631084059658
 20
9.039177358875984
 30
0.0
 10
14.52415995125942
 20
9.06095770867354
 30
0.0
 10
14.52190335606554
 20
9.094791221799355
 30
0.0
 10
14.51961542736928
 20
9.14076902860656
 30
0.0
 10
14.51744924184972
 20
9.196627601705059
 30
0.0
 10
14.51521890563216
 20
9.260368545992073
 30
0.0
 10
14.51292606974159
 20
9.329634176426264
 30
0.0
 10
14.51072948453538
 20
9.401567325478126
 30
0.0
 10
14.50853310619124
 20
9.473500729526771
 30
0.0
 10
14.50624010202252
 20
9.542765612644414
 30
0.0
 10
14.50400979181251
 20
9.606509268388809
 30
0.0
 10
14.50184365829238
 20
9.662357654489027
 30
0.0
 10
14.49955595259651
 20
9.708374062447103
 30
0.0
 10
14.49729840922502
 20
9.742063881889912
 30
0.0
 10
14.49531873222194
 20
9.762634205172901
 30
0.0
 10
14.4939842513582
 20
9.765260939464353
 30
0.0
 10
14.49340024645864
 20
9.766410469396003
 30
0.0
  0
SPLINE
  5
22F
330
1F
100
AcDbEntity
  8
0
  6
Continuous
 62
     7
370
    15
100
AcDbSpline
210
0.0
220
0.0
230
1.0
 70
     8
 71
     3
 72
    23
 73
    19
 74
     0
 42
0.000000001
 43
0.00000001
 40
0.0
 40
0.0
 40
0.0
 40
0.0
 40
0.0637468638149915
 40
0.1265822544970246
 40
0.1901807180630279
 40
0.2540269891687321
 40
0.3169697602436549
 40
0.3803714987301522
 40
0.4442674759564675
 40
0.5074248052525299
 40
0.5705821989178281
 40
0.6344781761441434
 40
0.6978798576075463
 40
0.7608226786887732
 40
0.8246689087477422
 40
0.8882673723137455
 40
0.9511027817753582
 40
1.0
 40
1.0
 40
1.0
 40
1.0
 10
14.45715808513118
 20
9.035067344600856
 30
0.0
 10
14.45639587033695
 20
9.036443910458072
 30
0.0
 10
14.45488233914045
 20
9.039177359591752
 30
0.0
 10
14.452731256243
 20
9.060957707278774
 30
0.0
 10
14.45047487011697
 20
9.094791223791745
 30
0.0
 10
14.44818673866082
 20
9.140769026330506
 30
0.0
 10
14.44602071457841
 20
9.19662760286271
 30
0.0
 10
14.44379037473901
 20
9.260368547510724
 30
0.0
 10
14.44149739052239
 20
9.32963417335696
 30
0.0
 10
14.43930096296364
 20
9.401567327248385
 30
0.0
 10
14.43710454169664
 20
9.473500729240143
 30
0.0
 10
14.43481155201563
 20
9.542765612760656
 30
0.0
 10
14.43258122731891
 20
9.606509268211763
 30
0.0
 10
14.43041513714199
 20
9.66235765567921
 30
0.0
 10
14.42812727063139
 20
9.708374060665717
 30
0.0
 10
14.42586988801505
 20
9.742063882708925
 30
0.0
 10
14.42389017112624
 20
9.762634205064943
 30
0.0
 10
14.42255569460609
 20
9.765260939431489
 30
0.0
 10
14.4219716916074
 20
9.766410469396003
 30
0.0
  0
SPLINE
  5
230
330
1F
100
AcDbEntity
  8
0
  6
Continuous
 62
     7
370
    15
100
AcDbSpline
210
0.0
220
0.0
230
1.0
 70
     8
 71
     3
 72
    23
 73
    19
 74
     0
 42
0.000000001
 43
0.00000001
 40
0.0
 40
0.0
 40
0.0
 40
0.0
 40
0.066085453405194
 40
0.131225995772364
 40
0.1971576068761431
 40
0.2633461122738025
 40
0.3285979743440333
 40
0.3943256413037428
 40
0.4605656784297099
 40
0.5260399699102245
 40
0.5915143301865017
 40
0.6577543651985434
 40
0.7234819730432341
 40
0.7887338890051132
 40
0.8549223518502137
 40
0.9208539608597323
 40
0.9859945226954212
 40
1.0
 40
1.0
 40
1.0
 40
1.0
 10
14.38572953027994
 20
9.035067344600856
 30
0.0
 10
14.38496731266085
 20
9.036443910414468
 30
0.0
 10
14.38345377585501
 20
9.039177359461569
 30
0.0
 10
14.38130273471132
 20
9.060957708024784
 30
0.0
 10
14.37904618824038
 20
9.094791222252383
 30
0.0
 10
14.37675821748139
 20
9.140769026621767
 30
0.0
 10
14.37459215011325
 20
9.196627605996452
 30
0.0
 10
14.37236182464632
 20
9.26036853512405
 30
0.0
 10
14.37006882634337
 20
9.329634219896894
 30
0.0
 10
14.36787244023115
 20
9.4015671565538
 30
0.0
 10
14.36567586683184
 20
9.473501373238163
 30
0.0
 10
14.36338300471346
 20
9.542763175873974
 30
0.0
 10
14.36115276055077
 20
9.60651826026165
 30
0.0
 10
14.35898622304146
 20
9.662324159711872
 30
0.0
 10
14.35669963815279
 20
9.708500885834074
 30
0.0
 10
14.35443803918923
 20
9.741595215288484
 30
0.0
 10
14.3528692740808
 20
9.75963644385131
 30
0.0
 10
14.35196156193971
 20
9.762037010340256
 30
0.0
 10
14.35180093555929
 20
9.762461808344606
 30
0.0
  0
SPLINE
  5
231
330
1F
100
AcDbEntity
  8
0
  6
Continuous
 62
     7
370
    15
100
AcDbSpline
210
0.0
220
0.0
230
1.0
 70
     8
 71
     3
 72
    24
 73
    20
 74
     0
 42
0.000000001
 43
0.00000001
 40
0.0
 40
0.0
 40
0.0
 40
0.0
 40
0.049478174878257
 40
0.1113942651692352
 40
0.1740621011182456
 40
0.2369739618528749
 40
0.298996009115736
 40
0.3614700065494573
 40
0.4244308774720245
 40
0.4866641795496408
 40
0.5488974816272572
 40
0.6118584042200135
 40
0.6743323036491934
 40
0.7363544396706213
 40
0.79926617526054
 40
0.8619340382379083
 40
0.9238502383845462
 40
0.9866642609242523
 40
1.0
 40
1.0
 40
1.0
 40
1.0
 10
14.7771783415632
 20
8.996244393086904
 30
0.0
 10
14.77657851088192
 20
8.997544633380604
 30
0.0
 10
14.77522806296964
 20
9.000471970785764
 30
0.0
 10
14.77323335646776
 20
9.023431634552985
 30
0.0
 10
14.77097585401271
 20
9.06086031291558
 30
0.0
 10
14.76868816799795
 20
9.111957859436052
 30
0.0
 10
14.76652188214128
 20
9.173978398251325
 30
0.0
 10
14.76429176282605
 20
9.24476589839479
 30
0.0
 10
14.7619985889581
 20
9.321685176409064
 30
0.0
 10
14.75980222725091
 20
9.401567539893803
 30
0.0
 10
14.75760575476765
 20
9.481448746028803
 30
0.0
 10
14.75531291494262
 20
9.558371574057396
 30
0.0
 10
14.75308246245381
 20
9.629146168174874
 30
0.0
 10
14.75091627560471
 20
9.691214392948435
 30
0.0
 10
14.74862854904192
 20
9.742132272715528
 30
0.0
 10
14.74637108361369
 20
9.780228357663683
 30
0.0
 10
14.74422344880991
 20
9.8024759545638
 30
0.0
 10
14.74253898301325
 20
9.811225676346428
 30
0.0
 10
14.74162416226706
 20
9.807536383157542
 30
0.0
 10
14.74146395413885
 20
9.806890295102935
 30
0.0
  0
SPLINE
  5
232
330
1F
100
AcDbEntity
  8
0
  6
Continuous
 62
     7
370
    15
100
AcDbSpline
210
0.0
220
0.0
230
1.0
 70
     8
 71
     3
 72
    24
 73
    20
 74
     0
 42
0.000000001
 43
0.00000001
 40
0.0
 40
0.0
 40
0.0
 40
0.0
 40
0.0494781750407503
 40
0.1113942655350699
 40
0.1740621016898903
 40
0.2369739626311311
 40
0.2989960100976815
 40
0.3614700077365762
 40
0.4244308756066681
 40
0.4866641778886674
 40
0.5488974833546344
 40
0.6118584061541634
 40
0.6743323025796543
 40
0.7363544388047718
 40
0.7992661746013016
 40
0.86193403778448
 40
0.9238502381344595
 40
0.9866642608804558
 40
1.0
 40
1.0
 40
1.0
 40
1.0
 10
14.70574971337947
 20
8.996244393086904
 30
0.0
 10
14.70514988271313
 20
8.997544633381018
 30
0.0
 10
14.70379943483448
 20
9.00047197078711
 30
0.0
 10
14.70180472803022
 20
9.023431634545949
 30
0.0
 10
14.69954722678804
 20
9.060860312942165
 30
0.0
 10
14.6972595362431
 20
9.111957859337057
 30
0.0
 10
14.6950932671136
 20
9.17397839861602
 30
0.0
 10
14.69286308499734
 20
9.244765895786768
 30
0.0
 10
14.69057014693298
 20
9.321685178843401
 30
0.0
 10
14.68837378127143
 20
9.401567542254723
 30
0.0
 10
14.6861770905042
 20
9.48144874365848
 30
0.0
 10
14.68388424611946
 20
9.55837157181998
 30
0.0
 10
14.68165403047516
 20
9.629146170491614
 30
0.0
 10
14.6794877806286
 20
9.69121439260805
 30
0.0
 10
14.67720007113719
 20
9.742132272806941
 30
0.0
 10
14.67494260113873
 20
9.780228357639498
 30
0.0
 10
14.6727949675605
 20
9.802475954570612
 30
0.0
 10
14.67111050148322
 20
9.811225676346142
 30
0.0
 10
14.67019568074663
 20
9.807536383157501
 30
0.0
 10
14.6700354726201
 20
9.806890295102935
 30
0.0
  0
SPLINE
  5
233
330
1F
100
AcDbEntity
  8
0
  6
Continuous
 62
     7
370
    15
100
AcDbSpline
210
0.0
220
0.0
230
1.0
 70
     8
 71
     3
 72
    24
 73
    20
 74
     0
 42
0.000000001
 43
0.00000001
 40
0.0
 40
0.0
 40
0.0
 40
0.0
 40
0.0494781733405528
 40
0.1113942653124558
 40
0.1740621013682688
 40
0.2369739622101167
 40
0.2989960079977275
 40
0.3614700071423232
 40
0.4244308765425425
 40
0.4866641787262209
 40
0.5488974825018567
 40
0.6118584052019151
 40
0.6743323031331098
 40
0.7363544392602398
 40
0.7992661749573768
 40
0.8619340364271134
 40
0.9238502382546734
 40
0.9866642592794149
 40
1.0
 40
1.0
 40
1.0
 40
1.0
 10
14.63432115852824
 20
8.996244393086904
 30
0.0
 10
14.63372136422979
 20
8.997544633498068
 30
0.0
 10
14.63237099818547
 20
9.00047197126242
 30
0.0
 10
14.63037613594328
 20
9.023431633993422
 30
0.0
 10
14.62811869015612
 20
9.060860313191604
 30
0.0
 10
14.6258309462742
 20
9.111957858151102
 30
0.0
 10
14.62366483319705
 20
9.173978400791757
 30
0.0
 10
14.62143452041467
 20
9.244765895633893
 30
0.0
 10
14.61914150816342
 20
9.321685177838233
 30
0.0
 10
14.61694513292651
 20
9.401567541018194
 30
0.0
 10
14.614748554154
 20
9.481448744857168
 30
0.0
 10
14.61245571217504
 20
9.558371572941534
 30
0.0
 10
14.61022537474983
 20
9.629146169308658
 30
0.0
 10
14.60805916966055
 20
9.691214392873656
 30
0.0
 10
14.6057714014127
 20
9.742132271960735
 30
0.0
 10
14.60351412037092
 20
9.780228358709149
 30
0.0
 10
14.60136623053159
 20
9.802475954003507
 30
0.0
 10
14.59968205921822
 20
9.811225676021339
 30
0.0
 10
14.59876708028637
 20
9.807536383175972
 30
0.0
 10
14.59860684443637
 20
9.806890295102935
 30
0.0
  0
SPLINE
  5
234
330
1F
100
AcDbEntity
  8
0
  6
Continuous
 62
     7
370
    15
100
AcDbSpline
210
0.0
220
0.0
230
1.0
 70
     8
 71
     3
 72
    24
 73
    20
 74
     0
 42
0.000000001
 43
0.00000001
 40
0.0
 40
0.0
 40
0.0
 40
0.0
 40
0.0494781749582611
 40
0.1113942653493552
 40
0.1740621013996968
 40
0.236973962236052
 40
0.2989960095992002
 40
0.3614700071339393
 40
0.4244308765286616
 40
0.4866641787069066
 40
0.548897482477109
 40
0.6118584068012668
 40
0.6743323031226023
 40
0.7363544392443174
 40
0.7992661749359617
 40
0.8619340380146613
 40
0.9238502382614152
 40
0.986664260902689
 40
1.0
 40
1.0
 40
1.0
 40
1.0
 10
14.562892603677
 20
8.996244393086904
 30
0.0
 10
14.56229277300338
 20
8.997544633380816
 30
0.0
 10
14.56094232510836
 20
9.000471970786455
 30
0.0
 10
14.55894761845132
 20
9.02343163454938
 30
0.0
 10
14.5566901166186
 20
9.0608603129292
 30
0.0
 10
14.55440242827938
 20
9.111957859385328
 30
0.0
 10
14.55223615100553
 20
9.173978398438193
 30
0.0
 10
14.55000599946618
 20
9.244765897073703
 30
0.0
 10
14.54771294659001
 20
9.32168517769013
 30
0.0
 10
14.54551657148452
 20
9.401567540838997
 30
0.0
 10
14.54332003252298
 20
9.481448746420789
 30
0.0
 10
14.54102702971958
 20
9.558371570277739
 30
0.0
 10
14.53879685628024
 20
9.629146170737076
 30
0.0
 10
14.53663059519407
 20
9.691214392541422
 30
0.0
 10
14.53434288874663
 20
9.742132272824836
 30
0.0
 10
14.53208541793327
 20
9.780228357634762
 30
0.0
 10
14.52993778457357
 20
9.802475954571946
 30
0.0
 10
14.52825331844625
 20
9.811225676346087
 30
0.0
 10
14.52733849771137
 20
9.807536383157492
 30
0.0
 10
14.52717828958513
 20
9.806890295102935
 30
0.0
  0
SPLINE
  5
235
330
1F
100
AcDbEntity
  8
0
  6
Continuous
 62
     7
370
    15
100
AcDbSpline
210
0.0
220
0.0
230
1.0
 70
     8
 71
     3
 72
    24
 73
    20
 74
     0
 42
0.000000001
 43
0.00000001
 40
0.0
 40
0.0
 40
0.0
 40
0.0
 40
0.0494781749582611
 40
0.1113942653493552
 40
0.1740621013996968
 40
0.236973962236052
 40
0.2989960095992002
 40
0.3614700071339393
 40
0.4244308765286616
 40
0.486664180298864
 40
0.548897482477109
 40
0.6118584068012668
 40
0.6743323031226023
 40
0.7363544392443174
 40
0.7992661749359617
 40
0.8619340380146613
 40
0.9238502382614152
 40
0.986664260902689
 40
1.0
 40
1.0
 40
1.0
 40
1.0
 10
14.49146404882576
 20
8.996244393086904
 30
0.0
 10
14.4908642181549
 20
8.997544633380894
 30
0.0
 10
14.48951377026611
 20
9.000471970786704
 30
0.0
 10
14.48751906355311
 20
9.023431634548075
 30
0.0
 10
14.48526156194483
 20
9.06086031293413
 30
0.0
 10
14.48297387276733
 20
9.111957859366973
 30
0.0
 10
14.48080759858873
 20
9.173978398505817
 30
0.0
 10
14.47857743542126
 20
9.24476589681832
 30
0.0
 10
14.47628442615202
 20
9.3216851792991
 30
0.0
 10
14.47408788979686
 20
9.401567538007642
 30
0.0
 10
14.47189151208503
 20
9.481448748029782
 30
0.0
 10
14.46959846567467
 20
9.558371570022357
 30
0.0
 10
14.46736830386345
 20
9.6291461708047
 30
0.0
 10
14.46520203968202
 20
9.691214392523065
 30
0.0
 10
14.46291433407286
 20
9.742132272829764
 30
0.0
 10
14.46065686303507
 20
9.780228357633458
 30
0.0
 10
14.45850922973555
 20
9.802475954572312
 30
0.0
 10
14.45682476359446
 20
9.811225676346071
 30
0.0
 10
14.45590994286004
 20
9.807536383157489
 30
0.0
 10
14.45574973473389
 20
9.806890295102935
 30
0.0
  0
SPLINE
  5
236
330
1F
100
AcDbEntity
  8
0
  6
Continuous
 62
     7
370
    15
100
AcDbSpline
210
0.0
220
0.0
230
1.0
 70
     8
 71
     3
 72
    24
 73
    20
 74
     0
 42
0.000000001
 43
0.00000001
 40
0.0
 40
0.0
 40
0.0
 40
0.0
 40
0.0494781734189495
 40
0.1113942654889566
 40
0.1740621000296298
 40
0.2369739609711595
 40
0.2989960084379946
 40
0.3614700076815785
 40
0.4244308771815573
 40
0.4866641794638424
 40
0.5488974817461275
 40
0.611858406175542
 40
0.6743323042057245
 40
0.7363544388501769
 40
0.7992661746469956
 40
0.8619340378304619
 40
0.9238502397561261
 40
0.9866642608803945
 40
1.0
 40
1.0
 40
1.0
 40
1.0
 10
14.42003542064203
 20
8.996244393086904
 30
0.0
 10
14.41943562779246
 20
8.997544633518292
 30
0.0
 10
14.41808526501011
 20
9.000471971328182
 30
0.0
 10
14.41609037345711
 20
9.023431633436818
 30
0.0
 10
14.41383304533172
 20
9.060860313790341
 30
0.0
 10
14.41154530160687
 20
9.11195785910002
 30
0.0
 10
14.40937907090991
 20
9.173978399685465
 30
0.0
 10
14.40714878690644
 20
9.244765895710355
 30
0.0
 10
14.40485577753161
 20
9.32168517804912
 30
0.0
 10
14.40265936217859
 20
9.401567539433426
 30
0.0
 10
14.40046294132197
 20
9.481448747630113
 30
0.0
 10
14.39816994718368
 20
9.558371571529415
 30
0.0
 10
14.39593962100728
 20
9.629146168432989
 30
0.0
 10
14.39377352191933
 20
9.691214393761694
 30
0.0
 10
14.39148576027644
 20
9.742132272563396
 30
0.0
 10
14.38922834633755
 20
9.780228358204852
 30
0.0
 10
14.38708054183746
 20
9.802475953949159
 30
0.0
 10
14.38539621429255
 20
9.811225676304174
 30
0.0
 10
14.38448138883871
 20
9.807536383162958
 30
0.0
 10
14.38432117988265
 20
9.806890295102935
 30
0.0
  0
SPLINE
  5
237
330
1F
100
AcDbEntity
  8
0
  6
Continuous
 62
     7
370
    15
100
AcDbSpline
210
0.0
220
0.0
230
1.0
 70
     8
 71
     3
 72
    23
 73
    19
 74
     0
 42
0.000000001
 43
0.00000001
 40
0.0
 40
0.0
 40
0.0
 40
0.0
 40
0.0488972203681834
 40
0.1117326092252831
 40
0.1753310749595952
 40
0.2391773441780507
 40
0.3021201173778675
 40
0.365521854004469
 40
0.4294178334188208
 40
0.4925751628620141
 40
0.5557325566744437
 40
0.6196285320104916
 40
0.6830302156292589
 40
0.7459730388353782
 40
0.8098192670070972
 40
0.8734177327414093
 40
0.9362531403780892
 40
0.9999999999999999
 40
0.9999999999999999
 40
0.9999999999999999
 40
0.9999999999999999
 10
14.7487731497024
 20
9.036724292126323
 30
0.0
 10
14.74818910878248
 20
9.037873826753495
 30
0.0
 10
14.74685454588942
 20
9.040500571225303
 30
0.0
 10
14.7448750245468
 20
9.061070789437467
 30
0.0
 10
14.74261742310653
 20
9.094760621322692
 30
0.0
 10
14.74032977897564
 20
9.140777110592007
 30
0.0
 10
14.73816346759864
 20
9.19662542972212
 30
0.0
 10
14.73593335485778
 20
9.260369142053227
 30
0.0
 10
14.73364018927817
 20
9.329634004059734
 30
0.0
 10
14.73144381997832
 20
9.401567410994591
 30
0.0
 10
14.72924734534161
 20
9.47350056005143
 30
0.0
 10
14.72695451237426
 20
9.542766206863766
 30
0.0
 10
14.72472405350086
 20
9.606507098025114
 30
0.0
 10
14.72255790459921
 20
9.662365734928262
 30
0.0
 10
14.72026996378152
 20
9.708343463437751
 30
0.0
 10
14.71801337176914
 20
9.742176957668498
 30
0.0
 10
14.71586248264054
 20
9.763957442258901
 30
0.0
 10
14.71434886680508
 20
9.766690815952659
 30
0.0
 10
14.71358660951365
 20
9.768067343588985
 30
0.0
  0
SPLINE
  5
238
330
1F
100
AcDbEntity
  8
0
  6
Continuous
 62
     7
370
    15
100
AcDbSpline
210
0.0
220
0.0
230
1.0
 70
     8
 71
     3
 72
    23
 73
    19
 74
     0
 42
0.000000001
 43
0.00000001
 40
0.0
 40
0.0
 40
0.0
 40
0.0
 40
0.0488972205651647
 40
0.1117326096753952
 40
0.1753310756659123
 40
0.2391773451415709
 40
0.3021201185949511
 40
0.3655218554769651
 40
0.4294178331095357
 40
0.4925751628071568
 40
0.5557325568740143
 40
0.619628534506585
 40
0.6830302163731004
 40
0.7459730378545222
 40
0.8098192683194302
 40
0.8734177322897971
 40
0.9362531421509219
 40
1.0
 40
1.0
 40
1.0
 40
1.0
 10
14.67734452151868
 20
9.036724292126323
 30
0.0
 10
14.67676048060662
 20
9.037873826753737
 30
0.0
 10
14.67542591773153
 20
9.040500571226097
 30
0.0
 10
14.67344639622379
 20
9.061070789433181
 30
0.0
 10
14.67118879544864
 20
9.094760621338871
 30
0.0
 10
14.66890114883405
 20
9.140777110531765
 30
0.0
 10
14.66673484662762
 20
9.196625429944044
 30
0.0
 10
14.66450469945908
 20
9.260369140531859
 30
0.0
 10
14.66221166316052
 20
9.329634005686465
 30
0.0
 10
14.66001524978256
 20
9.401567410537998
 30
0.0
 10
14.65781882344668
 20
9.473500561804071
 30
0.0
 10
14.65552583993356
 20
9.542766204103236
 30
0.0
 10
14.65329549582733
 20
9.606507098153312
 30
0.0
 10
14.65112947687894
 20
9.662365737015342
 30
0.0
 10
14.64884134183299
 20
9.708343461496083
 30
0.0
 10
14.64658495660911
 20
9.74217695904995
 30
0.0
 10
14.64443387451409
 20
9.763957441546502
 30
0.0
 10
14.64292034286576
 20
9.766690815742782
 30
0.0
 10
14.64215812799489
 20
9.768067343588985
 30
0.0
  0
SPLINE
  5
239
330
1F
100
AcDbEntity
  8
0
  6
Continuous
 62
     7
370
    15
100
AcDbSpline
210
0.0
220
0.0
230
1.0
 70
     8
 71
     3
 72
    23
 73
    19
 74
     0
 42
0.000000001
 43
0.00000001
 40
0.0
 40
0.0
 40
0.0
 40
0.0
 40
0.0488972185420764
 40
0.1117326096320289
 40
0.1753310756310554
 40
0.2391773451152567
 40
0.302120116598796
 40
0.3655218554968893
 40
0.4294178331380092
 40
0.4925751628440809
 40
0.5557325589114153
 40
0.6196285345134159
 40
0.6830302163884145
 40
0.7459730398565193
 40
0.809819268293984
 40
0.8734177322728605
 40
0.9362531421423926
 40
1.0
 40
1.0
 40
1.0
 40
1.0
 10
14.60591596666744
 20
9.036724292126323
 30
0.0
 10
14.60533196180639
 20
9.037873826880633
 30
0.0
 10
14.60399748125498
 20
9.040500571750613
 30
0.0
 10
14.6020178036359
 20
9.06107078881471
 30
0.0
 10
14.59976025935421
 20
9.094760621629602
 30
0.0
 10
14.59747255723462
 20
9.14077710916517
 30
0.0
 10
14.59530641864236
 20
9.196625432542797
 30
0.0
 10
14.59307611246381
 20
9.260369138987793
 30
0.0
 10
14.59078310847556
 20
9.329634005646534
 30
0.0
 10
14.58858672564102
 20
9.401567412243017
 30
0.0
 10
14.58639014475695
 20
9.473500558750551
 30
0.0
 10
14.58409730953409
 20
9.542766205624954
 30
0.0
 10
14.58186696608599
 20
9.606507099283329
 30
0.0
 10
14.57970079754545
 20
9.662365734846595
 30
0.0
 10
14.57741282036237
 20
9.7083434625931
 30
0.0
 10
14.5751563929879
 20
9.742176958856986
 30
0.0
 10
14.57300532188127
 20
9.763957441595313
 30
0.0
 10
14.57149178875753
 20
9.76669081575913
 30
0.0
 10
14.57072957314366
 20
9.768067343588985
 30
0.0
  0
SPLINE
  5
23A
330
1F
100
AcDbEntity
  8
0
  6
Continuous
 62
     7
370
    15
100
AcDbSpline
210
0.0
220
0.0
230
1.0
 70
     8
 71
     3
 72
    23
 73
    19
 74
     0
 42
0.000000001
 43
0.00000001
 40
0.0
 40
0.0
 40
0.0
 40
0.0
 40
0.0488972204671172
 40
0.1117326094513518
 40
0.1753310753143428
 40
0.2391773446619785
 40
0.3021201179891475
 40
0.3655218547440298
 40
0.4294178322484778
 40
0.4925751618194575
 40
0.5557325577516997
 40
0.6196285352561476
 40
0.6830302149879336
 40
0.7459730383214053
 40
0.8098192666223043
 40
0.8734177324852954
 40
0.9362531402491101
 40
1.0
 40
1.0
 40
1.0
 40
1.0
 10
14.5344874118162
 20
9.036724292126323
 30
0.0
 10
14.53390337090364
 20
9.037873826753723
 30
0.0
 10
14.53256880802739
 20
9.040500571226046
 30
0.0
 10
14.53058928653027
 20
9.06107078943346
 30
0.0
 10
14.52833168571236
 20
9.094760621337818
 30
0.0
 10
14.52604403925741
 20
9.140777110535687
 30
0.0
 10
14.52387773646156
 20
9.196625429929595
 30
0.0
 10
14.5216475915073
 20
9.260369140586427
 30
0.0
 10
14.51935454690124
 20
9.329634005482093
 30
0.0
 10
14.51715816420617
 20
9.401567412044047
 30
0.0
 10
14.5149616230937
 20
9.473500560486668
 30
0.0
 10
14.51266862717848
 20
9.542766202667202
 30
0.0
 10
14.51043844730728
 20
9.606507100869408
 30
0.0
 10
14.50827222419215
 20
9.66236573447632
 30
0.0
 10
14.50598430348291
 20
9.708343463559055
 30
0.0
 10
14.5037277060983
 20
9.742176957636653
 30
0.0
 10
14.50157681836941
 20
9.763957442266957
 30
0.0
 10
14.50006320234601
 20
9.766690815955357
 30
0.0
 10
14.49930094495993
 20
9.768067343588985
 30
0.0
  0
SPLINE
  5
23B
330
1F
100
AcDbEntity
  8
0
  6
Continuous
 62
     7
370
    15
100
AcDbSpline
210
0.0
220
0.0
230
1.0
 70
     8
 71
     3
 72
    23
 73
    19
 74
     0
 42
0.000000001
 43
0.00000001
 40
0.0
 40
0.0
 40
0.0
 40
0.0
 40
0.0488972204671171
 40
0.1117326094513516
 40
0.1753310753143425
 40
0.239177344661978
 40
0.3021201179891469
 40
0.3655218547440292
 40
0.429417832248477
 40
0.4925751638114848
 40
0.5557325577517006
 40
0.6196285352561484
 40
0.6830302149879343
 40
0.7459730383214058
 40
0.8098192666223047
 40
0.8734177324852958
 40
0.9362531402491103
 40
1.0
 40
1.0
 40
1.0
 40
1.0
 10
14.46305885696496
 20
9.036724292126323
 30
0.0
 10
14.46247481605505
 20
9.037873826753804
 30
0.0
 10
14.46114025318487
 20
9.040500571226316
 30
0.0
 10
14.45916073163202
 20
9.061070789432012
 30
0.0
 10
14.45690313103857
 20
9.09476062134329
 30
0.0
 10
14.45461548374547
 20
9.140777110515305
 30
0.0
 10
14.45244918404434
 20
9.196625430004678
 30
0.0
 10
14.45021902746398
 20
9.26036914030287
 30
0.0
 10
14.44792602645273
 20
9.329634007268545
 30
0.0
 10
14.44572948253687
 20
9.401567408900377
 30
0.0
 10
14.44353310264519
 20
9.473500562273124
 30
0.0
 10
14.44124006313518
 20
9.542766202383648
 30
0.0
 10
14.43900989489004
 20
9.606507100944492
 30
0.0
 10
14.43684366868024
 20
9.662365734455939
 30
0.0
 10
14.434555748809
 20
9.708343463564525
 30
0.0
 10
14.4322991512005
 20
9.742176957635216
 30
0.0
 10
14.43014826352994
 20
9.763957442267321
 30
0.0
 10
14.42863464749872
 20
9.766690815955478
 30
0.0
 10
14.42787239010869
 20
9.768067343588985
 30
0.0
  0
SPLINE
  5
23C
330
1F
100
AcDbEntity
  8
0
  6
Continuous
 62
     7
370
    15
100
AcDbSpline
210
0.0
220
0.0
230
1.0
 70
     8
 71
     3
 72
    23
 73
    19
 74
     0
 42
0.000000001
 43
0.00000001
 40
0.0
 40
0.0
 40
0.0
 40
0.0
 40
0.0488972204701611
 40
0.1117326114296218
 40
0.1753310752764217
 40
0.2391773446280318
 40
0.302120117959119
 40
0.3655218567255443
 40
0.4294178342339698
 40
0.4925751638088811
 40
0.5557325577530285
 40
0.619628535261454
 40
0.6830302170047847
 40
0.7459730383639135
 40
0.809819266668787
 40
0.8734177325357371
 40
0.9362531422747773
 40
1.0
 40
1.0
 40
1.0
 40
1.0
 10
14.39163030211372
 20
9.036724292126323
 30
0.0
 10
14.39104626842321
 20
9.03787382684192
 30
0.0
 10
14.38971172202619
 20
9.040500571562127
 30
0.0
 10
14.38773204890559
 20
9.061070788202295
 30
0.0
 10
14.38547461242522
 20
9.0947606222928
 30
0.0
 10
14.38318691311326
 20
9.140777110219222
 30
0.0
 10
14.38102065621508
 20
9.196625431314352
 30
0.0
 10
14.37879037899551
 20
9.26036913907272
 30
0.0
 10
14.37649737783058
 20
9.329634005880681
 30
0.0
 10
14.37430095491062
 20
9.40156741048343
 30
0.0
 10
14.37210453188965
 20
9.473500561829399
 30
0.0
 10
14.36981154461296
 20
9.54276620405679
 30
0.0
 10
14.36758121212777
 20
9.606507098311779
 30
0.0
 10
14.365415150626
 20
9.66236573583046
 30
0.0
 10
14.36312717607893
 20
9.708343463275297
 30
0.0
 10
14.36087063056311
 20
9.74217695824097
 30
0.0
 10
14.35871959020806
 20
9.763957441692616
 30
0.0
 10
14.35720605295224
 20
9.76669081579172
 30
0.0
 10
14.35644383525745
 20
9.768067343588985
 30
0.0
  0
LINE
  5
23D
330
1F
100
AcDbEntity
  8
0
  6
Continuous
 62
     7
370
    15
100
AcDbLine
 10
14.834300975
 20
9.7680673436
 30
0.0
 11
14.834300975
 21
9.0350673446
 31
0.0
  0
LINE
  5
23E
330
1F
100
AcDbEntity
  8
0
  6
Continuous
 62
     7
370
    15
100
AcDbLine
 10
14.0843009657
 20
10.7465613333
 30
0.0
 11
14.0843009657
 21
10.4365673144
 31
0.0
  0
LINE
  5
23F
330
1F
100
AcDbEntity
  8
0
  6
Continuous
 62
     7
370
    15
100
AcDbLine
 10
11.2513009261
 20
8.4366318986
 30
0.0
 11
11.2513009261
 21
11.1065026952
 31
0.0
  0
LINE
  5
240
330
1F
100
AcDbEntity
  8
0
  6
Continuous
 62
     7
370
    15
100
AcDbLine
 10
11.1432629609
 20
8.4374130271
 30
0.0
 11
11.2513009261
 21
8.4366318986
 31
0.0
  0
LINE
  5
241
330
1F
100
AcDbEntity
  8
0
  6
Continuous
 62
     7
370
    15
100
AcDbLine
 10
11.1432629609
 20
11.1057215576
 30
0.0
 11
11.1432629609
 21
8.4374130271
 31
0.0
  0
LINE
  5
242
330
1F
100
AcDbEntity
  8
0
  6
Continuous
 62
     7
370
    15
100
AcDbLine
 10
11.1432629609
 20
11.1057215576
 30
0.0
 11
11.2513009261
 21
11.1065026952
 31
0.0
  0
LINE
  5
243
330
1F
100
AcDbEntity
  8
0
  6
Continuous
 62
     7
370
    15
100
AcDbLine
 10
11.2513009261
 20
8.161567362
 30
0.0
 11
11.2513009261
 21
8.4366318986
 31
0.0
  0
LINE
  5
244
330
1F
100
AcDbEntity
  8
0
  6
Continuous
 62
     7
370
    15
100
AcDbLine
 10
11.1432629609
 20
8.1634531802
 30
0.0
 11
11.2513009261
 21
8.161567362
 31
0.0
  0
LINE
  5
245
330
1F
100
AcDbEntity
  8
0
  6
Continuous
 62
     7
370
    15
100
AcDbLine
 10
11.1432629609
 20
8.4374130271
 30
0.0
 11
11.1432629609
 21
8.1634531802
 31
0.0
  0
LINE
  5
246
330
1F
100
AcDbEntity
  8
0
  6
Continuous
 62
     7
370
    15
100
AcDbLine
 10
11.1432629609
 20
11.3796814594
 30
0.0
 11
11.1432629609
 21
11.1057215576
 31
0.0
  0
LINE
  5
247
330
1F
100
AcDbEntity
  8
0
  6
Continuous
 62
     7
370
    15
100
AcDbLine
 10
11.1432629609
 20
11.3796814594
 30
0.0
 11
11.2513009261
 21
11.3815672776
 31
0.0
  0
LINE
  5
248
330
1F
100
AcDbEntity
  8
0
  6
Continuous
 62
     7
370
    15
100
AcDbLine
 10
11.2513009261
 20
11.1065026952
 30
0.0
 11
11.2513009261
 21
11.3815672776
 31
0.0
  0
LINE
  5
249
330
1F
100
AcDbEntity
  8
0
  6
Continuous
 62
     7
370
    15
100
AcDbLine
 10
11.1432629609
 20
8.4374130271
 30
0.0
 11
11.0713009122
 21
8.4682797063
 31
0.0
  0
LINE
  5
24A
330
1F
100
AcDbEntity
  8
0
  6
Continuous
 62
     7
370
    15
100
AcDbLine
 10
11.0713009122
 20
11.0748550341
 30
0.0
 11
11.0713009122
 21
8.4682797063
 31
0.0
  0
LINE
  5
24B
330
1F
100
AcDbEntity
  8
0
  6
Continuous
 62
     7
370
    15
100
AcDbLine
 10
11.1432629609
 20
11.1057215576
 30
0.0
 11
11.0713009122
 21
11.0748550341
 31
0.0
  0
LINE
  5
24C
330
1F
100
AcDbEntity
  8
0
  6
Continuous
 62
     7
370
    15
100
AcDbLine
 10
11.1432629609
 20
8.1634531802
 30
0.0
 11
11.0713009122
 21
8.2379719294
 31
0.0
  0
LINE
  5
24D
330
1F
100
AcDbEntity
  8
0
  6
Continuous
 62
     7
370
    15
100
AcDbLine
 10
11.0713009122
 20
8.4682797063
 30
0.0
 11
11.0713009122
 21
8.2379719294
 31
0.0
  0
LINE
  5
24E
330
1F
100
AcDbEntity
  8
0
  6
Continuous
 62
     7
370
    15
100
AcDbLine
 10
11.0713009122
 20
11.3051627469
 30
0.0
 11
11.0713009122
 21
11.0748550341
 31
0.0
  0
LINE
  5
24F
330
1F
100
AcDbEntity
  8
0
  6
Continuous
 62
     7
370
    15
100
AcDbLine
 10
11.1432629609
 20
11.3796814594
 30
0.0
 11
11.0713009122
 21
11.3051627469
 31
0.0
  0
LINE
  5
250
330
1F
100
AcDbEntity
  8
0
  6
Continuous
 62
     7
370
    15
100
AcDbLine
 10
11.0513009432
 20
8.5119714674
 30
0.0
 11
11.0513009432
 21
11.0311632455
 31
0.0
  0
ELLIPSE
  5
251
330
1F
100
AcDbEntity
  8
0
  6
Continuous
 62
     7
370
    15
100
AcDbEllipse
 10
11.0513009658
 20
11.0394475248
 30
0.0
 11
0.01999999999999957
 21
0.0
 31
0.0
210
0.0
220
0.0
230
1.0
 40
0.4142135624
 41
4.712388980384695
 42
6.283185307179586
  0
ELLIPSE
  5
252
330
1F
100
AcDbEntity
  8
0
  6
Continuous
 62
     7
370
    15
100
AcDbEllipse
 10
11.0513009658
 20
8.503687198
 30
0.0
 11
0.01999999999999957
 21
0.0
 31
0.0
210
0.0
220
0.0
230
1.0
 40
0.4142135624
 41
0.0
 42
1.570796326794897
  0
LINE
  5
253
330
1F
100
AcDbEntity
  8
0
  6
Continuous
 62
     7
370
    15
100
AcDbLine
 10
11.0513009432
 20
8.3434531736
 30
0.0
 11
11.0513009432
 21
8.5119714674
 31
0.0
  0
ARC
  5
254
330
1F
100
AcDbEntity
  8
0
  6
Continuous
 62
     7
370
    15
100
AcDbCircle
 10
11.0513009658
 20
8.3234531731
 30
0.0
 40
0.0200000000000014
100
AcDbArc
 50
0.0
 51
90.0
  0
LINE
  5
255
330
1F
100
AcDbEntity
  8
0
  6
Continuous
 62
     7
370
    15
100
AcDbLine
 10
11.0513009432
 20
11.0311632455
 30
0.0
 11
11.0513009432
 21
11.1996815921
 31
0.0
  0
ARC
  5
256
330
1F
100
AcDbEntity
  8
0
  6
Continuous
 62
     7
370
    15
100
AcDbCircle
 10
11.0513009658
 20
11.2196815498
 30
0.0
 40
0.0200000000000014
100
AcDbArc
 50
270.0
 51
0.0
  0
LINE
  5
257
330
1F
100
AcDbEntity
  8
0
  6
Continuous
 62
     7
370
    15
100
AcDbLine
 10
10.9694390089
 20
8.3434531736
 30
0.0
 11
10.9694390089
 21
8.5119714674
 31
0.0
  0
LINE
  5
258
330
1F
100
AcDbEntity
  8
0
  6
Continuous
 62
     7
370
    15
100
AcDbLine
 10
11.0513009432
 20
8.5119714674
 30
0.0
 11
10.9694390089
 21
8.5119714674
 31
0.0
  0
LINE
  5
259
330
1F
100
AcDbEntity
  8
0
  6
Continuous
 62
     7
370
    15
100
AcDbLine
 10
11.0513009432
 20
8.3434531736
 30
0.0
 11
10.9694390089
 21
8.3434531736
 31
0.0
  0
LINE
  5
25A
330
1F
100
AcDbEntity
  8
0
  6
Continuous
 62
     7
370
    15
100
AcDbLine
 10
10.9694390089
 20
8.5119714674
 30
0.0
 11
10.9694390089
 21
11.0311632455
 31
0.0
  0
LINE
  5
25B
330
1F
100
AcDbEntity
  8
0
  6
Continuous
 62
     7
370
    15
100
AcDbLine
 10
11.0513009432
 20
11.0311632455
 30
0.0
 11
10.9694390089
 21
11.0311632455
 31
0.0
  0
LINE
  5
25C
330
1F
100
AcDbEntity
  8
0
  6
Continuous
 62
     7
370
    15
100
AcDbLine
 10
10.8933008218
 20
8.5446293752
 30
0.0
 11
10.8933008218
 21
10.9985053561
 31
0.0
  0
LINE
  5
25D
330
1F
100
AcDbEntity
  8
0
  6
Continuous
 62
     7
370
    15
100
AcDbLine
 10
10.9694390089
 20
11.0311632455
 30
0.0
 11
10.8933008218
 21
10.9985053561
 31
0.0
  0
LINE
  5
25E
330
1F
100
AcDbEntity
  8
0
  6
Continuous
 62
     7
370
    15
100
AcDbLine
 10
10.9694390089
 20
8.5119714674
 30
0.0
 11
10.8933008218
 21
8.5446293752
 31
0.0
  0
LINE
  5
25F
330
1F
100
AcDbEntity
  8
0
  6
Continuous
 62
     7
370
    15
100
AcDbLine
 10
10.8933008218
 20
8.4222963234
 30
0.0
 11
10.8933008218
 21
8.5446293752
 31
0.0
  0
LINE
  5
260
330
1F
100
AcDbEntity
  8
0
  6
Continuous
 62
     7
370
    15
100
AcDbLine
 10
10.9694390089
 20
8.3434531736
 30
0.0
 11
10.8933008218
 21
8.4222963234
 31
0.0
  0
LINE
  5
261
330
1F
100
AcDbEntity
  8
0
  6
Continuous
 62
     7
370
    15
100
AcDbLine
 10
10.8933008218
 20
10.9985053561
 30
0.0
 11
10.8933008218
 21
11.1208383163
 31
0.0
  0
LINE
  5
262
330
1F
100
AcDbEntity
  8
0
  6
Continuous
 62
     7
370
    15
100
AcDbLine
 10
10.9694390089
 20
11.1996815921
 30
0.0
 11
10.8933008218
 21
11.1208383163
 31
0.0
  0
LINE
  5
263
330
1F
100
AcDbEntity
  8
0
  6
Continuous
 62
     7
370
    15
100
AcDbLine
 10
10.9694390089
 20
11.0311632455
 30
0.0
 11
10.9694390089
 21
11.1996815921
 31
0.0
  0
LINE
  5
264
330
1F
100
AcDbEntity
  8
0
  6
Continuous
 62
     7
370
    15
100
AcDbLine
 10
11.0513009432
 20
11.1996815921
 30
0.0
 11
10.9694390089
 21
11.1996815921
 31
0.0
  0
LINE
  5
265
330
1F
100
AcDbEntity
  8
0
  6
Continuous
 62
     7
370
    15
100
AcDbLine
 10
18.8449009909
 20
9.6240160877
 30
0.0
 11
18.8449009909
 21
9.4190160759
 31
0.0
  0
ARC
  5
266
330
1F
100
AcDbEntity
  8
0
  6
Continuous
 62
     7
370
    15
100
AcDbCircle
 10
13.4502913648
 20
9.3297157994
 30
0.0
 40
5.394998669048576
100
AcDbArc
 50
359.7421156851
 51
0.8275266731
  0
ARC
  5
267
330
1F
100
AcDbEntity
  8
0
  6
Continuous
 62
     7
370
    15
100
AcDbCircle
 10
10.905386306
 20
9.2681704561
 30
0.0
 40
7.939936520739817
100
AcDbArc
 50
359.5270709033
 51
0.2688957795
  0
LINE
  5
268
330
1F
100
AcDbEntity
  8
0
  6
Continuous
 62
     7
370
    15
100
AcDbLine
 10
18.8449356038
 20
9.3211323133
 30
0.0
 11
18.8449356038
 21
9.4644653508
 31
0.0
  0
LINE
  5
269
330
1F
100
AcDbEntity
  8
0
  6
Continuous
 62
     7
370
    15
100
AcDbLine
 10
18.8449356038
 20
9.259465339
 30
0.0
 11
18.8449356038
 21
9.3211323133
 31
0.0
  0
LINE
  5
26A
330
1F
100
AcDbEntity
  8
0
  6
Continuous
 62
     8
370
    15
100
AcDbLine
 10
13.979300982
 20
9.976567295
 30
0.0
 11
13.979300982
 21
8.8265673565
 31
0.0
  0
LINE
  5
26B
330
1F
100
AcDbEntity
  8
0
  6
Continuous
 62
     8
370
    15
100
AcDbLine
 10
14.0643009968
 20
8.8265673565
 30
0.0
 11
14.0643009968
 21
9.976567295
 31
0.0
  0
LINE
  5
26C
330
1F
100
AcDbEntity
  8
0
  6
Continuous
 62
     8
370
    15
100
AcDbLine
 10
13.979300982
 20
10.7665673155
 30
0.0
 11
13.979300982
 21
10.4165673454
 31
0.0
  0
LINE
  5
26D
330
1F
100
AcDbEntity
  8
0
  6
Continuous
 62
     8
370
    15
100
AcDbLine
 10
14.0643009968
 20
10.4165673454
 30
0.0
 11
14.0643009968
 21
10.7665673155
 31
0.0
  0
DIMENSION
  5
26E
330
1F
100
AcDbEntity
  8
DATA
100
AcDbDimension
  2
_D
 10
13.9593009658
 20
7.2474260584
 30
0.0
 11
12.408950138
 21
7.2474260584
 31
0.0
 70
   160
  1
<>
 71
     2
 42
-1.0
  3
SLDDIMSTYLE0
100
AcDbAlignedDimension
 13
10.8933009658
 23
8.4222963224
 33
0.0
 14
13.9593009658
 24
8.4390673614
 34
0.0
100
AcDbRotatedDimension
  0
DIMENSION
  5
27A
330
1F
100
AcDbEntity
  8
DATA
100
AcDbDimension
  2
_D_1
 10
18.8449357722
 20
7.2474260584
 30
0.0
 11
16.4686478937
 21
7.2474260584
 31
0.0
 70
   160
  1
<>
 71
     2
 42
-1.0
  3
SLDDIMSTYLE1
100
AcDbAlignedDimension
 13
13.9593009658
 23
8.4390673614
 33
0.0
 14
18.8449357722
 24
9.2594653267
 34
0.0
100
AcDbRotatedDimension
  0
DIMENSION
  5
287
330
1F
100
AcDbEntity
  8
DATA
100
AcDbDimension
  2
_D_2
 10
14.8343009658
 20
7.7668163829
 30
0.0
 11
14.3600561672
 21
7.7668163829
 31
0.0
 70
   160
  1
<>
 71
     2
 42
-1.0
  3
SLDDIMSTYLE2
100
AcDbAlignedDimension
 13
13.9593009658
 23
8.4390673614
 33
0.0
 14
14.8343009658
 24
9.0350673614
 34
0.0
100
AcDbRotatedDimension
  0
DIMENSION
  5
293
330
1F
100
AcDbEntity
  8
DATA
100
AcDbDimension
  2
_D_3
 10
13.9593009658
 20
11.968888911
 30
0.0
 11
13.1172757613
 21
11.968888911
 31
0.0
 70
   160
  1
<>
 71
     2
 42
-1.0
  3
SLDDIMSTYLE2
100
AcDbAlignedDimension
 13
14.0843009658
 23
10.7465673614
 33
0.0
 14
13.9593009658
 24
11.1040673614
 34
0.0
100
AcDbRotatedDimension
  0
MTEXT
  5
29E
330
1F
100
AcDbEntity
  8
DATA
 62
     7
100
AcDbMText
 10
15.9132033012
 20
11.0413024535
 30
0.0
 40
0.1458333333
 41
0.0
 71
     1
 72
     1
  1
1/2 NPSM
  7
SLDTEXTSTYLE0
 73
     1
 44
1.0
  0
LEADER
  5
2A0
330
1F
100
AcDbEntity
  8
DATA
 62
     7
100
AcDbLeader
  3
SLDDIMSTYLE3
 76
     3
 10
14.7502319175
 20
9.8085673412
 30
0.0
 10
15.3687023878
 20
10.9708370648
 30
0.0
 10
15.8687023878
 20
10.9708370648
 30
0.0
  0
MTEXT
  5
2A1
330
1F
100
AcDbEntity
  8
DATA
100
AcDbMText
 10
15.6628941643
 20
11.7592666281
 30
0.0
 40
0.1458333333
 41
0.0
 71
     1
 72
     1
  1
1/2 SEALING LOCKNUT
  7
SLDTEXTSTYLE0
 73
     1
 44
1.0
  0
LEADER
  5
2A2
330
1F
100
AcDbEntity
  8
DATA
100
AcDbLeader
  3
SLDDIMSTYLE3
 76
     3
 10
14.2624778621
 20
9.9715673614
 30
0.0
 10
15.1217820333
 20
11.6841625333
 30
0.0
 10
15.6217820333
 20
11.6841625333
 30
0.0
  0
MTEXT
  5
2A3
330
1F
100
AcDbEntity
  8
DATA
100
AcDbMText
 10
18.3525698937
 20
10.5544489929
 30
0.0
 40
0.1458333333
 41
0.0
 71
     1
 72
     1
  1
10 AWG WIRES
  7
SLDTEXTSTYLE0
 73
     1
 44
1.0
  0
LEADER
  5
2A4
330
1F
100
AcDbEntity
  8
DATA
100
AcDbLeader
  3
SLDDIMSTYLE3
 76
     3
 10
17.3947553493
 20
9.6240160924
 30
0.0
 10
17.8104703375
 20
10.4769963559
 30
0.0
 10
18.3104703375
 20
10.4769963559
 30
0.0
  0
LINE
  5
2A5
330
1F
100
AcDbEntity
  8
0
  6
Continuous
 62
     7
370
    15
100
AcDbLine
 10
3.842959091
 20
11.1061592058
 30
0.0
 11
3.842959091
 21
8.4369755576
 31
0.0
  0
LINE
  5
2A6
330
1F
100
AcDbEntity
  8
0
  6
Continuous
 62
     7
370
    15
100
AcDbLine
 10
3.8430274369
 20
11.1062275517
 30
0.0
 11
3.842959091
 21
11.1061592058
 31
0.0
  0
LINE
  5
2A7
330
1F
100
AcDbEntity
  8
0
  6
Continuous
 62
     7
370
    15
100
AcDbLine
 10
3.842959091
 20
8.4369755576
 30
0.0
 11
3.8430274369
 21
8.4369072438
 31
0.0
  0
LINE
  5
2A8
330
1F
100
AcDbEntity
  8
0
  6
Continuous
 62
     7
370
    15
100
AcDbLine
 10
4.1037563983
 20
10.9985053561
 30
0.0
 11
4.1037563983
 21
8.5446293752
 31
0.0
  0
LINE
  5
2A9
330
1F
100
AcDbEntity
  8
0
  6
Continuous
 62
     7
370
    15
100
AcDbLine
 10
4.1037563983
 20
8.5446293752
 30
0.0
 11
4.0249134157
 21
8.5119714674
 31
0.0
  0
LINE
  5
2AA
330
1F
100
AcDbEntity
  8
0
  6
Continuous
 62
     7
370
    15
100
AcDbLine
 10
4.0249134157
 20
11.0311632455
 30
0.0
 11
4.0249134157
 21
8.5119714674
 31
0.0
  0
LINE
  5
2AB
330
1F
100
AcDbEntity
  8
0
  6
Continuous
 62
     7
370
    15
100
AcDbLine
 10
4.1037563983
 20
10.9985053561
 30
0.0
 11
4.0249134157
 21
11.0311632455
 31
0.0
  0
LINE
  5
2AC
330
1F
100
AcDbEntity
  8
0
  6
Continuous
 62
     7
370
    15
100
AcDbLine
 10
4.2260896517
 20
11.1208383163
 30
0.0
 11
4.1037563983
 21
10.9985053561
 31
0.0
  0
LINE
  5
2AD
330
1F
100
AcDbEntity
  8
0
  6
Continuous
 62
     7
370
    15
100
AcDbLine
 10
4.193431469
 20
11.1996815921
 30
0.0
 11
4.0249134157
 21
11.0311632455
 31
0.0
  0
LINE
  5
2AE
330
1F
100
AcDbEntity
  8
0
  6
Continuous
 62
     7
370
    15
100
AcDbLine
 10
4.2260896517
 20
11.1208383163
 30
0.0
 11
4.193431469
 21
11.1996815921
 31
0.0
  0
LINE
  5
2AF
330
1F
100
AcDbEntity
  8
0
  6
Continuous
 62
     7
370
    15
100
AcDbLine
 10
4.1037563983
 20
8.5446293752
 30
0.0
 11
4.2260896517
 21
8.4222963234
 31
0.0
  0
LINE
  5
2B0
330
1F
100
AcDbEntity
  8
0
  6
Continuous
 62
     7
370
    15
100
AcDbLine
 10
4.2260896517
 20
8.4222963234
 30
0.0
 11
4.193431469
 21
8.3434531736
 31
0.0
  0
LINE
  5
2B1
330
1F
100
AcDbEntity
  8
0
  6
Continuous
 62
     7
370
    15
100
AcDbLine
 10
4.0249134157
 20
8.5119714674
 30
0.0
 11
4.193431469
 21
8.3434531736
 31
0.0
  0
LINE
  5
2B2
330
1F
100
AcDbEntity
  8
0
  6
Continuous
 62
     7
370
    15
100
AcDbLine
 10
5.3109654658
 20
11.1208383163
 30
0.0
 11
4.2260896517
 21
11.1208383163
 31
0.0
  0
LINE
  5
2B3
330
1F
100
AcDbEntity
  8
0
  6
Continuous
 62
     7
370
    15
100
AcDbLine
 10
5.4332985726
 20
10.9985053561
 30
0.0
 11
5.3109654658
 21
11.1208383163
 31
0.0
  0
LINE
  5
2B4
330
1F
100
AcDbEntity
  8
0
  6
Continuous
 62
     7
370
    15
100
AcDbLine
 10
5.4332985726
 20
8.5446293752
 30
0.0
 11
5.4332985726
 21
10.9985053561
 31
0.0
  0
LINE
  5
2B5
330
1F
100
AcDbEntity
  8
0
  6
Continuous
 62
     7
370
    15
100
AcDbLine
 10
5.3109654658
 20
8.4222963234
 30
0.0
 11
5.4332985726
 21
8.5446293752
 31
0.0
  0
LINE
  5
2B6
330
1F
100
AcDbEntity
  8
0
  6
Continuous
 62
     7
370
    15
100
AcDbLine
 10
4.2260896517
 20
8.4222963234
 30
0.0
 11
5.3109654658
 21
8.4222963234
 31
0.0
  0
LINE
  5
2B7
330
1F
100
AcDbEntity
  8
0
  6
Continuous
 62
     7
370
    15
100
AcDbLine
 10
5.3421417457
 20
8.5823877773
 30
0.0
 11
5.3421417457
 21
10.9607470457
 31
0.0
  0
LINE
  5
2B8
330
1F
100
AcDbEntity
  8
0
  6
Continuous
 62
     7
370
    15
100
AcDbLine
 10
5.3421417457
 20
10.9607470457
 30
0.0
 11
5.2732071553
 21
11.029681636
 31
0.0
  0
LINE
  5
2B9
330
1F
100
AcDbEntity
  8
0
  6
Continuous
 62
     7
370
    15
100
AcDbLine
 10
5.2732071553
 20
11.029681636
 30
0.0
 11
4.2638479622
 21
11.029681636
 31
0.0
  0
LINE
  5
2BA
330
1F
100
AcDbEntity
  8
0
  6
Continuous
 62
     7
370
    15
100
AcDbLine
 10
4.1949133719
 20
10.9607470457
 30
0.0
 11
4.1949133719
 21
8.5823877773
 31
0.0
  0
LINE
  5
2BB
330
1F
100
AcDbEntity
  8
0
  6
Continuous
 62
     7
370
    15
100
AcDbLine
 10
4.1949133719
 20
8.5823877773
 30
0.0
 11
4.2638479622
 21
8.5134531687
 31
0.0
  0
LINE
  5
2BC
330
1F
100
AcDbEntity
  8
0
  6
Continuous
 62
     7
370
    15
100
AcDbLine
 10
4.2638479622
 20
8.5134531687
 30
0.0
 11
5.2732071553
 21
8.5134531687
 31
0.0
  0
LINE
  5
2BD
330
1F
100
AcDbEntity
  8
0
  6
Continuous
 62
     7
370
    15
100
AcDbLine
 10
5.2732071553
 20
8.5134531687
 30
0.0
 11
5.3421417457
 21
8.5823877773
 31
0.0
  0
LINE
  5
2BE
330
1F
100
AcDbEntity
  8
0
  6
Continuous
 62
     7
370
    15
100
AcDbLine
 10
4.2638479622
 20
11.029681636
 30
0.0
 11
4.1949133719
 21
10.9607470457
 31
0.0
  0
LINE
  5
2BF
330
1F
100
AcDbEntity
  8
0
  6
Continuous
 62
     7
370
    15
100
AcDbLine
 10
5.3436233552
 20
11.1996815921
 30
0.0
 11
4.193431469
 21
11.1996815921
 31
0.0
  0
LINE
  5
2C0
330
1F
100
AcDbEntity
  8
0
  6
Continuous
 62
     7
370
    15
100
AcDbLine
 10
5.3436233552
 20
11.1996815921
 30
0.0
 11
5.3109654658
 21
11.1208383163
 31
0.0
  0
LINE
  5
2C1
330
1F
100
AcDbEntity
  8
0
  6
Continuous
 62
     7
370
    15
100
AcDbLine
 10
5.3436233552
 20
8.3434531736
 30
0.0
 11
5.3109654658
 21
8.4222963234
 31
0.0
  0
LINE
  5
2C2
330
1F
100
AcDbEntity
  8
0
  6
Continuous
 62
     7
370
    15
100
AcDbLine
 10
4.193431469
 20
8.3434531736
 30
0.0
 11
5.3436233552
 21
8.3434531736
 31
0.0
  0
LINE
  5
2C3
330
1F
100
AcDbEntity
  8
0
  6
Continuous
 62
     7
370
    15
100
AcDbLine
 10
5.5121417018
 20
11.0311632455
 30
0.0
 11
5.4332985726
 21
10.9985053561
 31
0.0
  0
LINE
  5
2C4
330
1F
100
AcDbEntity
  8
0
  6
Continuous
 62
     7
370
    15
100
AcDbLine
 10
5.5121417018
 20
8.5119714674
 30
0.0
 11
5.5121417018
 21
11.0311632455
 31
0.0
  0
LINE
  5
2C5
330
1F
100
AcDbEntity
  8
0
  6
Continuous
 62
     7
370
    15
100
AcDbLine
 10
5.5121417018
 20
8.5119714674
 30
0.0
 11
5.4332985726
 21
8.5446293752
 31
0.0
  0
LINE
  5
2C6
330
1F
100
AcDbEntity
  8
0
  6
Continuous
 62
     7
370
    15
100
AcDbLine
 10
5.5121417018
 20
11.0311632455
 30
0.0
 11
5.3436233552
 21
11.1996815921
 31
0.0
  0
LINE
  5
2C7
330
1F
100
AcDbEntity
  8
0
  6
Continuous
 62
     7
370
    15
100
AcDbLine
 10
5.3436233552
 20
8.3434531736
 30
0.0
 11
5.5121417018
 21
8.5119714674
 31
0.0
  0
LINE
  5
2C8
330
1F
100
AcDbEntity
  8
0
  6
Continuous
 62
     7
370
    15
100
AcDbLine
 10
4.0049133001
 20
11.0394474698
 30
0.0
 11
4.1851472447
 21
11.2196814144
 31
0.0
  0
LWPOLYLINE
  5
2C9
330
1F
100
AcDbEntity
  8
0
  6
Continuous
 62
     7
370
    15
100
AcDbPolyline
 90
       10
 70
   128
 43
0.0
 10
4.1851472447
 20
11.2196814144
 10
4.1865860281
 20
11.2162086812
 10
4.187980812
 20
11.2128412534
 10
4.1892893568
 20
11.2096815033
 10
4.1904723565
 20
11.2068259363
 10
4.1914934381
 20
11.2043607914
 10
4.1923218018
 20
11.2023611612
 10
4.1929319281
 20
11.2008877649
 10
4.1933056305
 20
11.1999854819
 10
4.193431469
 20
11.1996815921
  0
LWPOLYLINE
  5
2CA
330
1F
100
AcDbEntity
  8
0
  6
Continuous
 62
     7
370
    15
100
AcDbPolyline
 90
       10
 70
   128
 43
0.0
 10
4.0049133001
 20
11.0394474698
 10
4.0083863267
 20
11.0380089798
 10
4.0117537544
 20
11.0366141959
 10
4.0149132113
 20
11.0353053577
 10
4.0177690716
 20
11.034122358
 10
4.0202342165
 20
11.0331012765
 10
4.0222338467
 20
11.032273206
 10
4.023707243
 20
11.0316627864
 10
4.0246095259
 20
11.0312890841
 10
4.0249134157
 20
11.0311632455
  0
LINE
  5
2CB
330
1F
100
AcDbEntity
  8
0
  6
Continuous
 62
     7
370
    15
100
AcDbLine
 10
4.0049133001
 20
8.5036871973
 30
0.0
 11
4.0049133001
 21
11.0394474698
 31
0.0
  0
LWPOLYLINE
  5
2CC
330
1F
100
AcDbEntity
  8
0
  6
Continuous
 62
     7
370
    15
100
AcDbPolyline
 90
        9
 70
   128
 43
0.0
 10
4.0049133001
 20
8.5036871973
 10
4.008815175
 20
8.5053033811
 10
4.012566865
 20
8.5068574524
 10
4.0160246384
 20
8.5082896908
 10
4.0190553234
 20
8.5095450605
 10
4.0215427613
 20
8.5105753177
 10
4.0233910333
 20
8.5113408631
 10
4.0245291535
 20
8.5118122901
 10
4.0249134157
 20
8.5119714674
  0
LINE
  5
2CD
330
1F
100
AcDbEntity
  8
0
  6
Continuous
 62
     7
370
    15
100
AcDbLine
 10
4.1851472447
 20
8.3234531748
 30
0.0
 11
4.0049133001
 21
8.5036871973
 31
0.0
  0
LWPOLYLINE
  5
2CE
330
1F
100
AcDbEntity
  8
0
  6
Continuous
 62
     7
370
    15
100
AcDbPolyline
 90
        9
 70
   128
 43
0.0
 10
4.1851472447
 20
8.3234531748
 10
4.1867634927
 20
8.327354981
 10
4.1883175547
 20
8.3311068406
 10
4.1897498849
 20
8.3345645773
 10
4.191005337
 20
8.3375953081
 10
4.1920355118
 20
8.340082565
 10
4.1928011029
 20
8.3419307636
 10
4.1932724842
 20
8.3430688793
 10
4.193431469
 20
8.3434531736
  0
LINE
  5
2CF
330
1F
100
AcDbEntity
  8
0
  6
Continuous
 62
     7
370
    15
100
AcDbLine
 10
4.1851472447
 20
11.2196814144
 30
0.0
 11
5.3519077262
 21
11.2196814144
 31
0.0
  0
LWPOLYLINE
  5
2D0
330
1F
100
AcDbEntity
  8
0
  6
Continuous
 62
     7
370
    15
100
AcDbPolyline
 90
        9
 70
   128
 43
0.0
 10
5.3436233552
 20
11.1996815921
 10
5.3437826334
 20
11.2000658544
 10
5.3442540146
 20
11.2012039745
 10
5.3450196058
 20
11.2030522465
 10
5.3460497805
 20
11.2055393911
 10
5.3473052327
 20
11.2085700761
 10
5.3487374161
 20
11.2120278495
 10
5.3502914782
 20
11.2157798328
 10
5.3519077262
 20
11.2196814144
  0
LWPOLYLINE
  5
2D1
330
1F
100
AcDbEntity
  8
0
  6
Continuous
 62
     7
370
    15
100
AcDbPolyline
 90
        9
 70
   128
 43
0.0
 10
5.3436233552
 20
8.3434531736
 10
5.3437826334
 20
8.3430688793
 10
5.3442540146
 20
8.3419307636
 10
5.3450196058
 20
8.340082565
 10
5.3460497805
 20
8.3375953081
 10
5.3473052327
 20
8.3345645773
 10
5.3487374161
 20
8.3311068406
 10
5.3502914782
 20
8.327354981
 10
5.3519077262
 20
8.3234531748
  0
LINE
  5
2D2
330
1F
100
AcDbEntity
  8
0
  6
Continuous
 62
     7
370
    15
100
AcDbLine
 10
5.3519077262
 20
8.3234531748
 30
0.0
 11
4.1851472447
 21
8.3234531748
 31
0.0
  0
LINE
  5
2D3
330
1F
100
AcDbEntity
  8
0
  6
Continuous
 62
     7
370
    15
100
AcDbLine
 10
5.3519077262
 20
11.2196814144
 30
0.0
 11
5.5321416708
 21
11.0394474698
 31
0.0
  0
LWPOLYLINE
  5
2D4
330
1F
100
AcDbEntity
  8
0
  6
Continuous
 62
     7
370
    15
100
AcDbPolyline
 90
       10
 70
   128
 43
0.0
 10
5.5121417018
 20
11.0311632455
 10
5.5124455916
 20
11.0312890841
 10
5.5133478745
 20
11.0316627864
 10
5.5148211242
 20
11.032273206
 10
5.5168207544
 20
11.0331012765
 10
5.5192858993
 20
11.034122358
 10
5.5221417596
 20
11.0353053577
 10
5.5253012165
 20
11.0366141959
 10
5.5286687909
 20
11.0380089798
 10
5.5321416708
 20
11.0394474698
  0
LWPOLYLINE
  5
2D5
330
1F
100
AcDbEntity
  8
0
  6
Continuous
 62
     7
370
    15
100
AcDbPolyline
 90
       10
 70
   128
 43
0.0
 10
5.5121417018
 20
8.5119714674
 10
5.5124455916
 20
8.5118456106
 10
5.5133478745
 20
8.5114718624
 10
5.5148211242
 20
8.5108615894
 10
5.5168207544
 20
8.5100333173
 10
5.5192858993
 20
8.5090122266
 10
5.5221417596
 20
8.507829337
 10
5.5253012165
 20
8.5065205813
 10
5.5286687909
 20
8.5051257424
 10
5.5321416708
 20
8.5036871973
  0
LINE
  5
2D6
330
1F
100
AcDbEntity
  8
0
  6
Continuous
 62
     7
370
    15
100
AcDbLine
 10
5.5321416708
 20
8.5036871973
 30
0.0
 11
5.3519077262
 21
8.3234531748
 31
0.0
  0
LINE
  5
2D7
330
1F
100
AcDbEntity
  8
0
  6
Continuous
 62
     7
370
    15
100
AcDbLine
 10
5.5321416708
 20
11.0394474698
 30
0.0
 11
5.5321416708
 21
8.5036871973
 31
0.0
  0
LINE
  5
2D8
330
1F
100
AcDbEntity
  8
0
  6
Continuous
 62
     7
370
    15
100
AcDbLine
 10
3.8449132551
 20
11.1057215576
 30
0.0
 11
4.118873157
 21
11.3796814594
 31
0.0
  0
LINE
  5
2D9
330
1F
100
AcDbEntity
  8
0
  6
Continuous
 62
     7
370
    15
100
AcDbLine
 10
4.1497399737
 20
11.3051627469
 30
0.0
 11
4.118873157
 21
11.3796814594
 31
0.0
  0
LINE
  5
2DA
330
1F
100
AcDbEntity
  8
0
  6
Continuous
 62
     7
370
    15
100
AcDbLine
 10
3.9194319676
 20
11.0748550341
 30
0.0
 11
4.1497399737
 21
11.3051627469
 31
0.0
  0
LINE
  5
2DB
330
1F
100
AcDbEntity
  8
0
  6
Continuous
 62
     7
370
    15
100
AcDbLine
 10
3.9194319676
 20
11.0748550341
 30
0.0
 11
3.8449132551
 21
11.1057215576
 31
0.0
  0
LINE
  5
2DC
330
1F
100
AcDbEntity
  8
0
  6
Continuous
 62
     7
370
    15
100
AcDbLine
 10
3.8449132551
 20
8.4374130271
 30
0.0
 11
3.8449132551
 21
11.1057215576
 31
0.0
  0
LINE
  5
2DD
330
1F
100
AcDbEntity
  8
0
  6
Continuous
 62
     7
370
    15
100
AcDbLine
 10
3.9194319676
 20
8.4682797063
 30
0.0
 11
3.9194319676
 21
11.0748550341
 31
0.0
  0
LINE
  5
2DE
330
1F
100
AcDbEntity
  8
0
  6
Continuous
 62
     7
370
    15
100
AcDbLine
 10
3.9194319676
 20
8.4682797063
 30
0.0
 11
3.8449132551
 21
8.4374130271
 31
0.0
  0
LINE
  5
2DF
330
1F
100
AcDbEntity
  8
0
  6
Continuous
 62
     7
370
    15
100
AcDbLine
 10
4.1497399737
 20
11.3051627469
 30
0.0
 11
5.3873151438
 21
11.3051627469
 31
0.0
  0
LINE
  5
2E0
330
1F
100
AcDbEntity
  8
0
  6
Continuous
 62
     7
370
    15
100
AcDbLine
 10
5.3873151438
 20
11.3051627469
 30
0.0
 11
5.6176230033
 21
11.0748550341
 31
0.0
  0
LINE
  5
2E1
330
1F
100
AcDbEntity
  8
0
  6
Continuous
 62
     7
370
    15
100
AcDbLine
 10
5.6176230033
 20
11.0748550341
 30
0.0
 11
5.6176230033
 21
8.4682797063
 31
0.0
  0
LINE
  5
2E2
330
1F
100
AcDbEntity
  8
0
  6
Continuous
 62
     7
370
    15
100
AcDbLine
 10
5.6176230033
 20
8.4682797063
 30
0.0
 11
5.3873151438
 21
8.2379719294
 31
0.0
  0
LINE
  5
2E3
330
1F
100
AcDbEntity
  8
0
  6
Continuous
 62
     7
370
    15
100
AcDbLine
 10
5.3873151438
 20
8.2379719294
 30
0.0
 11
4.1497399737
 21
8.2379719294
 31
0.0
  0
LINE
  5
2E4
330
1F
100
AcDbEntity
  8
0
  6
Continuous
 62
     7
370
    15
100
AcDbLine
 10
4.1497399737
 20
8.2379719294
 30
0.0
 11
3.9194319676
 21
8.4682797063
 31
0.0
  0
LINE
  5
2E5
330
1F
100
AcDbEntity
  8
0
  6
Continuous
 62
     7
370
    15
100
AcDbLine
 10
4.118873157
 20
8.1634531802
 30
0.0
 11
3.8449132551
 21
8.4374130271
 31
0.0
  0
LINE
  5
2E6
330
1F
100
AcDbEntity
  8
0
  6
Continuous
 62
     7
370
    15
100
AcDbLine
 10
4.1497399737
 20
8.2379719294
 30
0.0
 11
4.118873157
 21
8.1634531802
 31
0.0
  0
LINE
  5
2E7
330
1F
100
AcDbEntity
  8
0
  6
Continuous
 62
     7
370
    15
100
AcDbLine
 10
4.118873157
 20
11.3796814594
 30
0.0
 11
5.4181818139
 21
11.3796814594
 31
0.0
  0
LINE
  5
2E8
330
1F
100
AcDbEntity
  8
0
  6
Continuous
 62
     7
370
    15
100
AcDbLine
 10
5.4181818139
 20
11.3796814594
 30
0.0
 11
5.3873151438
 21
11.3051627469
 31
0.0
  0
LINE
  5
2E9
330
1F
100
AcDbEntity
  8
0
  6
Continuous
 62
     7
370
    15
100
AcDbLine
 10
5.4181818139
 20
8.1634531802
 30
0.0
 11
4.118873157
 21
8.1634531802
 31
0.0
  0
LINE
  5
2EA
330
1F
100
AcDbEntity
  8
0
  6
Continuous
 62
     7
370
    15
100
AcDbLine
 10
5.4181818139
 20
8.1634531802
 30
0.0
 11
5.3873151438
 21
8.2379719294
 31
0.0
  0
LINE
  5
2EB
330
1F
100
AcDbEntity
  8
0
  6
Continuous
 62
     7
370
    15
100
AcDbLine
 10
5.4181818139
 20
11.3796814594
 30
0.0
 11
5.6921417158
 21
11.1057215576
 31
0.0
  0
LINE
  5
2EC
330
1F
100
AcDbEntity
  8
0
  6
Continuous
 62
     7
370
    15
100
AcDbLine
 10
5.6921417158
 20
11.1057215576
 30
0.0
 11
5.6176230033
 21
11.0748550341
 31
0.0
  0
LINE
  5
2ED
330
1F
100
AcDbEntity
  8
0
  6
Continuous
 62
     7
370
    15
100
AcDbLine
 10
5.6921417158
 20
8.4374130271
 30
0.0
 11
5.4181818139
 21
8.1634531802
 31
0.0
  0
LINE
  5
2EE
330
1F
100
AcDbEntity
  8
0
  6
Continuous
 62
     7
370
    15
100
AcDbLine
 10
5.6921417158
 20
8.4374130271
 30
0.0
 11
5.6176230033
 21
8.4682797063
 31
0.0
  0
LINE
  5
2EF
330
1F
100
AcDbEntity
  8
0
  6
Continuous
 62
     7
370
    15
100
AcDbLine
 10
5.6921417158
 20
11.1057215576
 30
0.0
 11
5.6921417158
 21
8.4374130271
 31
0.0
  0
LINE
  5
2F0
330
1F
100
AcDbEntity
  8
0
  6
Continuous
 62
     7
370
    15
100
AcDbLine
 10
4.1180920193
 20
11.3815672776
 30
0.0
 11
3.8430274369
 21
11.1065026952
 31
0.0
  0
LINE
  5
2F1
330
1F
100
AcDbEntity
  8
0
  6
Continuous
 62
     7
370
    15
100
AcDbLine
 10
4.118873157
 20
11.3796814594
 30
0.0
 11
4.1180920193
 21
11.3815672776
 31
0.0
  0
LINE
  5
2F2
330
1F
100
AcDbEntity
  8
0
  6
Continuous
 62
     7
370
    15
100
AcDbLine
 10
3.8449132551
 20
11.1057215576
 30
0.0
 11
3.8430274369
 21
11.1065026952
 31
0.0
  0
LINE
  5
2F3
330
1F
100
AcDbEntity
  8
0
  6
Continuous
 62
     7
370
    15
100
AcDbLine
 10
3.8430274369
 20
11.1065026952
 30
0.0
 11
3.8430274369
 21
8.4366318986
 31
0.0
  0
LINE
  5
2F4
330
1F
100
AcDbEntity
  8
0
  6
Continuous
 62
     7
370
    15
100
AcDbLine
 10
3.8449132551
 20
8.4374130271
 30
0.0
 11
3.8430274369
 21
8.4366318986
 31
0.0
  0
LINE
  5
2F5
330
1F
100
AcDbEntity
  8
0
  6
Continuous
 62
     7
370
    15
100
AcDbLine
 10
3.8430274369
 20
8.4366318986
 30
0.0
 11
4.1180920193
 21
8.161567362
 31
0.0
  0
LINE
  5
2F6
330
1F
100
AcDbEntity
  8
0
  6
Continuous
 62
     7
370
    15
100
AcDbLine
 10
4.118873157
 20
8.1634531802
 30
0.0
 11
4.1180920193
 21
8.161567362
 31
0.0
  0
LINE
  5
2F7
330
1F
100
AcDbEntity
  8
0
  6
Continuous
 62
     7
370
    15
100
AcDbLine
 10
5.4189629516
 20
11.3815672776
 30
0.0
 11
4.1180920193
 21
11.3815672776
 31
0.0
  0
LINE
  5
2F8
330
1F
100
AcDbEntity
  8
0
  6
Continuous
 62
     7
370
    15
100
AcDbLine
 10
5.4181818139
 20
11.3796814594
 30
0.0
 11
5.4189629516
 21
11.3815672776
 31
0.0
  0
LINE
  5
2F9
330
1F
100
AcDbEntity
  8
0
  6
Continuous
 62
     7
370
    15
100
AcDbLine
 10
4.1180920193
 20
8.161567362
 30
0.0
 11
5.4189629516
 21
8.161567362
 31
0.0
  0
LINE
  5
2FA
330
1F
100
AcDbEntity
  8
0
  6
Continuous
 62
     7
370
    15
100
AcDbLine
 10
5.4181818139
 20
8.1634531802
 30
0.0
 11
5.4189629516
 21
8.161567362
 31
0.0
  0
LINE
  5
2FB
330
1F
100
AcDbEntity
  8
0
  6
Continuous
 62
     7
370
    15
100
AcDbLine
 10
5.694027534
 20
11.1065026952
 30
0.0
 11
5.4189629516
 21
11.3815672776
 31
0.0
  0
LINE
  5
2FC
330
1F
100
AcDbEntity
  8
0
  6
Continuous
 62
     7
370
    15
100
AcDbLine
 10
5.6921417158
 20
11.1057215576
 30
0.0
 11
5.694027534
 21
11.1065026952
 31
0.0
  0
LINE
  5
2FD
330
1F
100
AcDbEntity
  8
0
  6
Continuous
 62
     7
370
    15
100
AcDbLine
 10
5.4189629516
 20
8.161567362
 30
0.0
 11
5.694027534
 21
8.4366318986
 31
0.0
  0
LINE
  5
2FE
330
1F
100
AcDbEntity
  8
0
  6
Continuous
 62
     7
370
    15
100
AcDbLine
 10
5.6921417158
 20
8.4374130271
 30
0.0
 11
5.694027534
 21
8.4366318986
 31
0.0
  0
LINE
  5
2FF
330
1F
100
AcDbEntity
  8
0
  6
Continuous
 62
     7
370
    15
100
AcDbLine
 10
5.694027534
 20
8.4366318986
 30
0.0
 11
5.694027534
 21
11.1065026952
 31
0.0
  0
DIMENSION
  5
300
330
1F
100
AcDbEntity
  8
DATA
100
AcDbDimension
  2
_D_4
 10
5.6940275001
 20
7.3741657866
 30
0.0
 11
4.6941413717
 21
7.3741657866
 31
0.0
 70
   160
  1
<>
 71
     2
 42
-1.0
  3
SLDDIMSTYLE0
100
AcDbAlignedDimension
 13
3.8429591843
 23
8.4369755574
 33
0.0
 14
5.6940275001
 24
8.4366318993
 34
0.0
100
AcDbRotatedDimension
  0
DIMENSION
  5
30B
330
1F
100
AcDbEntity
  8
DATA
100
AcDbDimension
  2
_D_5
 10
3.0555576095
 20
11.3815673614
 30
0.0
 11
3.0555576095
 21
9.7677487291
 31
0.0
 70
   160
  1
<>
 71
     2
 42
-1.0
  3
SLDDIMSTYLE0
100
AcDbAlignedDimension
 13
4.118092038
 23
8.1615673614
 33
0.0
 14
4.118092038
 24
11.3815673614
 34
0.0
 50
90.0
100
AcDbRotatedDimension
  0
ENDSEC
  0
SECTION
  2
OBJECTS
  0
DICTIONARY
  5
C
330
0
100
AcDbDictionary
281
     1
  3
ACAD_GROUP
350
D
  3
ACAD_LAYOUT
350
1A
  3
ACAD_MLINESTYLE
350
17
  3
ACAD_PLOTSETTINGS
350
19
  3
ACAD_PLOTSTYLENAME
350
E
  3
ACAD_SCALELIST
350
47
  0
DICTIONARY
  5
D
102
{ACAD_REACTORS
330
C
102
}
330
C
100
AcDbDictionary
281
     1
  0
DICTIONARY
  5
1A
102
{ACAD_REACTORS
330
C
102
}
330
C
100
AcDbDictionary
281
     1
  3
Layout1
350
1E
  3
Layout2
350
26
  3
Model
350
22
  0
DICTIONARY
  5
17
102
{ACAD_REACTORS
330
C
102
}
330
C
100
AcDbDictionary
281
     1
  3
Standard
350
18
  0
DICTIONARY
  5
19
102
{ACAD_REACTORS
330
C
102
}
330
C
100
AcDbDictionary
281
     1
  0
ACDBDICTIONARYWDFLT
  5
E
102
{ACAD_REACTORS
330
C
102
}
330
C
100
AcDbDictionary
281
     1
  3
Normal
350
F
100
AcDbDictionaryWithDefault
340
F
  0
DICTIONARY
  5
47
102
{ACAD_REACTORS
330
C
102
}
330
C
100
AcDbDictionary
281
     1
  3
A0
350
48
  3
A1
350
49
  3
A2
350
4A
  3
A3
350
4B
  3
A4
350
4C
  3
A5
350
4D
  3
A6
350
4E
  3
A7
350
4F
  3
A8
350
50
  3
A9
350
51
  3
B0
350
52
  3
B1
350
53
  3
B2
350
54
  3
B3
350
55
  3
B4
350
56
  3
B5
350
57
  3
B6
350
58
  3
B7
350
59
  3
B8
350
5A
  3
B9
350
5B
  3
C0
350
5C
  3
C1
350
5D
  3
C2
350
5E
  3
C3
350
5F
  3
C4
350
60
  3
C5
350
61
  3
C6
350
62
  3
C7
350
63
  3
C8
350
64
  3
C9
350
65
  3
D0
350
66
  3
D1
350
67
  3
D2
350
68
  0
LAYOUT
  5
1E
102
{ACAD_REACTORS
330
1A
102
}
330
1A
100
AcDbPlotSettings
  1

  2
none_device
  4

  6

 40
0.0
 41
0.0
 42
0.0
 43
0.0
 44
0.0
 45
0.0
 46
0.0
 47
0.0
 48
0.0
 49
0.0
140
0.0
141
0.0
142
1.0
143
1.0
 70
   688
 72
     0
 73
     0
 74
     5
  7

 75
    16
147
1.0
148
0.0
149
0.0
100
AcDbLayout
  1
Layout1
 70
     1
 71
     1
 10
0.0
 20
0.0
 11
12.0
 21
9.0
 12
0.0
 22
0.0
 32
0.0
 14
1.0000000000E+20
 24
1.0000000000E+20
 34
1.0000000000E+20
 15
-1.0000000000E+20
 25
-1.0000000000E+20
 35
-1.0000000000E+20
146
0.0
 13
0.0
 23
0.0
 33
0.0
 16
1.0
 26
0.0
 36
0.0
 17
0.0
 27
1.0
 37
0.0
 76
     0
330
1B
  0
LAYOUT
  5
26
102
{ACAD_REACTORS
330
1A
102
}
330
1A
100
AcDbPlotSettings
  1

  2
none_device
  4

  6

 40
0.0
 41
0.0
 42
0.0
 43
0.0
 44
0.0
 45
0.0
 46
0.0
 47
0.0
 48
0.0
 49
0.0
140
0.0
141
0.0
142
1.0
143
1.0
 70
   688
 72
     0
 73
     0
 74
     5
  7

 75
    16
147
1.0
148
0.0
149
0.0
100
AcDbLayout
  1
Layout2
 70
     1
 71
     2
 10
0.0
 20
0.0
 11
0.0
 21
0.0
 12
0.0
 22
0.0
 32
0.0
 14
0.0
 24
0.0
 34
0.0
 15
0.0
 25
0.0
 35
0.0
146
0.0
 13
0.0
 23
0.0
 33
0.0
 16
1.0
 26
0.0
 36
0.0
 17
0.0
 27
1.0
 37
0.0
 76
     0
330
23
  0
LAYOUT
  5
22
102
{ACAD_REACTORS
330
1A
102
}
330
1A
100
AcDbPlotSettings
  1

  2
none_device
  4
Letter_(8.50_x_11.00_Inches)
  6

 40
6.35
 41
6.35
 42
6.35000508
 43
6.35000508
 44
215.9
 45
279.4
 46
0.0
 47
0.0
 48
0.0
 49
0.0
140
0.0
141
0.0
142
1.0
143
1.0
 70
  1712
 72
     0
 73
     0
 74
     0
  7

 75
     0
147
1.0
148
0.0
149
0.0
100
AcDbLayout
  1
Model
 70
     1
 71
     0
 10
0.0
 20
0.0
 11
22.0
 21
17.0
 12
0.0
 22
0.0
 32
0.0
 14
0.0
 24
0.0
 34
0.0
 15
22.0
 25
17.0
 35
0.0
146
0.0
 13
0.0
 23
0.0
 33
0.0
 16
1.0
 26
0.0
 36
0.0
 17
0.0
 27
1.0
 37
0.0
 76
     0
330
1F
331
29
  0
MLINESTYLE
  5
18
102
{ACAD_REACTORS
330
17
102
}
330
17
100
AcDbMlineStyle
  2
Standard
 70
     0
  3

 62
   256
 51
90.0
 52
90.0
 71
     2
 49
0.5
 62
   256
  6
BYLAYER
 49
-0.5
 62
   256
  6
BYLAYER
  0
ACDBPLACEHOLDER
  5
F
102
{ACAD_REACTORS
330
E
102
}
330
E
  0
SCALE
  5
48
102
{ACAD_REACTORS
330
47
102
}
330
47
100
AcDbScale
 70
     0
300
1:1
140
1.0
141
1.0
290
     1
  0
SCALE
  5
49
102
{ACAD_REACTORS
330
47
102
}
330
47
100
AcDbScale
 70
     0
300
1:2
140
1.0
141
2.0
290
     0
  0
SCALE
  5
4A
102
{ACAD_REACTORS
330
47
102
}
330
47
100
AcDbScale
 70
     0
300
1:4
140
1.0
141
4.0
290
     0
  0
SCALE
  5
4B
102
{ACAD_REACTORS
330
47
102
}
330
47
100
AcDbScale
 70
     0
300
1:5
140
1.0
141
5.0
290
     0
  0
SCALE
  5
4C
102
{ACAD_REACTORS
330
47
102
}
330
47
100
AcDbScale
 70
     0
300
1:8
140
1.0
141
8.0
290
     0
  0
SCALE
  5
4D
102
{ACAD_REACTORS
330
47
102
}
330
47
100
AcDbScale
 70
     0
300
1:10
140
1.0
141
10.0
290
     0
  0
SCALE
  5
4E
102
{ACAD_REACTORS
330
47
102
}
330
47
100
AcDbScale
 70
     0
300
1:16
140
1.0
141
16.0
290
     0
  0
SCALE
  5
4F
102
{ACAD_REACTORS
330
47
102
}
330
47
100
AcDbScale
 70
     0
300
1:20
140
1.0
141
20.0
290
     0
  0
SCALE
  5
50
102
{ACAD_REACTORS
330
47
102
}
330
47
100
AcDbScale
 70
     0
300
1:30
140
1.0
141
30.0
290
     0
  0
SCALE
  5
51
102
{ACAD_REACTORS
330
47
102
}
330
47
100
AcDbScale
 70
     0
300
1:40
140
1.0
141
40.0
290
     0
  0
SCALE
  5
52
102
{ACAD_REACTORS
330
47
102
}
330
47
100
AcDbScale
 70
     0
300
1:50
140
1.0
141
50.0
290
     0
  0
SCALE
  5
53
102
{ACAD_REACTORS
330
47
102
}
330
47
100
AcDbScale
 70
     0
300
1:100
140
1.0
141
100.0
290
     0
  0
SCALE
  5
54
102
{ACAD_REACTORS
330
47
102
}
330
47
100
AcDbScale
 70
     0
300
2:1
140
2.0
141
1.0
290
     0
  0
SCALE
  5
55
102
{ACAD_REACTORS
330
47
102
}
330
47
100
AcDbScale
 70
     0
300
4:1
140
4.0
141
1.0
290
     0
  0
SCALE
  5
56
102
{ACAD_REACTORS
330
47
102
}
330
47
100
AcDbScale
 70
     0
300
8:1
140
8.0
141
1.0
290
     0
  0
SCALE
  5
57
102
{ACAD_REACTORS
330
47
102
}
330
47
100
AcDbScale
 70
     0
300
10:1
140
10.0
141
1.0
290
     0
  0
SCALE
  5
58
102
{ACAD_REACTORS
330
47
102
}
330
47
100
AcDbScale
 70
     0
300
100:1
140
100.0
141
1.0
290
     0
  0
SCALE
  5
59
102
{ACAD_REACTORS
330
47
102
}
330
47
100
AcDbScale
 70
     0
300
1/128" = 1'-0"
140
0.0078125
141
12.0
290
     0
  0
SCALE
  5
5A
102
{ACAD_REACTORS
330
47
102
}
330
47
100
AcDbScale
 70
     0
300
1/64" = 1'-0"
140
0.015625
141
12.0
290
     0
  0
SCALE
  5
5B
102
{ACAD_REACTORS
330
47
102
}
330
47
100
AcDbScale
 70
     0
300
1/32" = 1'-0"
140
0.03125
141
12.0
290
     0
  0
SCALE
  5
5C
102
{ACAD_REACTORS
330
47
102
}
330
47
100
AcDbScale
 70
     0
300
1/16" = 1'-0"
140
0.0625
141
12.0
290
     0
  0
SCALE
  5
5D
102
{ACAD_REACTORS
330
47
102
}
330
47
100
AcDbScale
 70
     0
300
3/32" = 1'-0"
140
0.09375
141
12.0
290
     0
  0
SCALE
  5
5E
102
{ACAD_REACTORS
330
47
102
}
330
47
100
AcDbScale
 70
     0
300
1/8" = 1'-0"
140
0.125
141
12.0
290
     0
  0
SCALE
  5
5F
102
{ACAD_REACTORS
330
47
102
}
330
47
100
AcDbScale
 70
     0
300
3/16" = 1'-0"
140
0.1875
141
12.0
290
     0
  0
SCALE
  5
60
102
{ACAD_REACTORS
330
47
102
}
330
47
100
AcDbScale
 70
     0
300
1/4" = 1'-0"
140
0.25
141
12.0
290
     0
  0
SCALE
  5
61
102
{ACAD_REACTORS
330
47
102
}
330
47
100
AcDbScale
 70
     0
300
3/8" = 1'-0"
140
0.375
141
12.0
290
     0
  0
SCALE
  5
62
102
{ACAD_REACTORS
330
47
102
}
330
47
100
AcDbScale
 70
     0
300
1/2" = 1'-0"
140
0.5
141
12.0
290
     0
  0
SCALE
  5
63
102
{ACAD_REACTORS
330
47
102
}
330
47
100
AcDbScale
 70
     0
300
3/4" = 1'-0"
140
0.75
141
12.0
290
     0
  0
SCALE
  5
64
102
{ACAD_REACTORS
330
47
102
}
330
47
100
AcDbScale
 70
     0
300
1" = 1'-0"
140
1.0
141
12.0
290
     0
  0
SCALE
  5
65
102
{ACAD_REACTORS
330
47
102
}
330
47
100
AcDbScale
 70
     0
300
1-1/2" = 1'-0"
140
1.5
141
12.0
290
     0
  0
SCALE
  5
66
102
{ACAD_REACTORS
330
47
102
}
330
47
100
AcDbScale
 70
     0
300
3" = 1'-0"
140
3.0
141
12.0
290
     0
  0
SCALE
  5
67
102
{ACAD_REACTORS
330
47
102
}
330
47
100
AcDbScale
 70
     0
300
6" = 1'-0"
140
6.0
141
12.0
290
     0
  0
SCALE
  5
68
102
{ACAD_REACTORS
330
47
102
}
330
47
100
AcDbScale
 70
     0
300
1'-0" = 1'-0"
140
12.0
141
12.0
290
     0
  0
ENDSEC
  0
EOF
