  0
SECTION
  2
HEADER
  9
$ACADVER
  1
AC1015
  9
$ACADMAINTVER
 70
     6
  9
$DWGCODEPAGE
  3
ANSI_1252
  9
$INSBASE
 10
0.0
 20
0.0
 30
0.0
  9
$EXTMIN
 10
0.0
 20
0.0
 30
0.0
  9
$EXTMAX
 10
11.0
 20
8.5
 30
0.0
  9
$LIMMIN
 10
0.0
 20
0.0
  9
$LIMMAX
 10
11.0
 20
8.5
  9
$ORTHOMODE
 70
     0
  9
$REGENMODE
 70
     1
  9
$FILLMODE
 70
     1
  9
$QTEXTMODE
 70
     0
  9
$MIRRTEXT
 70
     1
  9
$LTSCALE
 40
1.0
  9
$ATTMODE
 70
     1
  9
$TEXTSIZE
 40
0.0972222222
  9
$TRACEWID
 40
0.05
  9
$TEXTSTYLE
  7
Standard
  9
$CLAYER
  8
0
  9
$CELTYPE
  6
ByLayer
  9
$CECOLOR
 62
   256
  9
$CELTSCALE
 40
1.0
  9
$DISPSILH
 70
     0
  9
$DIMSCALE
 40
1.0
  9
$DIMASZ
 40
0.094
  9
$DIMEXO
 40
0.06
  9
$DIMDLI
 40
0.38
  9
$DIMRND
 40
0.0
  9
$DIMDLE
 40
0.0
  9
$DIMEXE
 40
0.125
  9
$DIMTP
 40
0.0
  9
$DIMTM
 40
0.0
  9
$DIMTXT
 40
0.0972222222
  9
$DIMCEN
 40
0.09
  9
$DIMTSZ
 40
0.0
  9
$DIMTOL
 70
     0
  9
$DIMLIM
 70
     0
  9
$DIMTIH
 70
     1
  9
$DIMTOH
 70
     1
  9
$DIMSE1
 70
     0
  9
$DIMSE2
 70
     0
  9
$DIMTAD
 70
     0
  9
$DIMZIN
 70
     0
  9
$DIMBLK
  1

  9
$DIMASO
 70
     1
  9
$DIMSHO
 70
     1
  9
$DIMPOST
  1

  9
$DIMAPOST
  1

  9
$DIMALT
 70
     0
  9
$DIMALTD
 70
     2
  9
$DIMALTF
 40
25.4
  9
$DIMLFAC
 40
1.0
  9
$DIMTOFL
 70
     0
  9
$DIMTVP
 40
0.0
  9
$DIMTIX
 70
     0
  9
$DIMSOXD
 70
     0
  9
$DIMSAH
 70
     0
  9
$DIMBLK1
  1

  9
$DIMBLK2
  1

  9
$DIMSTYLE
  2
Standard
  9
$DIMCLRD
 70
     0
  9
$DIMCLRE
 70
     0
  9
$DIMCLRT
 70
     0
  9
$DIMTFAC
 40
1.0
  9
$DIMGAP
 40
0.06
  9
$DIMJUST
 70
     0
  9
$DIMSD1
 70
     0
  9
$DIMSD2
 70
     0
  9
$DIMTOLJ
 70
     1
  9
$DIMTZIN
 70
     0
  9
$DIMALTZ
 70
     0
  9
$DIMALTTZ
 70
     0
  9
$DIMUPT
 70
     0
  9
$DIMDEC
 70
     2
  9
$DIMTDEC
 70
     2
  9
$DIMALTU
 70
     2
  9
$DIMALTTD
 70
     2
  9
$DIMTXSTY
  7
Standard
  9
$DIMAUNIT
 70
     0
  9
$DIMADEC
 70
     2
  9
$DIMALTRND
 40
0.0
  9
$DIMAZIN
 70
     0
  9
$DIMDSEP
 70
    46
  9
$DIMATFIT
 70
     3
  9
$DIMFRAC
 70
     0
  9
$DIMLDRBLK
  1

  9
$DIMLUNIT
 70
     2
  9
$DIMLWD
 70
    -2
  9
$DIMLWE
 70
    -2
  9
$DIMTMOVE
 70
     0
  9
$LUNITS
 70
     2
  9
$LUPREC
 70
     3
  9
$SKETCHINC
 40
0.1
  9
$FILLETRAD
 40
0.5
  9
$AUNITS
 70
     0
  9
$AUPREC
 70
     0
  9
$MENU
  1
.
  9
$ELEVATION
 40
0.0
  9
$PELEVATION
 40
0.0
  9
$THICKNESS
 40
0.0
  9
$LIMCHECK
 70
     0
  9
$CHAMFERA
 40
0.5
  9
$CHAMFERB
 40
0.5
  9
$CHAMFERC
 40
1.0
  9
$CHAMFERD
 40
0.0
  9
$SKPOLY
 70
     0
  9
$TDCREATE
 40
2456672.454844051
  9
$TDUCREATE
 40
2456672.663177384
  9
$TDUPDATE
 40
2456672.454852442
  9
$TDUUPDATE
 40
2456672.663185775
  9
$TDINDWG
 40
0.0000000116
  9
$TDUSRTIMER
 40
0.0000000116
  9
$USRTIMER
 70
     1
  9
$ANGBASE
 50
0.0
  9
$ANGDIR
 70
     0
  9
$PDMODE
 70
     0
  9
$PDSIZE
 40
-1.0
  9
$PLINEWID
 40
0.0
  9
$SPLFRAME
 70
     0
  9
$SPLINETYPE
 70
     6
  9
$SPLINESEGS
 70
     8
  9
$HANDSEED
  5
50C
  9
$SURFTAB1
 70
     6
  9
$SURFTAB2
 70
     6
  9
$SURFTYPE
 70
     6
  9
$SURFU
 70
     6
  9
$SURFV
 70
     6
  9
$UCSBASE
  2

  9
$UCSNAME
  2

  9
$UCSORG
 10
0.0
 20
0.0
 30
0.0
  9
$UCSXDIR
 10
1.0
 20
0.0
 30
0.0
  9
$UCSYDIR
 10
0.0
 20
1.0
 30
0.0
  9
$UCSORTHOREF
  2

  9
$UCSORTHOVIEW
 70
     0
  9
$UCSORGTOP
 10
0.0
 20
0.0
 30
0.0
  9
$UCSORGBOTTOM
 10
0.0
 20
0.0
 30
0.0
  9
$UCSORGLEFT
 10
0.0
 20
0.0
 30
0.0
  9
$UCSORGRIGHT
 10
0.0
 20
0.0
 30
0.0
  9
$UCSORGFRONT
 10
0.0
 20
0.0
 30
0.0
  9
$UCSORGBACK
 10
0.0
 20
0.0
 30
0.0
  9
$PUCSBASE
  2

  9
$PUCSNAME
  2

  9
$PUCSORG
 10
0.0
 20
0.0
 30
0.0
  9
$PUCSXDIR
 10
1.0
 20
0.0
 30
0.0
  9
$PUCSYDIR
 10
0.0
 20
1.0
 30
0.0
  9
$PUCSORTHOREF
  2

  9
$PUCSORTHOVIEW
 70
     0
  9
$PUCSORGTOP
 10
0.0
 20
0.0
 30
0.0
  9
$PUCSORGBOTTOM
 10
0.0
 20
0.0
 30
0.0
  9
$PUCSORGLEFT
 10
0.0
 20
0.0
 30
0.0
  9
$PUCSORGRIGHT
 10
0.0
 20
0.0
 30
0.0
  9
$PUCSORGFRONT
 10
0.0
 20
0.0
 30
0.0
  9
$PUCSORGBACK
 10
0.0
 20
0.0
 30
0.0
  9
$USERI1
 70
     0
  9
$USERI2
 70
     0
  9
$USERI3
 70
     0
  9
$USERI4
 70
     0
  9
$USERI5
 70
     0
  9
$USERR1
 40
0.0
  9
$USERR2
 40
0.0
  9
$USERR3
 40
0.0
  9
$USERR4
 40
0.0
  9
$USERR5
 40
0.0
  9
$WORLDVIEW
 70
     1
  9
$SHADEDGE
 70
     3
  9
$SHADEDIF
 70
    70
  9
$TILEMODE
 70
     1
  9
$MAXACTVP
 70
    64
  9
$PINSBASE
 10
0.0
 20
0.0
 30
0.0
  9
$PLIMCHECK
 70
     0
  9
$PEXTMIN
 10
1.0000000000E+20
 20
1.0000000000E+20
 30
1.0000000000E+20
  9
$PEXTMAX
 10
-1.0000000000E+20
 20
-1.0000000000E+20
 30
-1.0000000000E+20
  9
$PLIMMIN
 10
0.0
 20
0.0
  9
$PLIMMAX
 10
12.0
 20
9.0
  9
$UNITMODE
 70
     0
  9
$VISRETAIN
 70
     1
  9
$PLINEGEN
 70
     0
  9
$PSLTSCALE
 70
     1
  9
$TREEDEPTH
 70
  3020
  9
$CMLSTYLE
  2
Standard
  9
$CMLJUST
 70
     0
  9
$CMLSCALE
 40
1.0
  9
$PROXYGRAPHICS
 70
     1
  9
$MEASUREMENT
 70
     0
  9
$CELWEIGHT
370
    -1
  9
$ENDCAPS
280
     0
  9
$JOINSTYLE
280
     0
  9
$LWDISPLAY
290
     1
  9
$INSUNITS
 70
     1
  9
$HYPERLINKBASE
  1

  9
$STYLESHEET
  1

  9
$XEDIT
290
     1
  9
$CEPSNTYPE
380
     0
  9
$PSTYLEMODE
290
     1
  9
$FINGERPRINTGUID
  2
{CD1AD6E1-84D6-4D06-B361-46C8026F7441}
  9
$VERSIONGUID
  2
{FAEB1C32-E019-11D5-929B-00C0DF256EC4}
  9
$EXTNAMES
290
     1
  9
$PSVPSCALE
 40
0.0
  9
$OLESTARTUP
290
     0
  0
ENDSEC
  0
SECTION
  2
CLASSES
  0
CLASS
  1
ACDBDICTIONARYWDFLT
  2
AcDbDictionaryWithDefault
  3
ObjectDBX Classes
 90
        0
280
     0
281
     0
  0
CLASS
  1
VISUALSTYLE
  2
AcDbVisualStyle
  3
ObjectDBX Classes
 90
     4095
280
     0
281
     0
  0
CLASS
  1
MATERIAL
  2
AcDbMaterial
  3
ObjectDBX Classes
 90
     1153
280
     0
281
     0
  0
CLASS
  1
ACDBPLACEHOLDER
  2
AcDbPlaceHolder
  3
ObjectDBX Classes
 90
        0
280
     0
281
     0
  0
CLASS
  1
LAYOUT
  2
AcDbLayout
  3
ObjectDBX Classes
 90
        0
280
     0
281
     0
  0
ENDSEC
  0
SECTION
  2
TABLES
  0
TABLE
  2
VPORT
  5
8
330
0
100
AcDbSymbolTable
 70
     1
  0
VPORT
  5
29
330
8
100
AcDbSymbolTableRecord
100
AcDbViewportTableRecord
  2
*Active
 70
     0
 10
0.0
 20
0.0
 11
1.0
 21
1.0
 12
5.5
 22
4.25
 13
0.0
 23
0.0
 14
0.5
 24
0.5
 15
0.5
 25
0.5
 16
0.0
 26
0.0
 36
1.0
 17
0.0
 27
0.0
 37
0.0
 40
8.5
 41
1.2941176471
 42
50.0
 43
0.0
 44
0.0
 50
0.0
 51
0.0
 71
     0
 72
  2000
 73
     1
 74
     3
 75
     0
 76
     0
 77
     0
 78
     0
281
     0
 65
     1
110
0.0
120
0.0
130
0.0
111
1.0
121
0.0
131
0.0
112
0.0
122
1.0
132
0.0
 79
     0
146
0.0
  0
ENDTAB
  0
TABLE
  2
LTYPE
  5
5
330
0
100
AcDbSymbolTable
 70
     6
  0
LTYPE
  5
14
330
5
100
AcDbSymbolTableRecord
100
AcDbLinetypeTableRecord
  2
ByBlock
 70
     0
  3

 72
    65
 73
     0
 40
0.0
  0
LTYPE
  5
15
330
5
100
AcDbSymbolTableRecord
100
AcDbLinetypeTableRecord
  2
ByLayer
 70
     0
  3

 72
    65
 73
     0
 40
0.0
  0
LTYPE
  5
16
330
5
100
AcDbSymbolTableRecord
100
AcDbLinetypeTableRecord
  2
Continuous
 70
     0
  3
Solid line
 72
    65
 73
     0
 40
0.0
  0
LTYPE
  5
3F
330
5
100
AcDbSymbolTableRecord
100
AcDbLinetypeTableRecord
  2
HIDDEN
 70
     0
  3
Hidden __ __ __ __ __ __ __ __ __ __ __ __ __ __
 72
    65
 73
     2
 40
0.075
 49
0.05
 74
     0
 49
-0.025
 74
     0
  0
LTYPE
  5
40
330
5
100
AcDbSymbolTableRecord
100
AcDbLinetypeTableRecord
  2
PHANTOM
 70
     0
  3
Phantom ______  __  __  ______  __  __  ______
 72
    65
 73
     6
 40
0.5
 49
0.25
 74
     0
 49
-0.05
 74
     0
 49
0.05
 74
     0
 49
-0.05
 74
     0
 49
0.05
 74
     0
 49
-0.05
 74
     0
  0
LTYPE
  5
41
330
5
100
AcDbSymbolTableRecord
100
AcDbLinetypeTableRecord
  2
CENTER
 70
     0
  3
Center ____ _ ____ _ ____ _ ____ _ ____ _ ____
 72
    65
 73
     4
 40
0.4
 49
0.25
 74
     0
 49
-0.05
 74
     0
 49
0.05
 74
     0
 49
-0.05
 74
     0
  0
LTYPE
  5
42
330
5
100
AcDbSymbolTableRecord
100
AcDbLinetypeTableRecord
  2
CENTERX2
 70
     0
  3
Center (2x) ________  __  ________  __  _____
 72
    65
 73
     4
 40
0.8
 49
0.5
 74
     0
 49
-0.1
 74
     0
 49
0.1
 74
     0
 49
-0.1
 74
     0
  0
LTYPE
  5
43
330
5
100
AcDbSymbolTableRecord
100
AcDbLinetypeTableRecord
  2
DOT2
 70
     0
  3
Dot (.5x) ........................................
 72
    65
 73
     2
 40
0.025
 49
0.0
 74
     0
 49
-0.025
 74
     0
  0
ENDTAB
  0
TABLE
  2
LAYER
  5
2
330
0
100
AcDbSymbolTable
 70
     5
  0
LAYER
  5
10
330
2
100
AcDbSymbolTableRecord
100
AcDbLayerTableRecord
  2
0
 70
     0
 62
     7
  6
Continuous
370
    -3
390
F
  0
LAYER
  5
44
330
2
100
AcDbSymbolTableRecord
100
AcDbLayerTableRecord
  2
SLD-0
 70
     0
 62
     7
  6
Continuous
370
    -3
390
F
  0
LAYER
  5
45
330
2
100
AcDbSymbolTableRecord
100
AcDbLayerTableRecord
  2
FORMAT
 70
     0
 62
     7
  6
Continuous
370
    -3
390
F
  0
LAYER
  5
46
330
2
100
AcDbSymbolTableRecord
100
AcDbLayerTableRecord
  2
DETAIL
 70
     0
 62
     7
  6
Continuous
370
    -3
390
F
  0
LAYER
  5
47
330
2
100
AcDbSymbolTableRecord
100
AcDbLayerTableRecord
  2
DATA
 70
     0
 62
     7
  6
Continuous
370
    -3
390
F
  0
ENDTAB
  0
TABLE
  2
STYLE
  5
3
330
0
100
AcDbSymbolTable
 70
     9
  0
STYLE
  5
11
330
3
100
AcDbSymbolTableRecord
100
AcDbTextStyleTableRecord
  2
Standard
 70
     0
 40
0.0
 41
1.0
 50
0.0
 71
     0
 42
0.0972222222
  3
txt
  4

  0
STYLE
  5
4D
330
3
100
AcDbSymbolTableRecord
100
AcDbTextStyleTableRecord
  2
SLDTEXTSTYLE0
 70
     0
 40
0.0
 41
0.605
 50
0.0
 71
     0
 42
0.2
  3
TXT
  4

  0
STYLE
  5
D9
330
3
100
AcDbSymbolTableRecord
100
AcDbTextStyleTableRecord
  2
SLDTEXTSTYLE1
 70
     0
 40
0.0
 41
0.6829836364
 50
0.0
 71
     0
 42
0.2
  3
TXT
  4

  0
STYLE
  5
E1
330
3
100
AcDbSymbolTableRecord
100
AcDbTextStyleTableRecord
  2
SLDTEXTSTYLE2
 70
     0
 40
0.0
 41
0.549
 50
0.0
 71
     0
 42
0.2
  3
TXT
  4

  0
STYLE
  5
E8
330
3
100
AcDbSymbolTableRecord
100
AcDbTextStyleTableRecord
  2
SLDTEXTSTYLE3
 70
     0
 40
0.0
 41
0.5209722222
 50
0.0
 71
     0
 42
0.2
  3
TXT
  4

  0
STYLE
  5
EF
330
3
100
AcDbSymbolTableRecord
100
AcDbTextStyleTableRecord
  2
SLDTEXTSTYLE4
 70
     0
 40
0.0
 41
0.4688749414
 50
0.0
 71
     0
 42
0.2
  3
TXT
  4

  0
STYLE
  5
F3
330
3
100
AcDbSymbolTableRecord
100
AcDbTextStyleTableRecord
  2
SLDTEXTSTYLE5
 70
     0
 40
0.0
 41
0.4244391905
 50
0.0
 71
     0
 42
0.2
  3
TXT
  4

  0
STYLE
  5
FF
330
3
100
AcDbSymbolTableRecord
100
AcDbTextStyleTableRecord
  2
SLDTEXTSTYLE6
 70
     0
 40
0.0
 41
0.5964854211
 50
0.0
 71
     0
 42
0.2
  3
TXT
  4

  0
STYLE
  5
104
330
3
100
AcDbSymbolTableRecord
100
AcDbTextStyleTableRecord
  2
SLDTEXTSTYLE7
 70
     0
 40
0.0
 41
0.5675
 50
0.0
 71
     0
 42
0.2
  3
TXT
  4

  0
ENDTAB
  0
TABLE
  2
VIEW
  5
6
330
0
100
AcDbSymbolTable
 70
     0
  0
ENDTAB
  0
TABLE
  2
UCS
  5
7
330
0
100
AcDbSymbolTable
 70
     0
  0
ENDTAB
  0
TABLE
  2
APPID
  5
9
330
0
100
AcDbSymbolTable
 70
     1
  0
APPID
  5
12
330
9
100
AcDbSymbolTableRecord
100
AcDbRegAppTableRecord
  2
ACAD
 70
     0
  0
ENDTAB
  0
TABLE
  2
DIMSTYLE
  5
A
330
0
100
AcDbSymbolTable
 70
     4
100
AcDbDimStyleTable
  0
DIMSTYLE
105
27
330
A
100
AcDbSymbolTableRecord
100
AcDbDimStyleTableRecord
  2
Standard
 70
     0
178
     0
340
11
  0
DIMSTYLE
105
188
102
{ACAD_REACTORS
330
187
330
46B
330
47F
330
493
330
4D0
102
}
330
A
100
AcDbSymbolTableRecord
100
AcDbDimStyleTableRecord
  2
SLDDIMSTYLE0
 70
     0
 41
0.094
 44
0.0
 45
0.000000001
 78
    12
 79
     3
140
0.0707804362
147
0.017695109
148
0.000000001
170
     1
173
     1
178
     0
271
     2
272
     2
274
     1
276
     2
284
    12
340
4D
  0
DIMSTYLE
105
457
102
{ACAD_REACTORS
330
456
330
4A7
330
4BB
102
}
330
A
100
AcDbSymbolTableRecord
100
AcDbDimStyleTableRecord
  2
SLDDIMSTYLE1
 70
     0
 41
0.094
 44
0.0
 45
0.000000001
 78
     4
 79
     1
140
0.0707804362
147
0.017695109
148
0.000000001
170
     1
173
     1
178
     0
271
     2
272
     2
274
     1
276
     2
284
    12
340
4D
  0
DIMSTYLE
105
4E5
102
{ACAD_REACTORS
330
4E4
102
}
330
A
100
AcDbSymbolTableRecord
100
AcDbDimStyleTableRecord
  2
SLDDIMSTYLE2
 70
     0
 41
0.094
 44
0.0
 45
0.000000001
 78
    12
 79
     3
140
0.0707804362
141
0.0
147
0.017695109
148
0.000000001
170
     1
173
     1
178
     0
271
     2
272
     2
274
     1
276
     2
284
    12
340
4D
  0
ENDTAB
  0
TABLE
  2
BLOCK_RECORD
  5
1
330
0
100
AcDbSymbolTable
 70
    21
  0
BLOCK_RECORD
  5
1F
330
1
100
AcDbSymbolTableRecord
100
AcDbBlockTableRecord
  2
*Model_Space
340
22
  0
BLOCK_RECORD
  5
1B
330
1
100
AcDbSymbolTableRecord
100
AcDbBlockTableRecord
  2
*Paper_Space
340
1E
  0
BLOCK_RECORD
  5
23
330
1
100
AcDbSymbolTableRecord
100
AcDbBlockTableRecord
  2
*Paper_Space0
340
26
  0
BLOCK_RECORD
  5
48
330
1
100
AcDbSymbolTableRecord
100
AcDbBlockTableRecord
  2
mm DIM NOTE
340
0
102
{BLKREFS
331
D7
102
}
  0
BLOCK_RECORD
  5
4F
330
1
100
AcDbSymbolTableRecord
100
AcDbBlockTableRecord
  2
Mersen-Logo
340
0
102
{BLKREFS
331
D8
102
}
  0
BLOCK_RECORD
  5
DC
330
1
100
AcDbSymbolTableRecord
100
AcDbBlockTableRecord
  2
SW_NOTE_0
340
0
102
{BLKREFS
331
E3
102
}
  0
BLOCK_RECORD
  5
E5
330
1
100
AcDbSymbolTableRecord
100
AcDbBlockTableRecord
  2
SW_NOTE_1
340
0
102
{BLKREFS
331
EB
102
}
  0
BLOCK_RECORD
  5
EC
330
1
100
AcDbSymbolTableRecord
100
AcDbBlockTableRecord
  2
SW_NOTE_2
340
0
102
{BLKREFS
331
F2
102
}
  0
BLOCK_RECORD
  5
F6
330
1
100
AcDbSymbolTableRecord
100
AcDbBlockTableRecord
  2
SW_NOTE_3
340
0
102
{BLKREFS
331
FB
102
}
  0
BLOCK_RECORD
  5
FC
330
1
100
AcDbSymbolTableRecord
100
AcDbBlockTableRecord
  2
SW_NOTE_4
340
0
102
{BLKREFS
331
103
102
}
  0
BLOCK_RECORD
  5
107
330
1
100
AcDbSymbolTableRecord
100
AcDbBlockTableRecord
  2
SW_TABLEANNOTATION_0
340
0
102
{BLKREFS
331
129
102
}
  0
BLOCK_RECORD
  5
12A
330
1
100
AcDbSymbolTableRecord
100
AcDbBlockTableRecord
  2
SW_TABLEANNOTATION_1
340
0
102
{BLKREFS
331
150
102
}
  0
BLOCK_RECORD
  5
189
330
1
100
AcDbSymbolTableRecord
100
AcDbBlockTableRecord
  2
_D
340
0
  0
BLOCK_RECORD
  5
458
330
1
100
AcDbSymbolTableRecord
100
AcDbBlockTableRecord
  2
_D_1
340
0
  0
BLOCK_RECORD
  5
46C
330
1
100
AcDbSymbolTableRecord
100
AcDbBlockTableRecord
  2
_D_2
340
0
  0
BLOCK_RECORD
  5
480
330
1
100
AcDbSymbolTableRecord
100
AcDbBlockTableRecord
  2
_D_3
340
0
  0
BLOCK_RECORD
  5
494
330
1
100
AcDbSymbolTableRecord
100
AcDbBlockTableRecord
  2
_D_4
340
0
  0
BLOCK_RECORD
  5
4A8
330
1
100
AcDbSymbolTableRecord
100
AcDbBlockTableRecord
  2
_D_5
340
0
  0
BLOCK_RECORD
  5
4BC
330
1
100
AcDbSymbolTableRecord
100
AcDbBlockTableRecord
  2
_D_6
340
0
  0
BLOCK_RECORD
  5
4D1
330
1
100
AcDbSymbolTableRecord
100
AcDbBlockTableRecord
  2
_D_7
340
0
  0
BLOCK_RECORD
  5
4E6
330
1
100
AcDbSymbolTableRecord
100
AcDbBlockTableRecord
  2
_D_8
340
0
  0
BLOCK_RECORD
  5
4F4
330
1
100
AcDbSymbolTableRecord
100
AcDbBlockTableRecord
  2
SW_CENTERMARKSYMBOL_0
340
0
102
{BLKREFS
331
4FF
102
}
  0
BLOCK_RECORD
  5
500
330
1
100
AcDbSymbolTableRecord
100
AcDbBlockTableRecord
  2
SW_CENTERMARKSYMBOL_1
340
0
102
{BLKREFS
331
50B
102
}
  0
ENDTAB
  0
ENDSEC
  0
SECTION
  2
BLOCKS
  0
BLOCK
  5
20
330
1F
100
AcDbEntity
  8
0
100
AcDbBlockBegin
  2
*Model_Space
 70
     0
 10
0.0
 20
0.0
 30
0.0
  3
*Model_Space
  1

  0
ENDBLK
  5
21
330
1F
100
AcDbEntity
  8
0
100
AcDbBlockEnd
  0
BLOCK
  5
1C
330
1B
100
AcDbEntity
 67
     1
  8
0
100
AcDbBlockBegin
  2
*Paper_Space
 70
     0
 10
0.0
 20
0.0
 30
0.0
  3
*Paper_Space
  1

  0
ENDBLK
  5
1D
330
1B
100
AcDbEntity
 67
     1
  8
0
100
AcDbBlockEnd
  0
BLOCK
  5
24
330
23
100
AcDbEntity
  8
0
100
AcDbBlockBegin
  2
*Paper_Space0
 70
     0
 10
0.0
 20
0.0
 30
0.0
  3
*Paper_Space0
  1

  0
ENDBLK
  5
25
330
23
100
AcDbEntity
  8
0
100
AcDbBlockEnd
  0
BLOCK
  5
49
330
48
100
AcDbEntity
  8
0
100
AcDbBlockBegin
  2
mm DIM NOTE
 70
     0
 10
0.0
 20
0.0
 30
0.0
  3
mm DIM NOTE
  1

  0
LINE
  5
4B
330
48
100
AcDbEntity
  8
SLD-0
 62
     7
370
    15
100
AcDbLine
 10
0.0
 20
0.0
 30
0.0
 11
0.0
 21
0.3
 31
0.0
  0
LINE
  5
4C
330
48
100
AcDbEntity
  8
SLD-0
 62
     7
370
    15
100
AcDbLine
 10
0.0
 20
0.3
 30
0.0
 11
2.349998
 21
0.3
 31
0.0
  0
MTEXT
  5
4E
330
48
100
AcDbEntity
  8
SLD-0
 62
     7
100
AcDbMText
 10
0.0157191834
 20
0.1945490608
 30
0.0
 40
0.09375
 41
0.0
 71
     1
 72
     1
  1
DIMENSIONS IN [   ] ARE MILLIMETERS
  7
SLDTEXTSTYLE0
 73
     1
 44
1.0
  0
ENDBLK
  5
4A
330
48
100
AcDbEntity
  8
0
100
AcDbBlockEnd
  0
BLOCK
  5
50
330
4F
100
AcDbEntity
  8
0
100
AcDbBlockBegin
  2
Mersen-Logo
 70
     0
 10
0.0
 20
0.0
 30
0.0
  3
Mersen-Logo
  1

  0
LINE
  5
52
330
4F
100
AcDbEntity
  8
0
  6
Continuous
 62
     7
370
     0
100
AcDbLine
 10
-0.5664201869
 20
-0.0462748515
 30
0.0
 11
-0.5664201869
 21
-0.0147060915
 31
0.0
  0
LINE
  5
53
330
4F
100
AcDbEntity
  8
0
  6
Continuous
 62
     7
370
     0
100
AcDbLine
 10
-0.5904070191
 20
0.0092807407
 30
0.0
 11
-0.7299470417
 21
0.0092807407
 31
0.0
  0
LINE
  5
54
330
4F
100
AcDbEntity
  8
0
  6
Continuous
 62
     7
370
     0
100
AcDbLine
 10
-0.7299470417
 20
0.0092807407
 30
0.0
 11
-0.7299470417
 21
0.0090908534
 31
0.0
  0
LINE
  5
55
330
4F
100
AcDbEntity
  8
0
  6
Continuous
 62
     7
370
     0
100
AcDbLine
 10
-0.7299470417
 20
0.0090908534
 30
0.0
 11
-0.7299470417
 21
-0.0214199631
 31
0.0
  0
LINE
  5
56
330
4F
100
AcDbEntity
  8
0
  6
Continuous
 62
     7
370
     0
100
AcDbLine
 10
-0.7299470417
 20
-0.0214199631
 30
0.0
 11
-0.6122779645
 21
-0.0214199631
 31
0.0
  0
LINE
  5
57
330
4F
100
AcDbEntity
  8
0
  6
Continuous
 62
     7
370
     0
100
AcDbLine
 10
-0.6122983096
 20
-0.0395609799
 30
0.0
 11
-0.7299470417
 21
-0.0395609799
 31
0.0
  0
LINE
  5
58
330
4F
100
AcDbEntity
  8
0
  6
Continuous
 62
     7
370
     0
100
AcDbLine
 10
-0.7299470417
 20
-0.0395609799
 30
0.0
 11
-0.7299470417
 21
-0.0884298272
 31
0.0
  0
LINE
  5
59
330
4F
100
AcDbEntity
  8
0
  6
Continuous
 62
     7
370
     0
100
AcDbLine
 10
-0.7299470417
 20
-0.0884298272
 30
0.0
 11
-0.873434007
 21
-0.0884298272
 31
0.0
  0
LINE
  5
5A
330
4F
100
AcDbEntity
  8
0
  6
Continuous
 62
     7
370
     0
100
AcDbLine
 10
-0.8825146879
 20
-0.0793016745
 30
0.0
 11
-0.8825146879
 21
-0.070254902
 31
0.0
  0
LINE
  5
5B
330
4F
100
AcDbEntity
  8
0
  6
Continuous
 62
     7
370
     0
100
AcDbLine
 10
-0.8825146879
 20
-0.070254902
 30
0.0
 11
-0.7695249758
 21
-0.070254902
 31
0.0
  0
LINE
  5
5C
330
4F
100
AcDbEntity
  8
0
  6
Continuous
 62
     7
370
     0
100
AcDbLine
 10
-0.7455381436
 20
-0.0462748515
 30
0.0
 11
-0.7455381436
 21
-0.0255228847
 31
0.0
  0
LINE
  5
5D
330
4F
100
AcDbEntity
  8
0
  6
Continuous
 62
     7
370
     0
100
AcDbLine
 10
-0.7824440924
 20
0.0092671773
 30
0.0
 11
-0.7824508741
 21
0.0092671773
 31
0.0
  0
LINE
  5
5E
330
4F
100
AcDbEntity
  8
0
  6
Continuous
 62
     7
370
     0
100
AcDbLine
 10
-0.7824508741
 20
0.0092671773
 30
0.0
 11
-0.8823926175
 21
0.0092671773
 31
0.0
  0
LINE
  5
5F
330
4F
100
AcDbEntity
  8
0
  6
Continuous
 62
     7
370
     0
100
AcDbLine
 10
-0.8823926175
 20
0.0092671773
 30
0.0
 11
-0.8823993992
 21
0.0092671773
 31
0.0
  0
LINE
  5
60
330
4F
100
AcDbEntity
  8
0
  6
Continuous
 62
     7
370
     0
100
AcDbLine
 10
-0.9193121297
 20
-0.0255228847
 30
0.0
 11
-0.9193189114
 21
-0.0255567931
 31
0.0
  0
LINE
  5
61
330
4F
100
AcDbEntity
  8
0
  6
Continuous
 62
     7
370
     0
100
AcDbLine
 10
-0.9193189114
 20
-0.0255567931
 30
0.0
 11
-0.9193189114
 21
-0.0842523071
 31
0.0
  0
LINE
  5
62
330
4F
100
AcDbEntity
  8
0
  6
Continuous
 62
     7
370
     0
100
AcDbLine
 10
-0.9193189114
 20
-0.0842523071
 30
0.0
 11
-0.9193121297
 21
-0.0842794338
 31
0.0
  0
LINE
  5
63
330
4F
100
AcDbEntity
  8
0
  6
Continuous
 62
     7
370
     0
100
AcDbLine
 10
-0.8823993992
 20
-0.1190830592
 30
0.0
 11
-0.7299470417
 21
-0.1190830592
 31
0.0
  0
LINE
  5
64
330
4F
100
AcDbEntity
  8
0
  6
Continuous
 62
     7
370
     0
100
AcDbLine
 10
-0.7299470417
 20
-0.1190830592
 30
0.0
 11
-0.6931292548
 21
-0.1190830592
 31
0.0
  0
LINE
  5
65
330
4F
100
AcDbEntity
  8
0
  6
Continuous
 62
     7
370
     0
100
AcDbLine
 10
-0.6931292548
 20
-0.1190830592
 30
0.0
 11
-0.6931292548
 21
-0.070254902
 31
0.0
  0
LINE
  5
66
330
4F
100
AcDbEntity
  8
0
  6
Continuous
 62
     7
370
     0
100
AcDbLine
 10
-0.6931292548
 20
-0.070254902
 30
0.0
 11
-0.6373363035
 21
-0.070254902
 31
0.0
  0
LINE
  5
67
330
4F
100
AcDbEntity
  8
0
  6
Continuous
 62
     7
370
     0
100
AcDbLine
 10
-0.6373363035
 20
-0.070254902
 30
0.0
 11
-0.6055030577
 21
-0.1190830592
 31
0.0
  0
LINE
  5
68
330
4F
100
AcDbEntity
  8
0
  6
Continuous
 62
     7
370
     0
100
AcDbLine
 10
-0.6055030577
 20
-0.1190830592
 30
0.0
 11
-0.5603709207
 21
-0.1190830592
 31
0.0
  0
LINE
  5
69
330
4F
100
AcDbEntity
  8
0
  6
Continuous
 62
     7
370
     0
100
AcDbLine
 10
-0.5603709207
 20
-0.1190830592
 30
0.0
 11
-0.5964223768
 21
-0.070254902
 31
0.0
  0
LINE
  5
6A
330
4F
100
AcDbEntity
  8
0
  6
Continuous
 62
     7
370
     0
100
AcDbLine
 10
-0.5964223768
 20
-0.070254902
 30
0.0
 11
-0.5904070191
 21
-0.070254902
 31
0.0
  0
LINE
  5
6B
330
4F
100
AcDbEntity
  8
0
  6
Continuous
 62
     7
370
     0
100
AcDbLine
 10
-0.8735018239
 20
-0.0214267448
 30
0.0
 11
-0.7913552311
 21
-0.0214267448
 31
0.0
  0
LINE
  5
6C
330
4F
100
AcDbEntity
  8
0
  6
Continuous
 62
     7
370
     0
100
AcDbLine
 10
-0.782342367
 20
-0.0304938623
 30
0.0
 11
-0.782342367
 21
-0.0395609799
 31
0.0
  0
LINE
  5
6D
330
4F
100
AcDbEntity
  8
0
  6
Continuous
 62
     7
370
     0
100
AcDbLine
 10
-0.782342367
 20
-0.0395609799
 30
0.0
 11
-0.8825146879
 21
-0.0395609799
 31
0.0
  0
LINE
  5
6E
330
4F
100
AcDbEntity
  8
0
  6
Continuous
 62
     7
370
     0
100
AcDbLine
 10
-0.8825146879
 20
-0.0395609799
 30
0.0
 11
-0.8825146879
 21
-0.0304938623
 31
0.0
  0
LINE
  5
6F
330
4F
100
AcDbEntity
  8
0
  6
Continuous
 62
     7
370
     0
100
AcDbLine
 10
-0.5447866006
 20
-0.0147060915
 30
0.0
 11
-0.5447866006
 21
-0.0462748515
 31
0.0
  0
LINE
  5
70
330
4F
100
AcDbEntity
  8
0
  6
Continuous
 62
     7
370
     0
100
AcDbLine
 10
-0.5207794233
 20
-0.070254902
 30
0.0
 11
-0.429063868
 21
-0.070254902
 31
0.0
  0
LINE
  5
71
330
4F
100
AcDbEntity
  8
0
  6
Continuous
 62
     7
370
     0
100
AcDbLine
 10
-0.4291316849
 20
-0.0884298272
 30
0.0
 11
-0.5447866006
 21
-0.0884298272
 31
0.0
  0
LINE
  5
72
330
4F
100
AcDbEntity
  8
0
  6
Continuous
 62
     7
370
     0
100
AcDbLine
 10
-0.5447866006
 20
-0.0884298272
 30
0.0
 11
-0.5447866006
 21
-0.1190830592
 31
0.0
  0
LINE
  5
73
330
4F
100
AcDbEntity
  8
0
  6
Continuous
 62
     7
370
     0
100
AcDbLine
 10
-0.5447866006
 20
-0.1190830592
 30
0.0
 11
-0.4072539578
 21
-0.1190830592
 31
0.0
  0
LINE
  5
74
330
4F
100
AcDbEntity
  8
0
  6
Continuous
 62
     7
370
     0
100
AcDbLine
 10
-0.3832467805
 20
-0.0951030087
 30
0.0
 11
-0.3832467805
 21
-0.0635478121
 31
0.0
  0
LINE
  5
75
330
4F
100
AcDbEntity
  8
0
  6
Continuous
 62
     7
370
     0
100
AcDbLine
 10
-0.4071318874
 20
-0.0395609799
 30
0.0
 11
-0.4989016962
 21
-0.0395609799
 31
0.0
  0
LINE
  5
76
330
4F
100
AcDbEntity
  8
0
  6
Continuous
 62
     7
370
     0
100
AcDbLine
 10
-0.4989288229
 20
-0.0214199631
 30
0.0
 11
-0.3832467805
 21
-0.0214199631
 31
0.0
  0
LINE
  5
77
330
4F
100
AcDbEntity
  8
0
  6
Continuous
 62
     7
370
     0
100
AcDbLine
 10
-0.3832467805
 20
-0.0214199631
 30
0.0
 11
-0.3832467805
 21
0.0092807407
 31
0.0
  0
LINE
  5
78
330
4F
100
AcDbEntity
  8
0
  6
Continuous
 62
     7
370
     0
100
AcDbLine
 10
-0.3832467805
 20
0.0092807407
 30
0.0
 11
-0.5207794233
 21
0.0092807407
 31
0.0
  0
LINE
  5
79
330
4F
100
AcDbEntity
  8
0
  6
Continuous
 62
     7
370
     0
100
AcDbLine
 10
-1.0018995322
 20
-0.0065951921
 30
0.0
 11
-1.0464620074
 21
-0.0853509406
 31
0.0
  0
LINE
  5
7A
330
4F
100
AcDbEntity
  8
0
  6
Continuous
 62
     7
370
     0
100
AcDbLine
 10
-1.0464620074
 20
-0.0853509406
 30
0.0
 11
-1.0910177008
 21
-0.0071173821
 31
0.0
  0
LINE
  5
7B
330
4F
100
AcDbEntity
  8
0
  6
Continuous
 62
     7
370
     0
100
AcDbLine
 10
-1.1580072198
 20
-0.0239224062
 30
0.0
 11
-1.1580072198
 21
-0.1188931719
 31
0.0
  0
LINE
  5
7C
330
4F
100
AcDbEntity
  8
0
  6
Continuous
 62
     7
370
     0
100
AcDbLine
 10
-1.1580072198
 20
-0.1188931719
 30
0.0
 11
-1.1212029963
 21
-0.1188931719
 31
0.0
  0
LINE
  5
7D
330
4F
100
AcDbEntity
  8
0
  6
Continuous
 62
     7
370
     0
100
AcDbLine
 10
-1.1212029963
 20
-0.1188931719
 30
0.0
 11
-1.1212029963
 21
-0.0399204094
 31
0.0
  0
LINE
  5
7E
330
4F
100
AcDbEntity
  8
0
  6
Continuous
 62
     7
370
     0
100
AcDbLine
 10
-1.1110101185
 20
-0.0373637128
 30
0.0
 11
-1.0648675099
 21
-0.1188931719
 31
0.0
  0
LINE
  5
7F
330
4F
100
AcDbEntity
  8
0
  6
Continuous
 62
     7
370
     0
100
AcDbLine
 10
-1.0648675099
 20
-0.1188931719
 30
0.0
 11
-1.0280632865
 21
-0.1188931719
 31
0.0
  0
LINE
  5
80
330
4F
100
AcDbEntity
  8
0
  6
Continuous
 62
     7
370
     0
100
AcDbLine
 10
-0.9717210184
 20
-0.0399204094
 30
0.0
 11
-0.9717210184
 21
-0.1188931719
 31
0.0
  0
LINE
  5
81
330
4F
100
AcDbEntity
  8
0
  6
Continuous
 62
     7
370
     0
100
AcDbLine
 10
-0.9717210184
 20
-0.1188931719
 30
0.0
 11
-0.9349167949
 21
-0.1188931719
 31
0.0
  0
LINE
  5
82
330
4F
100
AcDbEntity
  8
0
  6
Continuous
 62
     7
370
     0
100
AcDbLine
 10
-0.9349167949
 20
-0.1188931719
 30
0.0
 11
-0.9349167949
 21
-0.0239224062
 31
0.0
  0
LINE
  5
83
330
4F
100
AcDbEntity
  8
0
  6
Continuous
 62
     7
370
     0
100
AcDbLine
 10
-0.0367974418
 20
0.0640225303
 30
0.0
 11
-0.0367974418
 21
-0.0789218999
 31
0.0
  0
LINE
  5
84
330
4F
100
AcDbEntity
  8
0
  6
Continuous
 62
     7
370
     0
100
AcDbLine
 10
-0.178304154
 20
-0.0219082447
 30
0.0
 11
-0.178304154
 21
-0.0884298272
 31
0.0
  0
LINE
  5
85
330
4F
100
AcDbEntity
  8
0
  6
Continuous
 62
     7
370
     0
100
AcDbLine
 10
-0.178304154
 20
-0.0884298272
 30
0.0
 11
-0.3217911193
 21
-0.0884298272
 31
0.0
  0
LINE
  5
86
330
4F
100
AcDbEntity
  8
0
  6
Continuous
 62
     7
370
     0
100
AcDbLine
 10
-0.3308514552
 20
-0.0793016745
 30
0.0
 11
-0.3308514552
 21
-0.070254902
 31
0.0
  0
LINE
  5
87
330
4F
100
AcDbEntity
  8
0
  6
Continuous
 62
     7
370
     0
100
AcDbLine
 10
-0.3308514552
 20
-0.070254902
 30
0.0
 11
-0.2178685247
 21
-0.070254902
 31
0.0
  0
LINE
  5
88
330
4F
100
AcDbEntity
  8
0
  6
Continuous
 62
     7
370
     0
100
AcDbLine
 10
-0.1938749108
 20
-0.0462748515
 30
0.0
 11
-0.1938749108
 21
-0.0255228847
 31
0.0
  0
LINE
  5
89
330
4F
100
AcDbEntity
  8
0
  6
Continuous
 62
     7
370
     0
100
AcDbLine
 10
-0.230794423
 20
0.0092671773
 30
0.0
 11
-0.3307158214
 21
0.0092671773
 31
0.0
  0
LINE
  5
8A
330
4F
100
AcDbEntity
  8
0
  6
Continuous
 62
     7
370
     0
100
AcDbLine
 10
-0.3307158214
 20
0.0092671773
 30
0.0
 11
-0.3307429481
 21
0.0092671773
 31
0.0
  0
LINE
  5
8B
330
4F
100
AcDbEntity
  8
0
  6
Continuous
 62
     7
370
     0
100
AcDbLine
 10
-0.3676624603
 20
-0.0255228847
 30
0.0
 11
-0.3676624603
 21
-0.0255567931
 31
0.0
  0
LINE
  5
8C
330
4F
100
AcDbEntity
  8
0
  6
Continuous
 62
     7
370
     0
100
AcDbLine
 10
-0.3676624603
 20
-0.0255567931
 30
0.0
 11
-0.3676624603
 21
-0.0842523071
 31
0.0
  0
LINE
  5
8D
330
4F
100
AcDbEntity
  8
0
  6
Continuous
 62
     7
370
     0
100
AcDbLine
 10
-0.3676624603
 20
-0.0842523071
 30
0.0
 11
-0.3676624603
 21
-0.0842794338
 31
0.0
  0
LINE
  5
8E
330
4F
100
AcDbEntity
  8
0
  6
Continuous
 62
     7
370
     0
100
AcDbLine
 10
-0.3307429481
 20
-0.1190830592
 30
0.0
 11
-0.178304154
 21
-0.1190830592
 31
0.0
  0
LINE
  5
8F
330
4F
100
AcDbEntity
  8
0
  6
Continuous
 62
     7
370
     0
100
AcDbLine
 10
-0.178304154
 20
-0.1190830592
 30
0.0
 11
-0.178304154
 21
-0.2189366407
 31
0.0
  0
LINE
  5
90
330
4F
100
AcDbEntity
  8
0
  6
Continuous
 62
     7
370
     0
100
AcDbLine
 10
-0.178304154
 20
-0.2189366407
 30
0.0
 11
-0.1414931489
 21
-0.1950379704
 31
0.0
  0
LINE
  5
91
330
4F
100
AcDbEntity
  8
0
  6
Continuous
 62
     7
370
     0
100
AcDbLine
 10
-0.1414931489
 20
-0.1950379704
 30
0.0
 11
-0.1414931489
 21
-0.030914327
 31
0.0
  0
LINE
  5
92
330
4F
100
AcDbEntity
  8
0
  6
Continuous
 62
     7
370
     0
100
AcDbLine
 10
0.0
 20
-0.0879279822
 30
0.0
 11
0.0
 21
0.0879279822
 31
0.0
  0
LINE
  5
93
330
4F
100
AcDbEntity
  8
0
  6
Continuous
 62
     7
370
     0
100
AcDbLine
 10
0.0
 20
0.0879279822
 30
0.0
 11
-0.0367974418
 21
0.0640225303
 31
0.0
  0
LINE
  5
94
330
4F
100
AcDbEntity
  8
0
  6
Continuous
 62
     7
370
     0
100
AcDbLine
 10
-0.3218453728
 20
-0.0214267448
 30
0.0
 11
-0.2396919983
 21
-0.0214267448
 31
0.0
  0
LINE
  5
95
330
4F
100
AcDbEntity
  8
0
  6
Continuous
 62
     7
370
     0
100
AcDbLine
 10
-0.2306723526
 20
-0.0304938623
 30
0.0
 11
-0.2306723526
 21
-0.0395609799
 31
0.0
  0
LINE
  5
96
330
4F
100
AcDbEntity
  8
0
  6
Continuous
 62
     7
370
     0
100
AcDbLine
 10
-0.2306723526
 20
-0.0395609799
 30
0.0
 11
-0.3308514552
 21
-0.0395609799
 31
0.0
  0
LINE
  5
97
330
4F
100
AcDbEntity
  8
0
  6
Continuous
 62
     7
370
     0
100
AcDbLine
 10
-0.3308514552
 20
-0.0395609799
 30
0.0
 11
-0.3308514552
 21
-0.0304938623
 31
0.0
  0
SPLINE
  5
98
330
4F
100
AcDbEntity
  8
0
  6
Continuous
 62
     8
370
     0
100
AcDbSpline
210
0.0
220
0.0
230
1.0
 70
     8
 71
     3
 72
     8
 73
     4
 74
     0
 42
0.00000001
 43
0.00000001
 12
1.0
 22
0.0
 32
0.0
 13
1.0
 23
0.0
 33
0.0
 40
0.0
 40
0.0
 40
0.0
 40
0.0
 40
1.0
 40
1.0
 40
1.0
 40
1.0
 10
-0.5904070191149344
 20
-0.0702549020149688
 30
0.0
 10
-0.5771623814745817
 20
-0.0702549020149688
 30
0.0
 10
-0.5664201868907013
 20
-0.0595059257425883
 30
0.0
 10
-0.5664201868907013
 20
-0.0462748514792354
 30
0.0
  0
SPLINE
  5
99
330
4F
100
AcDbEntity
  8
0
  6
Continuous
 62
     8
370
     0
100
AcDbSpline
210
0.0
220
0.0
230
1.0
 70
     8
 71
     3
 72
     8
 73
     4
 74
     0
 42
0.00000001
 43
0.00000001
 12
1.0
 22
0.0
 32
0.0
 13
1.0
 23
0.0
 33
0.0
 40
2.0
 40
2.0
 40
2.0
 40
2.0
 40
3.0
 40
3.0
 40
3.0
 40
3.0
 10
-0.5664201868907013
 20
-0.0147060915120865
 30
0.0
 10
-0.5664201868907013
 20
-0.0014614538717338
 30
0.0
 10
-0.5771623814745817
 20
0.0092807407121468
 30
0.0
 10
-0.5904070191149344
 20
0.0092807407121468
 30
0.0
  0
SPLINE
  5
9A
330
4F
100
AcDbEntity
  8
0
  6
Continuous
 62
     8
370
     0
100
AcDbSpline
210
0.0
220
0.0
230
1.0
 70
     8
 71
     3
 72
     8
 73
     4
 74
     0
 42
0.00000001
 43
0.00000001
 12
1.0
 22
0.0
 32
0.0
 13
1.0
 23
0.0
 33
0.0
 40
7.0
 40
7.0
 40
7.0
 40
7.0
 40
8.0
 40
8.0
 40
8.0
 40
8.0
 10
-0.6122779645271912
 20
-0.0214199631270118
 30
0.0
 10
-0.6072798601027469
 20
-0.0214403081925116
 30
0.0
 10
-0.603210847002792
 20
-0.0254821945384667
 30
0.0
 10
-0.603210847002792
 20
-0.0304938623399109
 30
0.0
  0
SPLINE
  5
9B
330
4F
100
AcDbEntity
  8
0
  6
Continuous
 62
     8
370
     0
100
AcDbSpline
210
0.0
220
0.0
230
1.0
 70
     8
 71
     3
 72
     8
 73
     4
 74
     0
 42
0.00000001
 43
0.00000001
 12
1.0
 22
0.0
 32
0.0
 13
1.0
 23
0.0
 33
0.0
 40
8.0
 40
8.0
 40
8.0
 40
8.0
 40
9.0
 40
9.0
 40
9.0
 40
9.0
 10
-0.603210847002792
 20
-0.0304938623399109
 30
0.0
 10
-0.603210847002792
 20
-0.0355055301413552
 30
0.0
 10
-0.6072866417912467
 20
-0.0395609798643101
 30
0.0
 10
-0.612298309592691
 20
-0.0395609798643101
 30
0.0
  0
SPLINE
  5
9C
330
4F
100
AcDbEntity
  8
0
  6
Continuous
 62
     8
370
     0
100
AcDbSpline
210
0.0
220
0.0
230
1.0
 70
     8
 71
     3
 72
     8
 73
     4
 74
     0
 42
0.00000001
 43
0.00000001
 12
1.0
 22
0.0
 32
0.0
 13
1.0
 23
0.0
 33
0.0
 40
12.0
 40
12.0
 40
12.0
 40
12.0
 40
13.0
 40
13.0
 40
13.0
 40
13.0
 10
-0.8734340069707871
 20
-0.0884298271947667
 30
0.0
 10
-0.8784456747722312
 20
-0.0884298271947667
 30
0.0
 10
-0.8825146878721859
 20
-0.0843065605868125
 30
0.0
 10
-0.8825146878721859
 20
-0.0793016744738682
 30
0.0
  0
SPLINE
  5
9D
330
4F
100
AcDbEntity
  8
0
  6
Continuous
 62
     8
370
     0
100
AcDbSpline
210
0.0
220
0.0
230
1.0
 70
     8
 71
     3
 72
     8
 73
     4
 74
     0
 42
0.00000001
 43
0.00000001
 12
1.0
 22
0.0
 32
0.0
 13
1.0
 23
0.0
 33
0.0
 40
15.0
 40
15.0
 40
15.0
 40
15.0
 40
16.0
 40
16.0
 40
16.0
 40
16.0
 10
-0.7695249757749425
 20
-0.0702549020149688
 30
0.0
 10
-0.7562803381345898
 20
-0.0702549020149688
 30
0.0
 10
-0.7455381435507094
 20
-0.0595059257425883
 30
0.0
 10
-0.7455381435507094
 20
-0.0462748514792354
 30
0.0
  0
SPLINE
  5
9E
330
4F
100
AcDbEntity
  8
0
  6
Continuous
 62
     8
370
     0
100
AcDbSpline
210
0.0
220
0.0
230
1.0
 70
     8
 71
     3
 72
     8
 73
     4
 74
     0
 42
0.00000001
 43
0.00000001
 12
1.0
 22
0.0
 32
0.0
 13
1.0
 23
0.0
 33
0.0
 40
17.0
 40
17.0
 40
17.0
 40
17.0
 40
18.0
 40
18.0
 40
18.0
 40
18.0
 10
-0.7455381435507094
 20
-0.0255228846694662
 30
0.0
 10
-0.7455381435507094
 20
-0.00630357946068
 30
0.0
 10
-0.7620583367365256
 20
0.0092671773351469
 30
0.0
 10
-0.782444092367299
 20
0.0092671773351469
 30
0.0
  0
SPLINE
  5
9F
330
4F
100
AcDbEntity
  8
0
  6
Continuous
 62
     8
370
     0
100
AcDbSpline
210
0.0
220
0.0
230
1.0
 70
     8
 71
     3
 72
     8
 73
     4
 74
     0
 42
0.00000001
 43
0.00000001
 12
1.0
 22
0.0
 32
0.0
 13
1.0
 23
0.0
 33
0.0
 40
21.0
 40
21.0
 40
21.0
 40
21.0
 40
22.0
 40
22.0
 40
22.0
 40
22.0
 10
-0.8823993991676873
 20
0.0092671773351469
 30
0.0
 10
-0.9027851547984607
 20
0.0092671773351469
 30
0.0
 10
-0.9193121296727769
 20
-0.00630357946068
 30
0.0
 10
-0.9193121296727769
 20
-0.0255228846694662
 30
0.0
  0
SPLINE
  5
A0
330
4F
100
AcDbEntity
  8
0
  6
Continuous
 62
     8
370
     0
100
AcDbSpline
210
0.0
220
0.0
230
1.0
 70
     8
 71
     3
 72
     8
 73
     4
 74
     0
 42
0.00000001
 43
0.00000001
 12
1.0
 22
0.0
 32
0.0
 13
1.0
 23
0.0
 33
0.0
 40
25.0
 40
25.0
 40
25.0
 40
25.0
 40
26.0
 40
26.0
 40
26.0
 40
26.0
 10
-0.9193121296727769
 20
-0.0842794338328128
 30
0.0
 10
-0.9193121296727769
 20
-0.1035123024185989
 30
0.0
 10
-0.9027851547984607
 20
-0.1190830592144258
 30
0.0
 10
-0.8823993991676873
 20
-0.1190830592144258
 30
0.0
  0
SPLINE
  5
A1
330
4F
100
AcDbEntity
  8
0
  6
Continuous
 62
     8
370
     0
100
AcDbSpline
210
0.0
220
0.0
230
1.0
 70
     8
 71
     3
 72
     8
 73
     4
 74
     0
 42
0.00000001
 43
0.00000001
 12
1.0
 22
0.0
 32
0.0
 13
1.0
 23
0.0
 33
0.0
 40
0.0
 40
0.0
 40
0.0
 40
0.0
 40
1.0
 40
1.0
 40
1.0
 40
1.0
 10
-0.8825146878721859
 20
-0.0304938623399109
 30
0.0
 10
-0.8825146878721859
 20
-0.0255025396039664
 30
0.0
 10
-0.8784931465917307
 20
-0.0214674349465113
 30
0.0
 10
-0.8735018238557862
 20
-0.0214267448155118
 30
0.0
  0
SPLINE
  5
A2
330
4F
100
AcDbEntity
  8
0
  6
Continuous
 62
     8
370
     0
100
AcDbSpline
210
0.0
220
0.0
230
1.0
 70
     8
 71
     3
 72
     8
 73
     4
 74
     0
 42
0.00000001
 43
0.00000001
 12
1.0
 22
0.0
 32
0.0
 13
1.0
 23
0.0
 33
0.0
 40
2.0
 40
2.0
 40
2.0
 40
2.0
 40
3.0
 40
3.0
 40
3.0
 40
3.0
 10
-0.7913552310561999
 20
-0.0214267448155118
 30
0.0
 10
-0.7863639083202553
 20
-0.0214674349465113
 30
0.0
 10
-0.7823423670398
 20
-0.0255025396039664
 30
0.0
 10
-0.7823423670398
 20
-0.0304938623399109
 30
0.0
  0
SPLINE
  5
A3
330
4F
100
AcDbEntity
  8
0
  6
Continuous
 62
     8
370
     0
100
AcDbSpline
210
0.0
220
0.0
230
1.0
 70
     8
 71
     3
 72
     8
 73
     4
 74
     0
 42
0.00000001
 43
0.00000001
 12
1.0
 22
0.0
 32
0.0
 13
1.0
 23
0.0
 33
0.0
 40
1.0
 40
1.0
 40
1.0
 40
1.0
 40
2.0
 40
2.0
 40
2.0
 40
2.0
 10
-0.5447866005759417
 20
-0.0462748514792354
 30
0.0
 10
-0.5447866005759417
 20
-0.0595059257425883
 30
0.0
 10
-0.5340308426150613
 20
-0.0702549020149688
 30
0.0
 10
-0.5207794232862089
 20
-0.0702549020149688
 30
0.0
  0
SPLINE
  5
A4
330
4F
100
AcDbEntity
  8
0
  6
Continuous
 62
     8
370
     0
100
AcDbSpline
210
0.0
220
0.0
230
1.0
 70
     8
 71
     3
 72
     8
 73
     4
 74
     0
 42
0.00000001
 43
0.00000001
 12
1.0
 22
0.0
 32
0.0
 13
1.0
 23
0.0
 33
0.0
 40
3.0
 40
3.0
 40
3.0
 40
3.0
 40
4.0
 40
4.0
 40
4.0
 40
4.0
 10
-0.4290638680132287
 20
-0.0702549020149688
 30
0.0
 10
-0.4240725452772842
 20
-0.0702955921459683
 30
0.0
 10
-0.4200849124393285
 20
-0.0743374784919234
 30
0.0
 10
-0.4200849124393285
 20
-0.0793016744738682
 30
0.0
  0
SPLINE
  5
A5
330
4F
100
AcDbEntity
  8
0
  6
Continuous
 62
     8
370
     0
100
AcDbSpline
210
0.0
220
0.0
230
1.0
 70
     8
 71
     3
 72
     8
 73
     4
 74
     0
 42
0.00000001
 43
0.00000001
 12
1.0
 22
0.0
 32
0.0
 13
1.0
 23
0.0
 33
0.0
 40
4.0
 40
4.0
 40
4.0
 40
4.0
 40
5.0
 40
5.0
 40
5.0
 40
5.0
 10
-0.4200849124393285
 20
-0.0793016744738682
 30
0.0
 10
-0.4200849124393285
 20
-0.0843065605868125
 30
0.0
 10
-0.4240996720312838
 20
-0.0884298271947667
 30
0.0
 10
-0.4291316848982279
 20
-0.0884298271947667
 30
0.0
  0
SPLINE
  5
A6
330
4F
100
AcDbEntity
  8
0
  6
Continuous
 62
     8
370
     0
100
AcDbSpline
210
0.0
220
0.0
230
1.0
 70
     8
 71
     3
 72
     8
 73
     4
 74
     0
 42
0.00000001
 43
0.00000001
 12
1.0
 22
0.0
 32
0.0
 13
1.0
 23
0.0
 33
0.0
 40
8.0
 40
8.0
 40
8.0
 40
8.0
 40
9.0
 40
9.0
 40
9.0
 40
9.0
 10
-0.4072539577974712
 20
-0.1190830592144258
 30
0.0
 10
-0.3939889750916188
 20
-0.1190830592144258
 30
0.0
 10
-0.383246780507738
 20
-0.1083408646305452
 30
0.0
 10
-0.383246780507738
 20
-0.0951030086786924
 30
0.0
  0
SPLINE
  5
A7
330
4F
100
AcDbEntity
  8
0
  6
Continuous
 62
     8
370
     0
100
AcDbSpline
210
0.0
220
0.0
230
1.0
 70
     8
 71
     3
 72
     8
 73
     4
 74
     0
 42
0.00000001
 43
0.00000001
 12
1.0
 22
0.0
 32
0.0
 13
1.0
 23
0.0
 33
0.0
 40
10.0
 40
10.0
 40
10.0
 40
10.0
 40
11.0
 40
11.0
 40
11.0
 40
11.0
 10
-0.383246780507738
 20
-0.0635478120885434
 30
0.0
 10
-0.383246780507738
 20
-0.0503370828906903
 30
0.0
 10
-0.3939347215836189
 20
-0.0396220150608094
 30
0.0
 10
-0.4071318874044726
 20
-0.0395609798643101
 30
0.0
  0
SPLINE
  5
A8
330
4F
100
AcDbEntity
  8
0
  6
Continuous
 62
     8
370
     0
100
AcDbSpline
210
0.0
220
0.0
230
1.0
 70
     8
 71
     3
 72
     8
 73
     4
 74
     0
 42
0.00000001
 43
0.00000001
 12
1.0
 22
0.0
 32
0.0
 13
1.0
 23
0.0
 33
0.0
 40
12.0
 40
12.0
 40
12.0
 40
12.0
 40
13.0
 40
13.0
 40
13.0
 40
13.0
 10
-0.498901696185452
 20
-0.0395609798643101
 30
0.0
 10
-0.5038930189213965
 20
-0.0395609798643101
 30
0.0
 10
-0.507989158775351
 20
-0.0355055301413552
 30
0.0
 10
-0.507989158775351
 20
-0.0304938623399109
 30
0.0
  0
SPLINE
  5
A9
330
4F
100
AcDbEntity
  8
0
  6
Continuous
 62
     8
370
     0
100
AcDbSpline
210
0.0
220
0.0
230
1.0
 70
     8
 71
     3
 72
     8
 73
     4
 74
     0
 42
0.00000001
 43
0.00000001
 12
1.0
 22
0.0
 32
0.0
 13
1.0
 23
0.0
 33
0.0
 40
13.0
 40
13.0
 40
13.0
 40
13.0
 40
14.0
 40
14.0
 40
14.0
 40
14.0
 10
-0.507989158775351
 20
-0.0304938623399109
 30
0.0
 10
-0.507989158775351
 20
-0.0254821945384667
 30
0.0
 10
-0.5039201456753962
 20
-0.0214403081925116
 30
0.0
 10
-0.4989288229394518
 20
-0.0214199631270118
 30
0.0
  0
SPLINE
  5
AA
330
4F
100
AcDbEntity
  8
0
  6
Continuous
 62
     8
370
     0
100
AcDbSpline
210
0.0
220
0.0
230
1.0
 70
     8
 71
     3
 72
     8
 73
     4
 74
     0
 42
0.00000001
 43
0.00000001
 12
1.0
 22
0.0
 32
0.0
 13
1.0
 23
0.0
 33
0.0
 40
17.0
 40
17.0
 40
17.0
 40
17.0
 40
18.0
 40
18.0
 40
18.0
 40
18.0
 10
-0.5207794232862089
 20
0.0092807407121468
 30
0.0
 10
-0.5340308426150613
 20
0.0092807407121468
 30
0.0
 10
-0.5447866005759417
 20
-0.0014614538717338
 30
0.0
 10
-0.5447866005759417
 20
-0.0147060915120865
 30
0.0
  0
SPLINE
  5
AB
330
4F
100
AcDbEntity
  8
0
  6
Continuous
 62
     8
370
     0
100
AcDbSpline
210
0.0
220
0.0
230
1.0
 70
     8
 71
     3
 72
     8
 73
     4
 74
     0
 42
0.00000001
 43
0.00000001
 12
1.0
 22
0.0
 32
0.0
 13
1.0
 23
0.0
 33
0.0
 40
0.0
 40
0.0
 40
0.0
 40
0.0
 40
1.0
 40
1.0
 40
1.0
 40
1.0
 10
-0.9706495116172059
 20
0.0118238738996185
 30
0.0
 10
-0.9841111632895563
 20
0.0118238738996185
 30
0.0
 10
-0.9958027942634262
 20
0.0043911433037011
 30
0.0
 10
-1.001899532224858
 20
-0.0065951920661767
 30
0.0
  0
SPLINE
  5
AC
330
4F
100
AcDbEntity
  8
0
  6
Continuous
 62
     8
370
     0
100
AcDbSpline
210
0.0
220
0.0
230
1.0
 70
     8
 71
     3
 72
     8
 73
     4
 74
     0
 42
0.00000001
 43
0.00000001
 12
1.0
 22
0.0
 32
0.0
 13
1.0
 23
0.0
 33
0.0
 40
3.0
 40
3.0
 40
3.0
 40
3.0
 40
4.0
 40
4.0
 40
4.0
 40
4.0
 10
-1.091017700802367
 20
-0.0071173820806709
 30
0.0
 10
-1.097128002140799
 20
0.0038689532892069
 30
0.0
 10
-1.108819633114669
 20
0.0118238738996185
 30
0.0
 10
-1.12227450309852
 20
0.0118238738996185
 30
0.0
  0
SPLINE
  5
AD
330
4F
100
AcDbEntity
  8
0
  6
Continuous
 62
     8
370
     0
100
AcDbSpline
210
0.0
220
0.0
230
1.0
 70
     8
 71
     3
 72
     8
 73
     4
 74
     0
 42
0.00000001
 43
0.00000001
 12
1.0
 22
0.0
 32
0.0
 13
1.0
 23
0.0
 33
0.0
 40
4.0
 40
4.0
 40
4.0
 40
4.0
 40
5.0
 40
5.0
 40
5.0
 40
5.0
 10
-1.12227450309852
 20
0.0118238738996185
 30
0.0
 10
-1.1420159983218
 20
0.0118238738996185
 30
0.0
 10
-1.158007219804623
 20
-0.0041809109602036
 30
0.0
 10
-1.158007219804623
 20
-0.023922406183484
 30
0.0
  0
SPLINE
  5
AE
330
4F
100
AcDbEntity
  8
0
  6
Continuous
 62
     8
370
     0
100
AcDbSpline
210
0.0
220
0.0
230
1.0
 70
     8
 71
     3
 72
     8
 73
     4
 74
     0
 42
0.00000001
 43
0.00000001
 12
1.0
 22
0.0
 32
0.0
 13
1.0
 23
0.0
 33
0.0
 40
8.0
 40
8.0
 40
8.0
 40
8.0
 40
9.0
 40
9.0
 40
9.0
 40
9.0
 10
-1.121202996315532
 20
-0.0399204093548061
 30
0.0
 10
-1.121202996315532
 20
-0.0369229030378394
 30
0.0
 10
-1.118788715209559
 20
-0.0345086219318663
 30
0.0
 10
-1.115784427204092
 20
-0.0345086219318663
 30
0.0
  0
SPLINE
  5
AF
330
4F
100
AcDbEntity
  8
0
  6
Continuous
 62
     8
370
     0
100
AcDbSpline
210
0.0
220
0.0
230
1.0
 70
     8
 71
     3
 72
     8
 73
     4
 74
     0
 42
0.00000001
 43
0.00000001
 12
1.0
 22
0.0
 32
0.0
 13
1.0
 23
0.0
 33
0.0
 40
9.0
 40
9.0
 40
9.0
 40
9.0
 40
10.0
 40
10.0
 40
10.0
 40
10.0
 10
-1.115784427204092
 20
-0.0345086219318663
 30
0.0
 10
-1.113716012211615
 20
-0.0345086219318663
 30
0.0
 10
-1.111905301382135
 20
-0.0356682906653534
 30
0.0
 10
-1.111010118500145
 20
-0.0373637127903345
 30
0.0
  0
SPLINE
  5
B0
330
4F
100
AcDbEntity
  8
0
  6
Continuous
 62
     8
370
     0
100
AcDbSpline
210
0.0
220
0.0
230
1.0
 70
     8
 71
     2
 72
     6
 73
     3
 74
     0
 42
0.00000001
 43
0.00000001
 12
1.0
 22
0.0
 32
0.0
 13
1.0
 23
0.0
 33
0.0
 40
12.0
 40
12.0
 40
12.0
 40
13.0
 40
13.0
 40
13.0
 10
-1.028063286457567
 20
-0.1188931719364279
 30
0.0
 10
-0.9818325159535816
 20
-0.0371195720043373
 30
0.0
 10
-0.9816358469870836
 20
-0.0368483044643403
 30
0.0
  0
SPLINE
  5
B1
330
4F
100
AcDbEntity
  8
0
  6
Continuous
 62
     8
370
     0
100
AcDbSpline
210
0.0
220
0.0
230
1.0
 70
     8
 71
     3
 72
     8
 73
     4
 74
     0
 42
0.00000001
 43
0.00000001
 12
1.0
 22
0.0
 32
0.0
 13
1.0
 23
0.0
 33
0.0
 40
13.0
 40
13.0
 40
13.0
 40
13.0
 40
14.0
 40
14.0
 40
14.0
 40
14.0
 10
-0.9816358469870836
 20
-0.0368483044643403
 30
0.0
 10
-0.9806457204660948
 20
-0.035437713256356
 30
0.0
 10
-0.9789977701606131
 20
-0.0345086219318663
 30
0.0
 10
-0.9771395875116337
 20
-0.0345086219318663
 30
0.0
  0
SPLINE
  5
B2
330
4F
100
AcDbEntity
  8
0
  6
Continuous
 62
     8
370
     0
100
AcDbSpline
210
0.0
220
0.0
230
1.0
 70
     8
 71
     3
 72
     8
 73
     4
 74
     0
 42
0.00000001
 43
0.00000001
 12
1.0
 22
0.0
 32
0.0
 13
1.0
 23
0.0
 33
0.0
 40
14.0
 40
14.0
 40
14.0
 40
14.0
 40
15.0
 40
15.0
 40
15.0
 40
15.0
 10
-0.9771395875116337
 20
-0.0345086219318663
 30
0.0
 10
-0.974148862883167
 20
-0.0345086219318663
 30
0.0
 10
-0.971721018400194
 20
-0.0369229030378394
 30
0.0
 10
-0.971721018400194
 20
-0.0399204093548061
 30
0.0
  0
SPLINE
  5
B3
330
4F
100
AcDbEntity
  8
0
  6
Continuous
 62
     8
370
     0
100
AcDbSpline
210
0.0
220
0.0
230
1.0
 70
     8
 71
     3
 72
     8
 73
     4
 74
     0
 42
0.00000001
 43
0.00000001
 12
1.0
 22
0.0
 32
0.0
 13
1.0
 23
0.0
 33
0.0
 40
18.0
 40
18.0
 40
18.0
 40
18.0
 40
19.0
 40
19.0
 40
19.0
 40
19.0
 10
-0.9349167949111035
 20
-0.023922406183484
 30
0.0
 10
-0.9349167949111035
 20
-0.0041809109602036
 30
0.0
 10
-0.9509147980824254
 20
0.0118238738996185
 30
0.0
 10
-0.9706495116172059
 20
0.0118238738996185
 30
0.0
  0
SPLINE
  5
B4
330
4F
100
AcDbEntity
  8
0
  6
Continuous
 62
     8
370
     0
100
AcDbSpline
210
0.0
220
0.0
230
1.0
 70
     8
 71
     3
 72
     8
 73
     4
 74
     0
 42
0.00000001
 43
0.00000001
 12
1.0
 22
0.0
 32
0.0
 13
1.0
 23
0.0
 33
0.0
 40
1.0
 40
1.0
 40
1.0
 40
1.0
 40
2.0
 40
2.0
 40
2.0
 40
2.0
 10
-0.0367974418005909
 20
-0.0789218999178724
 30
0.0
 10
-0.0367974418005909
 20
-0.0819058428578392
 30
0.0
 10
-0.0392388496605639
 20
-0.0843336873408122
 30
0.0
 10
-0.042222792600531
 20
-0.0843336873408122
 30
0.0
  0
SPLINE
  5
B5
330
4F
100
AcDbEntity
  8
0
  6
Continuous
 62
     8
370
     0
100
AcDbSpline
210
0.0
220
0.0
230
1.0
 70
     8
 71
     3
 72
     8
 73
     4
 74
     0
 42
0.00000001
 43
0.00000001
 12
1.0
 22
0.0
 32
0.0
 13
1.0
 23
0.0
 33
0.0
 40
2.0
 40
2.0
 40
2.0
 40
2.0
 40
3.0
 40
3.0
 40
3.0
 40
3.0
 10
-0.042222792600531
 20
-0.0843336873408122
 30
0.0
 10
-0.0437012006935137
 20
-0.0843336873408122
 30
0.0
 10
-0.0450439750164989
 20
-0.0837368987528189
 30
0.0
 10
-0.046020538160488
 20
-0.0827874623628294
 30
0.0
  0
SPLINE
  5
B6
330
4F
100
AcDbEntity
  8
0
  6
Continuous
 62
     8
370
     0
100
AcDbSpline
210
0.0
220
0.0
230
1.0
 70
     8
 71
     3
 72
     8
 73
     4
 74
     0
 42
0.00000001
 43
0.00000001
 12
1.0
 22
0.0
 32
0.0
 13
1.0
 23
0.0
 33
0.0
 40
3.0
 40
3.0
 40
3.0
 40
3.0
 40
4.0
 40
4.0
 40
4.0
 40
4.0
 10
-0.046020538160488
 20
-0.0827874623628294
 30
0.0
 10
-0.0463053690774849
 20
-0.0824755046918329
 30
0.0
 10
-0.11511238059772
 20
0.0009935173652389
 30
0.0
 10
-0.115261577744718
 20
0.0011901863317367
 30
0.0
  0
SPLINE
  5
B7
330
4F
100
AcDbEntity
  8
0
  6
Continuous
 62
     8
370
     0
100
AcDbSpline
210
0.0
220
0.0
230
1.0
 70
     8
 71
     3
 72
     8
 73
     4
 74
     0
 42
0.00000001
 43
0.00000001
 12
1.0
 22
0.0
 32
0.0
 13
1.0
 23
0.0
 33
0.0
 40
4.0
 40
4.0
 40
4.0
 40
4.0
 40
5.0
 40
5.0
 40
5.0
 40
5.0
 10
-0.115261577744718
 20
0.0011901863317367
 30
0.0
 10
-0.121839815589645
 20
0.0089145295331508
 30
0.0
 10
-0.1316461371605359
 20
0.0138244720070962
 30
0.0
 10
-0.1425510922684149
 20
0.0138244720070962
 30
0.0
  0
SPLINE
  5
B8
330
4F
100
AcDbEntity
  8
0
  6
Continuous
 62
     8
370
     0
100
AcDbSpline
210
0.0
220
0.0
230
1.0
 70
     8
 71
     3
 72
     8
 73
     4
 74
     0
 42
0.00000001
 43
0.00000001
 12
1.0
 22
0.0
 32
0.0
 13
1.0
 23
0.0
 33
0.0
 40
5.0
 40
5.0
 40
5.0
 40
5.0
 40
6.0
 40
6.0
 40
6.0
 40
6.0
 10
-0.1425510922684149
 20
0.0138244720070962
 30
0.0
 10
-0.1622993691801948
 20
0.0138244720070962
 30
0.0
 10
-0.178304154040017
 20
-0.0021667494757259
 30
0.0
 10
-0.178304154040017
 20
-0.0219082446990064
 30
0.0
  0
SPLINE
  5
B9
330
4F
100
AcDbEntity
  8
0
  6
Continuous
 62
     8
370
     0
100
AcDbSpline
210
0.0
220
0.0
230
1.0
 70
     8
 71
     3
 72
     8
 73
     4
 74
     0
 42
0.00000001
 43
0.00000001
 12
1.0
 22
0.0
 32
0.0
 13
1.0
 23
0.0
 33
0.0
 40
8.0
 40
8.0
 40
8.0
 40
8.0
 40
9.0
 40
9.0
 40
9.0
 40
9.0
 10
-0.3217911193214218
 20
-0.0884298271947667
 30
0.0
 10
-0.326796005434366
 20
-0.0884298271947667
 30
0.0
 10
-0.330851455157321
 20
-0.0843065605868125
 30
0.0
 10
-0.330851455157321
 20
-0.0793016744738682
 30
0.0
  0
SPLINE
  5
BA
330
4F
100
AcDbEntity
  8
0
  6
Continuous
 62
     8
370
     0
100
AcDbSpline
210
0.0
220
0.0
230
1.0
 70
     8
 71
     3
 72
     8
 73
     4
 74
     0
 42
0.00000001
 43
0.00000001
 12
1.0
 22
0.0
 32
0.0
 13
1.0
 23
0.0
 33
0.0
 40
11.0
 40
11.0
 40
11.0
 40
11.0
 40
12.0
 40
12.0
 40
12.0
 40
12.0
 10
-0.217868524748577
 20
-0.0702549020149688
 30
0.0
 10
-0.204630668796725
 20
-0.0702549020149688
 30
0.0
 10
-0.193874910835844
 20
-0.0595059257425883
 30
0.0
 10
-0.193874910835844
 20
-0.0462748514792354
 30
0.0
  0
SPLINE
  5
BB
330
4F
100
AcDbEntity
  8
0
  6
Continuous
 62
     8
370
     0
100
AcDbSpline
210
0.0
220
0.0
230
1.0
 70
     8
 71
     3
 72
     8
 73
     4
 74
     0
 42
0.00000001
 43
0.00000001
 12
1.0
 22
0.0
 32
0.0
 13
1.0
 23
0.0
 33
0.0
 40
13.0
 40
13.0
 40
13.0
 40
13.0
 40
14.0
 40
14.0
 40
14.0
 40
14.0
 10
-0.193874910835844
 20
-0.0255228846694662
 30
0.0
 10
-0.193874910835844
 20
-0.00630357946068
 30
0.0
 10
-0.2103951040216598
 20
0.0092671773351469
 30
0.0
 10
-0.2307944230294339
 20
0.0092671773351469
 30
0.0
  0
SPLINE
  5
BC
330
4F
100
AcDbEntity
  8
0
  6
Continuous
 62
     8
370
     0
100
AcDbSpline
210
0.0
220
0.0
230
1.0
 70
     8
 71
     3
 72
     8
 73
     4
 74
     0
 42
0.00000001
 43
0.00000001
 12
1.0
 22
0.0
 32
0.0
 13
1.0
 23
0.0
 33
0.0
 40
17.0
 40
17.0
 40
17.0
 40
17.0
 40
18.0
 40
18.0
 40
18.0
 40
18.0
 10
-0.330742948141322
 20
0.0092671773351469
 30
0.0
 10
-0.3511151403950959
 20
0.0092671773351469
 30
0.0
 10
-0.367662460334912
 20
-0.00630357946068
 30
0.0
 10
-0.367662460334912
 20
-0.0255228846694662
 30
0.0
  0
SPLINE
  5
BD
330
4F
100
AcDbEntity
  8
0
  6
Continuous
 62
     8
370
     0
100
AcDbSpline
210
0.0
220
0.0
230
1.0
 70
     8
 71
     3
 72
     8
 73
     4
 74
     0
 42
0.00000001
 43
0.00000001
 12
1.0
 22
0.0
 32
0.0
 13
1.0
 23
0.0
 33
0.0
 40
21.0
 40
21.0
 40
21.0
 40
21.0
 40
22.0
 40
22.0
 40
22.0
 40
22.0
 10
-0.367662460334912
 20
-0.0842794338328128
 30
0.0
 10
-0.367662460334912
 20
-0.1035123024185989
 30
0.0
 10
-0.3511151403950959
 20
-0.1190830592144258
 30
0.0
 10
-0.330742948141322
 20
-0.1190830592144258
 30
0.0
  0
SPLINE
  5
BE
330
4F
100
AcDbEntity
  8
0
  6
Continuous
 62
     8
370
     0
100
AcDbSpline
210
0.0
220
0.0
230
1.0
 70
     8
 71
     3
 72
     8
 73
     4
 74
     0
 42
0.00000001
 43
0.00000001
 12
1.0
 22
0.0
 32
0.0
 13
1.0
 23
0.0
 33
0.0
 40
26.0
 40
26.0
 40
26.0
 40
26.0
 40
27.0
 40
27.0
 40
27.0
 40
27.0
 10
-0.141493148862427
 20
-0.0309143270269063
 30
0.0
 10
-0.141493148862427
 20
-0.0279303840869394
 30
0.0
 10
-0.1390653043794539
 20
-0.0254889762269666
 30
0.0
 10
-0.136081361439487
 20
-0.0254889762269666
 30
0.0
  0
SPLINE
  5
BF
330
4F
100
AcDbEntity
  8
0
  6
Continuous
 62
     8
370
     0
100
AcDbSpline
210
0.0
220
0.0
230
1.0
 70
     8
 71
     3
 72
     8
 73
     4
 74
     0
 42
0.00000001
 43
0.00000001
 12
1.0
 22
0.0
 32
0.0
 13
1.0
 23
0.0
 33
0.0
 40
27.0
 40
27.0
 40
27.0
 40
27.0
 40
28.0
 40
28.0
 40
28.0
 40
28.0
 10
-0.136081361439487
 20
-0.0254889762269666
 30
0.0
 10
-0.134508009707504
 20
-0.0254889762269666
 30
0.0
 10
-0.13312454525352
 20
-0.0261468000114593
 30
0.0
 10
-0.132134418732531
 20
-0.0271776166634478
 30
0.0
  0
SPLINE
  5
C0
330
4F
100
AcDbEntity
  8
0
  6
Continuous
 62
     8
370
     0
100
AcDbSpline
210
0.0
220
0.0
230
1.0
 70
     8
 71
     2
 72
     6
 73
     3
 74
     0
 42
0.00000001
 43
0.00000001
 12
1.0
 22
0.0
 32
0.0
 13
1.0
 23
0.0
 33
0.0
 40
28.0
 40
28.0
 40
28.0
 40
29.0
 40
29.0
 40
29.0
 10
-0.132134418732531
 20
-0.0271776166634478
 30
0.0
 10
-0.131917404700533
 20
-0.0274081940724453
 30
0.0
 10
-0.0631646466882977
 20
-0.1108093992445178
 30
0.0
  0
SPLINE
  5
C1
330
4F
100
AcDbEntity
  8
0
  6
Continuous
 62
     8
370
     0
100
AcDbSpline
210
0.0
220
0.0
230
1.0
 70
     8
 71
     3
 72
     8
 73
     4
 74
     0
 42
0.00000001
 43
0.00000001
 12
1.0
 22
0.0
 32
0.0
 13
1.0
 23
0.0
 33
0.0
 40
29.0
 40
29.0
 40
29.0
 40
29.0
 40
30.0
 40
30.0
 40
30.0
 40
30.0
 10
-0.0631646466882977
 20
-0.1108093992445178
 30
0.0
 10
-0.0566135355973711
 20
-0.1186761579044303
 30
0.0
 10
-0.04676652389548
 20
-0.1236674806403748
 30
0.0
 10
-0.0357530617716029
 20
-0.1236674806403748
 30
0.0
  0
SPLINE
  5
C2
330
4F
100
AcDbEntity
  8
0
  6
Continuous
 62
     8
370
     0
100
AcDbSpline
210
0.0
220
0.0
230
1.0
 70
     8
 71
     3
 72
     8
 73
     4
 74
     0
 42
0.00000001
 43
0.00000001
 12
1.0
 22
0.0
 32
0.0
 13
1.0
 23
0.0
 33
0.0
 40
30.0
 40
30.0
 40
30.0
 40
30.0
 40
31.0
 40
31.0
 40
31.0
 40
31.0
 10
-0.0357530617716029
 20
-0.1236674806403748
 30
0.0
 10
-0.0160183482368218
 20
-0.1236674806403748
 30
0.0
 10
0.0
 20
-0.1076355690265531
 30
0.0
 10
0.0
 20
-0.0879279822457722
 30
0.0
  0
SPLINE
  5
C3
330
4F
100
AcDbEntity
  8
0
  6
Continuous
 62
     8
370
     0
100
AcDbSpline
210
0.0
220
0.0
230
1.0
 70
     8
 71
     3
 72
     8
 73
     4
 74
     0
 42
0.00000001
 43
0.00000001
 12
1.0
 22
0.0
 32
0.0
 13
1.0
 23
0.0
 33
0.0
 40
0.0
 40
0.0
 40
0.0
 40
0.0
 40
1.0
 40
1.0
 40
1.0
 40
1.0
 10
-0.330851455157321
 20
-0.0304938623399109
 30
0.0
 10
-0.330851455157321
 20
-0.0255025396039664
 30
0.0
 10
-0.3268366955653659
 20
-0.0214674349465113
 30
0.0
 10
-0.3218453728294209
 20
-0.0214267448155118
 30
0.0
  0
SPLINE
  5
C4
330
4F
100
AcDbEntity
  8
0
  6
Continuous
 62
     8
370
     0
100
AcDbSpline
210
0.0
220
0.0
230
1.0
 70
     8
 71
     3
 72
     8
 73
     4
 74
     0
 42
0.00000001
 43
0.00000001
 12
1.0
 22
0.0
 32
0.0
 13
1.0
 23
0.0
 33
0.0
 40
2.0
 40
2.0
 40
2.0
 40
2.0
 40
3.0
 40
3.0
 40
3.0
 40
3.0
 10
-0.2396919983413349
 20
-0.0214267448155118
 30
0.0
 10
-0.2346871122283899
 20
-0.0214674349465113
 30
0.0
 10
-0.230672352636435
 20
-0.0255025396039664
 30
0.0
 10
-0.230672352636435
 20
-0.0304938623399109
 30
0.0
  0
HATCH
  5
C5
330
4F
100
AcDbEntity
  8
0
  6
Continuous
 62
     7
100
AcDbHatch
 10
0.0
 20
0.0
 30
0.0
210
0.0
220
0.0
230
1.0
  2
SOLID
 70
     1
 71
     0
 91
        1
 92
        0
 93
       19
 72
     1
 10
-0.971721018400194
 20
-0.1188931719364279
 11
-0.9349167949111035
 21
-0.1188931719364279
 72
     1
 10
-0.9349167949111035
 20
-0.1188931719364279
 11
-0.9349167949111035
 21
-0.023922406183484
 72
     4
 94
        3
 73
     1
 74
     0
 95
        8
 96
        4
 40
18.0
 40
18.0
 40
18.0
 40
18.0
 40
19.0
 40
19.0
 40
19.0
 40
19.0
 10
-0.9349167949111035
 20
-0.023922406183484
 42
1.0
 10
-0.9349167949111035
 20
-0.0041809109602036
 42
1.0
 10
-0.9509147980824254
 20
0.0118238738996185
 42
1.0
 10
-0.9706495116172059
 20
0.0118238738996185
 42
1.0
 72
     4
 94
        3
 73
     1
 74
     0
 95
        8
 96
        4
 40
0.0
 40
0.0
 40
0.0
 40
0.0
 40
1.0
 40
1.0
 40
1.0
 40
1.0
 10
-0.9706495116172059
 20
0.0118238738996185
 42
1.0
 10
-0.9841111632895563
 20
0.0118238738996185
 42
1.0
 10
-0.9958027942634262
 20
0.0043911433037011
 42
1.0
 10
-1.001899532224858
 20
-0.0065951920661767
 42
1.0
 72
     1
 10
-1.001899532224858
 20
-0.0065951920661767
 11
-1.046462007357863
 21
-0.0853509406158009
 72
     1
 10
-1.046462007357863
 20
-0.0853509406158009
 11
-1.091017700802367
 21
-0.0071173820806709
 72
     4
 94
        3
 73
     1
 74
     0
 95
        8
 96
        4
 40
3.0
 40
3.0
 40
3.0
 40
3.0
 40
4.0
 40
4.0
 40
4.0
 40
4.0
 10
-1.091017700802367
 20
-0.0071173820806709
 42
1.0
 10
-1.097128002140799
 20
0.0038689532892069
 42
1.0
 10
-1.108819633114669
 20
0.0118238738996185
 42
1.0
 10
-1.12227450309852
 20
0.0118238738996185
 42
1.0
 72
     4
 94
        3
 73
     1
 74
     0
 95
        8
 96
        4
 40
4.0
 40
4.0
 40
4.0
 40
4.0
 40
5.0
 40
5.0
 40
5.0
 40
5.0
 10
-1.12227450309852
 20
0.0118238738996185
 42
1.0
 10
-1.1420159983218
 20
0.0118238738996185
 42
1.0
 10
-1.158007219804623
 20
-0.0041809109602036
 42
1.0
 10
-1.158007219804623
 20
-0.023922406183484
 42
1.0
 72
     1
 10
-1.158007219804623
 20
-0.023922406183484
 11
-1.158007219804623
 21
-0.1188931719364279
 72
     1
 10
-1.158007219804623
 20
-0.1188931719364279
 11
-1.121202996315532
 21
-0.1188931719364279
 72
     1
 10
-1.121202996315532
 20
-0.1188931719364279
 11
-1.121202996315532
 21
-0.0399204093548061
 72
     4
 94
        3
 73
     1
 74
     0
 95
        8
 96
        4
 40
8.0
 40
8.0
 40
8.0
 40
8.0
 40
9.0
 40
9.0
 40
9.0
 40
9.0
 10
-1.121202996315532
 20
-0.0399204093548061
 42
1.0
 10
-1.121202996315532
 20
-0.0369229030378394
 42
1.0
 10
-1.118788715209559
 20
-0.0345086219318663
 42
1.0
 10
-1.115784427204092
 20
-0.0345086219318663
 42
1.0
 72
     4
 94
        3
 73
     1
 74
     0
 95
        8
 96
        4
 40
9.0
 40
9.0
 40
9.0
 40
9.0
 40
10.0
 40
10.0
 40
10.0
 40
10.0
 10
-1.115784427204092
 20
-0.0345086219318663
 42
1.0
 10
-1.113716012211615
 20
-0.0345086219318663
 42
1.0
 10
-1.111905301382135
 20
-0.0356682906653534
 42
1.0
 10
-1.111010118500145
 20
-0.0373637127903345
 42
1.0
 72
     1
 10
-1.111010118500145
 20
-0.0373637127903345
 11
-1.064867509946658
 21
-0.1188931719364279
 72
     1
 10
-1.064867509946658
 20
-0.1188931719364279
 11
-1.028063286457567
 21
-0.1188931719364279
 72
     4
 94
        2
 73
     1
 74
     0
 95
        6
 96
        3
 40
12.0
 40
12.0
 40
12.0
 40
13.0
 40
13.0
 40
13.0
 10
-1.028063286457567
 20
-0.1188931719364279
 42
1.0
 10
-0.9818325159535816
 20
-0.0371195720043373
 42
1.0
 10
-0.9816358469870836
 20
-0.0368483044643403
 42
1.0
 72
     4
 94
        3
 73
     1
 74
     0
 95
        8
 96
        4
 40
13.0
 40
13.0
 40
13.0
 40
13.0
 40
14.0
 40
14.0
 40
14.0
 40
14.0
 10
-0.9816358469870836
 20
-0.0368483044643403
 42
1.0
 10
-0.9806457204660948
 20
-0.035437713256356
 42
1.0
 10
-0.9789977701606131
 20
-0.0345086219318663
 42
1.0
 10
-0.9771395875116337
 20
-0.0345086219318663
 42
1.0
 72
     4
 94
        3
 73
     1
 74
     0
 95
        8
 96
        4
 40
14.0
 40
14.0
 40
14.0
 40
14.0
 40
15.0
 40
15.0
 40
15.0
 40
15.0
 10
-0.9771395875116337
 20
-0.0345086219318663
 42
1.0
 10
-0.974148862883167
 20
-0.0345086219318663
 42
1.0
 10
-0.971721018400194
 20
-0.0369229030378394
 42
1.0
 10
-0.971721018400194
 20
-0.0399204093548061
 42
1.0
 72
     1
 10
-0.971721018400194
 20
-0.0399204093548061
 11
-0.971721018400194
 21
-0.1188931719364279
 97
        0
 75
     0
 76
     1
 98
        1
 10
0.0
 20
0.0
  0
HATCH
  5
C6
330
4F
100
AcDbEntity
  8
0
  6
Continuous
 62
     7
100
AcDbHatch
 10
0.0
 20
0.0
 30
0.0
210
0.0
220
0.0
230
1.0
  2
SOLID
 70
     1
 71
     0
 91
        2
 92
        0
 93
       34
 72
     4
 94
        3
 73
     1
 74
     0
 95
        8
 96
        4
 40
8.0
 40
8.0
 40
8.0
 40
8.0
 40
9.0
 40
9.0
 40
9.0
 40
9.0
 10
-0.603210847002792
 20
-0.0304938623399109
 42
1.0
 10
-0.603210847002792
 20
-0.0355055301413552
 42
1.0
 10
-0.6072866417912467
 20
-0.0395609798643101
 42
1.0
 10
-0.612298309592691
 20
-0.0395609798643101
 42
1.0
 72
     1
 10
-0.612298309592691
 20
-0.0395609798643101
 11
-0.7299470416893826
 21
-0.0395609798643101
 72
     1
 10
-0.7299470416893826
 20
-0.0395609798643101
 11
-0.7299470416893826
 21
-0.0884298271947667
 72
     1
 10
-0.7299470416893826
 20
-0.0884298271947667
 11
-0.8734340069707871
 21
-0.0884298271947667
 72
     4
 94
        3
 73
     1
 74
     0
 95
        8
 96
        4
 40
12.0
 40
12.0
 40
12.0
 40
12.0
 40
13.0
 40
13.0
 40
13.0
 40
13.0
 10
-0.8734340069707871
 20
-0.0884298271947667
 42
1.0
 10
-0.8784456747722312
 20
-0.0884298271947667
 42
1.0
 10
-0.8825146878721859
 20
-0.0843065605868125
 42
1.0
 10
-0.8825146878721859
 20
-0.0793016744738682
 42
1.0
 72
     1
 10
-0.8825146878721859
 20
-0.0793016744738682
 11
-0.8825146878721859
 21
-0.0702549020149688
 72
     1
 10
-0.8825146878721859
 20
-0.0702549020149688
 11
-0.7695249757749425
 21
-0.0702549020149688
 72
     4
 94
        3
 73
     1
 74
     0
 95
        8
 96
        4
 40
15.0
 40
15.0
 40
15.0
 40
15.0
 40
16.0
 40
16.0
 40
16.0
 40
16.0
 10
-0.7695249757749425
 20
-0.0702549020149688
 42
1.0
 10
-0.7562803381345898
 20
-0.0702549020149688
 42
1.0
 10
-0.7455381435507094
 20
-0.0595059257425883
 42
1.0
 10
-0.7455381435507094
 20
-0.0462748514792354
 42
1.0
 72
     1
 10
-0.7455381435507094
 20
-0.0462748514792354
 11
-0.7455381435507094
 21
-0.0255228846694662
 72
     4
 94
        3
 73
     1
 74
     0
 95
        8
 96
        4
 40
17.0
 40
17.0
 40
17.0
 40
17.0
 40
18.0
 40
18.0
 40
18.0
 40
18.0
 10
-0.7455381435507094
 20
-0.0255228846694662
 42
1.0
 10
-0.7455381435507094
 20
-0.00630357946068
 42
1.0
 10
-0.7620583367365256
 20
0.0092671773351469
 42
1.0
 10
-0.782444092367299
 20
0.0092671773351469
 42
1.0
 72
     1
 10
-0.782444092367299
 20
0.0092671773351469
 11
-0.7824508740557987
 21
0.0092671773351469
 72
     1
 10
-0.7824508740557987
 20
0.0092671773351469
 11
-0.8823926174791874
 21
0.0092671773351469
 72
     1
 10
-0.8823926174791874
 20
0.0092671773351469
 11
-0.8823993991676873
 21
0.0092671773351469
 72
     4
 94
        3
 73
     1
 74
     0
 95
        8
 96
        4
 40
21.0
 40
21.0
 40
21.0
 40
21.0
 40
22.0
 40
22.0
 40
22.0
 40
22.0
 10
-0.8823993991676873
 20
0.0092671773351469
 42
1.0
 10
-0.9027851547984607
 20
0.0092671773351469
 42
1.0
 10
-0.9193121296727769
 20
-0.00630357946068
 42
1.0
 10
-0.9193121296727769
 20
-0.0255228846694662
 42
1.0
 72
     1
 10
-0.9193121296727769
 20
-0.0255228846694662
 11
-0.9193189113612766
 21
-0.0255567931119658
 72
     1
 10
-0.9193189113612766
 20
-0.0255567931119658
 11
-0.9193189113612766
 21
-0.0842523070788131
 72
     1
 10
-0.9193189113612766
 20
-0.0842523070788131
 11
-0.9193121296727769
 21
-0.0842794338328128
 72
     4
 94
        3
 73
     1
 74
     0
 95
        8
 96
        4
 40
25.0
 40
25.0
 40
25.0
 40
25.0
 40
26.0
 40
26.0
 40
26.0
 40
26.0
 10
-0.9193121296727769
 20
-0.0842794338328128
 42
1.0
 10
-0.9193121296727769
 20
-0.1035123024185989
 42
1.0
 10
-0.9027851547984607
 20
-0.1190830592144258
 42
1.0
 10
-0.8823993991676873
 20
-0.1190830592144258
 42
1.0
 72
     1
 10
-0.8823993991676873
 20
-0.1190830592144258
 11
-0.7299470416893826
 21
-0.1190830592144258
 72
     1
 10
-0.7299470416893826
 20
-0.1190830592144258
 11
-0.693129254823292
 21
-0.1190830592144258
 72
     1
 10
-0.693129254823292
 20
-0.1190830592144258
 11
-0.693129254823292
 21
-0.0702549020149688
 72
     1
 10
-0.693129254823292
 20
-0.0702549020149688
 11
-0.6373363035344125
 21
-0.0702549020149688
 72
     1
 10
-0.6373363035344125
 20
-0.0702549020149688
 11
-0.6055030577157665
 21
-0.1190830592144258
 72
     1
 10
-0.6055030577157665
 20
-0.1190830592144258
 11
-0.5603709207487685
 21
-0.1190830592144258
 72
     1
 10
-0.5603709207487685
 20
-0.1190830592144258
 11
-0.5964223768143675
 21
-0.0702549020149688
 72
     1
 10
-0.5964223768143675
 20
-0.0702549020149688
 11
-0.5904070191149344
 21
-0.0702549020149688
 72
     4
 94
        3
 73
     1
 74
     0
 95
        8
 96
        4
 40
0.0
 40
0.0
 40
0.0
 40
0.0
 40
1.0
 40
1.0
 40
1.0
 40
1.0
 10
-0.5904070191149344
 20
-0.0702549020149688
 42
1.0
 10
-0.5771623814745817
 20
-0.0702549020149688
 42
1.0
 10
-0.5664201868907013
 20
-0.0595059257425883
 42
1.0
 10
-0.5664201868907013
 20
-0.0462748514792354
 42
1.0
 72
     1
 10
-0.5664201868907013
 20
-0.0462748514792354
 11
-0.5664201868907013
 21
-0.0147060915120865
 72
     4
 94
        3
 73
     1
 74
     0
 95
        8
 96
        4
 40
2.0
 40
2.0
 40
2.0
 40
2.0
 40
3.0
 40
3.0
 40
3.0
 40
3.0
 10
-0.5664201868907013
 20
-0.0147060915120865
 42
1.0
 10
-0.5664201868907013
 20
-0.0014614538717338
 42
1.0
 10
-0.5771623814745817
 20
0.0092807407121468
 42
1.0
 10
-0.5904070191149344
 20
0.0092807407121468
 42
1.0
 72
     1
 10
-0.5904070191149344
 20
0.0092807407121468
 11
-0.7299470416893826
 21
0.0092807407121468
 72
     1
 10
-0.7299470416893826
 20
0.0092807407121468
 11
-0.7299470416893826
 21
0.0090908534341489
 72
     1
 10
-0.7299470416893826
 20
0.0090908534341489
 11
-0.7299470416893826
 21
-0.0214199631270118
 72
     1
 10
-0.7299470416893826
 20
-0.0214199631270118
 11
-0.6122779645271912
 21
-0.0214199631270118
 72
     4
 94
        3
 73
     1
 74
     0
 95
        8
 96
        4
 40
7.0
 40
7.0
 40
7.0
 40
7.0
 40
8.0
 40
8.0
 40
8.0
 40
8.0
 10
-0.6122779645271912
 20
-0.0214199631270118
 42
1.0
 10
-0.6072798601027469
 20
-0.0214403081925116
 42
1.0
 10
-0.603210847002792
 20
-0.0254821945384667
 42
1.0
 10
-0.603210847002792
 20
-0.0304938623399109
 42
1.0
 97
        0
 92
        0
 93
        6
 72
     1
 10
-0.8735018238557862
 20
-0.0214267448155118
 11
-0.7913552310561999
 21
-0.0214267448155118
 72
     4
 94
        3
 73
     1
 74
     0
 95
        8
 96
        4
 40
2.0
 40
2.0
 40
2.0
 40
2.0
 40
3.0
 40
3.0
 40
3.0
 40
3.0
 10
-0.7913552310561999
 20
-0.0214267448155118
 42
1.0
 10
-0.7863639083202553
 20
-0.0214674349465113
 42
1.0
 10
-0.7823423670398
 20
-0.0255025396039664
 42
1.0
 10
-0.7823423670398
 20
-0.0304938623399109
 42
1.0
 72
     1
 10
-0.7823423670398
 20
-0.0304938623399109
 11
-0.7823423670398
 21
-0.0395609798643101
 72
     1
 10
-0.7823423670398
 20
-0.0395609798643101
 11
-0.8825146878721859
 21
-0.0395609798643101
 72
     1
 10
-0.8825146878721859
 20
-0.0395609798643101
 11
-0.8825146878721859
 21
-0.0304938623399109
 72
     4
 94
        3
 73
     1
 74
     0
 95
        8
 96
        4
 40
0.0
 40
0.0
 40
0.0
 40
0.0
 40
1.0
 40
1.0
 40
1.0
 40
1.0
 10
-0.8825146878721859
 20
-0.0304938623399109
 42
1.0
 10
-0.8825146878721859
 20
-0.0255025396039664
 42
1.0
 10
-0.8784931465917307
 20
-0.0214674349465113
 42
1.0
 10
-0.8735018238557862
 20
-0.0214267448155118
 42
1.0
 97
        0
 75
     0
 76
     1
 98
        1
 10
0.0
 20
0.0
  0
HATCH
  5
C7
330
4F
100
AcDbEntity
  8
0
  6
Continuous
 62
     7
100
AcDbHatch
 10
0.0
 20
0.0
 30
0.0
210
0.0
220
0.0
230
1.0
  2
SOLID
 70
     1
 71
     0
 91
        1
 92
        0
 93
       18
 72
     4
 94
        3
 73
     1
 74
     0
 95
        8
 96
        4
 40
3.0
 40
3.0
 40
3.0
 40
3.0
 40
4.0
 40
4.0
 40
4.0
 40
4.0
 10
-0.4290638680132287
 20
-0.0702549020149688
 42
1.0
 10
-0.4240725452772842
 20
-0.0702955921459683
 42
1.0
 10
-0.4200849124393285
 20
-0.0743374784919234
 42
1.0
 10
-0.4200849124393285
 20
-0.0793016744738682
 42
1.0
 72
     4
 94
        3
 73
     1
 74
     0
 95
        8
 96
        4
 40
4.0
 40
4.0
 40
4.0
 40
4.0
 40
5.0
 40
5.0
 40
5.0
 40
5.0
 10
-0.4200849124393285
 20
-0.0793016744738682
 42
1.0
 10
-0.4200849124393285
 20
-0.0843065605868125
 42
1.0
 10
-0.4240996720312838
 20
-0.0884298271947667
 42
1.0
 10
-0.4291316848982279
 20
-0.0884298271947667
 42
1.0
 72
     1
 10
-0.4291316848982279
 20
-0.0884298271947667
 11
-0.5447866005759417
 21
-0.0884298271947667
 72
     1
 10
-0.5447866005759417
 20
-0.0884298271947667
 11
-0.5447866005759417
 21
-0.1190830592144258
 72
     1
 10
-0.5447866005759417
 20
-0.1190830592144258
 11
-0.4072539577974712
 21
-0.1190830592144258
 72
     4
 94
        3
 73
     1
 74
     0
 95
        8
 96
        4
 40
8.0
 40
8.0
 40
8.0
 40
8.0
 40
9.0
 40
9.0
 40
9.0
 40
9.0
 10
-0.4072539577974712
 20
-0.1190830592144258
 42
1.0
 10
-0.3939889750916188
 20
-0.1190830592144258
 42
1.0
 10
-0.383246780507738
 20
-0.1083408646305452
 42
1.0
 10
-0.383246780507738
 20
-0.0951030086786924
 42
1.0
 72
     1
 10
-0.383246780507738
 20
-0.0951030086786924
 11
-0.383246780507738
 21
-0.0635478120885434
 72
     4
 94
        3
 73
     1
 74
     0
 95
        8
 96
        4
 40
10.0
 40
10.0
 40
10.0
 40
10.0
 40
11.0
 40
11.0
 40
11.0
 40
11.0
 10
-0.383246780507738
 20
-0.0635478120885434
 42
1.0
 10
-0.383246780507738
 20
-0.0503370828906903
 42
1.0
 10
-0.3939347215836189
 20
-0.0396220150608094
 42
1.0
 10
-0.4071318874044726
 20
-0.0395609798643101
 42
1.0
 72
     1
 10
-0.4071318874044726
 20
-0.0395609798643101
 11
-0.498901696185452
 21
-0.0395609798643101
 72
     4
 94
        3
 73
     1
 74
     0
 95
        8
 96
        4
 40
12.0
 40
12.0
 40
12.0
 40
12.0
 40
13.0
 40
13.0
 40
13.0
 40
13.0
 10
-0.498901696185452
 20
-0.0395609798643101
 42
1.0
 10
-0.5038930189213965
 20
-0.0395609798643101
 42
1.0
 10
-0.507989158775351
 20
-0.0355055301413552
 42
1.0
 10
-0.507989158775351
 20
-0.0304938623399109
 42
1.0
 72
     4
 94
        3
 73
     1
 74
     0
 95
        8
 96
        4
 40
13.0
 40
13.0
 40
13.0
 40
13.0
 40
14.0
 40
14.0
 40
14.0
 40
14.0
 10
-0.507989158775351
 20
-0.0304938623399109
 42
1.0
 10
-0.507989158775351
 20
-0.0254821945384667
 42
1.0
 10
-0.5039201456753962
 20
-0.0214403081925116
 42
1.0
 10
-0.4989288229394518
 20
-0.0214199631270118
 42
1.0
 72
     1
 10
-0.4989288229394518
 20
-0.0214199631270118
 11
-0.383246780507738
 21
-0.0214199631270118
 72
     1
 10
-0.383246780507738
 20
-0.0214199631270118
 11
-0.383246780507738
 21
0.0092807407121468
 72
     1
 10
-0.383246780507738
 20
0.0092807407121468
 11
-0.5207794232862089
 21
0.0092807407121468
 72
     4
 94
        3
 73
     1
 74
     0
 95
        8
 96
        4
 40
17.0
 40
17.0
 40
17.0
 40
17.0
 40
18.0
 40
18.0
 40
18.0
 40
18.0
 10
-0.5207794232862089
 20
0.0092807407121468
 42
1.0
 10
-0.5340308426150613
 20
0.0092807407121468
 42
1.0
 10
-0.5447866005759417
 20
-0.0014614538717338
 42
1.0
 10
-0.5447866005759417
 20
-0.0147060915120865
 42
1.0
 72
     1
 10
-0.5447866005759417
 20
-0.0147060915120865
 11
-0.5447866005759417
 21
-0.0462748514792354
 72
     4
 94
        3
 73
     1
 74
     0
 95
        8
 96
        4
 40
1.0
 40
1.0
 40
1.0
 40
1.0
 40
2.0
 40
2.0
 40
2.0
 40
2.0
 10
-0.5447866005759417
 20
-0.0462748514792354
 42
1.0
 10
-0.5447866005759417
 20
-0.0595059257425883
 42
1.0
 10
-0.5340308426150613
 20
-0.0702549020149688
 42
1.0
 10
-0.5207794232862089
 20
-0.0702549020149688
 42
1.0
 72
     1
 10
-0.5207794232862089
 20
-0.0702549020149688
 11
-0.4290638680132287
 21
-0.0702549020149688
 97
        0
 75
     0
 76
     1
 98
        1
 10
0.0
 20
0.0
  0
HATCH
  5
C8
330
4F
100
AcDbEntity
  8
0
  6
Continuous
 62
     7
100
AcDbHatch
 10
0.0
 20
0.0
 30
0.0
210
0.0
220
0.0
230
1.0
  2
SOLID
 70
     1
 71
     0
 91
        2
 92
        0
 93
       32
 72
     4
 94
        3
 73
     1
 74
     0
 95
        8
 96
        4
 40
30.0
 40
30.0
 40
30.0
 40
30.0
 40
31.0
 40
31.0
 40
31.0
 40
31.0
 10
-0.0357530617716029
 20
-0.1236674806403748
 42
1.0
 10
-0.0160183482368218
 20
-0.1236674806403748
 42
1.0
 10
0.0
 20
-0.1076355690265531
 42
1.0
 10
0.0
 20
-0.0879279822457722
 42
1.0
 72
     1
 10
0.0
 20
-0.0879279822457722
 11
0.0
 21
0.0879279822457722
 72
     1
 10
0.0
 20
0.0879279822457722
 11
-0.0367974418005909
 21
0.064022530283538
 72
     1
 10
-0.0367974418005909
 20
0.064022530283538
 11
-0.0367974418005909
 21
-0.0789218999178724
 72
     4
 94
        3
 73
     1
 74
     0
 95
        8
 96
        4
 40
1.0
 40
1.0
 40
1.0
 40
1.0
 40
2.0
 40
2.0
 40
2.0
 40
2.0
 10
-0.0367974418005909
 20
-0.0789218999178724
 42
1.0
 10
-0.0367974418005909
 20
-0.0819058428578392
 42
1.0
 10
-0.0392388496605639
 20
-0.0843336873408122
 42
1.0
 10
-0.042222792600531
 20
-0.0843336873408122
 42
1.0
 72
     4
 94
        3
 73
     1
 74
     0
 95
        8
 96
        4
 40
2.0
 40
2.0
 40
2.0
 40
2.0
 40
3.0
 40
3.0
 40
3.0
 40
3.0
 10
-0.042222792600531
 20
-0.0843336873408122
 42
1.0
 10
-0.0437012006935137
 20
-0.0843336873408122
 42
1.0
 10
-0.0450439750164989
 20
-0.0837368987528189
 42
1.0
 10
-0.046020538160488
 20
-0.0827874623628294
 42
1.0
 72
     4
 94
        3
 73
     1
 74
     0
 95
        8
 96
        4
 40
3.0
 40
3.0
 40
3.0
 40
3.0
 40
4.0
 40
4.0
 40
4.0
 40
4.0
 10
-0.046020538160488
 20
-0.0827874623628294
 42
1.0
 10
-0.0463053690774849
 20
-0.0824755046918329
 42
1.0
 10
-0.11511238059772
 20
0.0009935173652389
 42
1.0
 10
-0.115261577744718
 20
0.0011901863317367
 42
1.0
 72
     4
 94
        3
 73
     1
 74
     0
 95
        8
 96
        4
 40
4.0
 40
4.0
 40
4.0
 40
4.0
 40
5.0
 40
5.0
 40
5.0
 40
5.0
 10
-0.115261577744718
 20
0.0011901863317367
 42
1.0
 10
-0.121839815589645
 20
0.0089145295331508
 42
1.0
 10
-0.1316461371605359
 20
0.0138244720070962
 42
1.0
 10
-0.1425510922684149
 20
0.0138244720070962
 42
1.0
 72
     4
 94
        3
 73
     1
 74
     0
 95
        8
 96
        4
 40
5.0
 40
5.0
 40
5.0
 40
5.0
 40
6.0
 40
6.0
 40
6.0
 40
6.0
 10
-0.1425510922684149
 20
0.0138244720070962
 42
1.0
 10
-0.1622993691801948
 20
0.0138244720070962
 42
1.0
 10
-0.178304154040017
 20
-0.0021667494757259
 42
1.0
 10
-0.178304154040017
 20
-0.0219082446990064
 42
1.0
 72
     1
 10
-0.178304154040017
 20
-0.0219082446990064
 11
-0.178304154040017
 21
-0.0884298271947667
 72
     1
 10
-0.178304154040017
 20
-0.0884298271947667
 11
-0.3217911193214218
 21
-0.0884298271947667
 72
     4
 94
        3
 73
     1
 74
     0
 95
        8
 96
        4
 40
8.0
 40
8.0
 40
8.0
 40
8.0
 40
9.0
 40
9.0
 40
9.0
 40
9.0
 10
-0.3217911193214218
 20
-0.0884298271947667
 42
1.0
 10
-0.326796005434366
 20
-0.0884298271947667
 42
1.0
 10
-0.330851455157321
 20
-0.0843065605868125
 42
1.0
 10
-0.330851455157321
 20
-0.0793016744738682
 42
1.0
 72
     1
 10
-0.330851455157321
 20
-0.0793016744738682
 11
-0.330851455157321
 21
-0.0702549020149688
 72
     1
 10
-0.330851455157321
 20
-0.0702549020149688
 11
-0.217868524748577
 21
-0.0702549020149688
 72
     4
 94
        3
 73
     1
 74
     0
 95
        8
 96
        4
 40
11.0
 40
11.0
 40
11.0
 40
11.0
 40
12.0
 40
12.0
 40
12.0
 40
12.0
 10
-0.217868524748577
 20
-0.0702549020149688
 42
1.0
 10
-0.204630668796725
 20
-0.0702549020149688
 42
1.0
 10
-0.193874910835844
 20
-0.0595059257425883
 42
1.0
 10
-0.193874910835844
 20
-0.0462748514792354
 42
1.0
 72
     1
 10
-0.193874910835844
 20
-0.0462748514792354
 11
-0.193874910835844
 21
-0.0255228846694662
 72
     4
 94
        3
 73
     1
 74
     0
 95
        8
 96
        4
 40
13.0
 40
13.0
 40
13.0
 40
13.0
 40
14.0
 40
14.0
 40
14.0
 40
14.0
 10
-0.193874910835844
 20
-0.0255228846694662
 42
1.0
 10
-0.193874910835844
 20
-0.00630357946068
 42
1.0
 10
-0.2103951040216598
 20
0.0092671773351469
 42
1.0
 10
-0.2307944230294339
 20
0.0092671773351469
 42
1.0
 72
     1
 10
-0.2307944230294339
 20
0.0092671773351469
 11
-0.3307158213873218
 21
0.0092671773351469
 72
     1
 10
-0.3307158213873218
 20
0.0092671773351469
 11
-0.330742948141322
 21
0.0092671773351469
 72
     4
 94
        3
 73
     1
 74
     0
 95
        8
 96
        4
 40
17.0
 40
17.0
 40
17.0
 40
17.0
 40
18.0
 40
18.0
 40
18.0
 40
18.0
 10
-0.330742948141322
 20
0.0092671773351469
 42
1.0
 10
-0.3511151403950959
 20
0.0092671773351469
 42
1.0
 10
-0.367662460334912
 20
-0.00630357946068
 42
1.0
 10
-0.367662460334912
 20
-0.0255228846694662
 42
1.0
 72
     1
 10
-0.367662460334912
 20
-0.0255228846694662
 11
-0.367662460334912
 21
-0.0255567931119658
 72
     1
 10
-0.367662460334912
 20
-0.0255567931119658
 11
-0.367662460334912
 21
-0.0842523070788131
 72
     1
 10
-0.367662460334912
 20
-0.0842523070788131
 11
-0.367662460334912
 21
-0.0842794338328128
 72
     4
 94
        3
 73
     1
 74
     0
 95
        8
 96
        4
 40
21.0
 40
21.0
 40
21.0
 40
21.0
 40
22.0
 40
22.0
 40
22.0
 40
22.0
 10
-0.367662460334912
 20
-0.0842794338328128
 42
1.0
 10
-0.367662460334912
 20
-0.1035123024185989
 42
1.0
 10
-0.3511151403950959
 20
-0.1190830592144258
 42
1.0
 10
-0.330742948141322
 20
-0.1190830592144258
 42
1.0
 72
     1
 10
-0.330742948141322
 20
-0.1190830592144258
 11
-0.178304154040017
 21
-0.1190830592144258
 72
     1
 10
-0.178304154040017
 20
-0.1190830592144258
 11
-0.178304154040017
 21
-0.2189366406873153
 72
     1
 10
-0.178304154040017
 20
-0.2189366406873153
 11
-0.141493148862427
 21
-0.1950379704135811
 72
     1
 10
-0.141493148862427
 20
-0.1950379704135811
 11
-0.141493148862427
 21
-0.0309143270269063
 72
     4
 94
        3
 73
     1
 74
     0
 95
        8
 96
        4
 40
26.0
 40
26.0
 40
26.0
 40
26.0
 40
27.0
 40
27.0
 40
27.0
 40
27.0
 10
-0.141493148862427
 20
-0.0309143270269063
 42
1.0
 10
-0.141493148862427
 20
-0.0279303840869394
 42
1.0
 10
-0.1390653043794539
 20
-0.0254889762269666
 42
1.0
 10
-0.136081361439487
 20
-0.0254889762269666
 42
1.0
 72
     4
 94
        3
 73
     1
 74
     0
 95
        8
 96
        4
 40
27.0
 40
27.0
 40
27.0
 40
27.0
 40
28.0
 40
28.0
 40
28.0
 40
28.0
 10
-0.136081361439487
 20
-0.0254889762269666
 42
1.0
 10
-0.134508009707504
 20
-0.0254889762269666
 42
1.0
 10
-0.13312454525352
 20
-0.0261468000114593
 42
1.0
 10
-0.132134418732531
 20
-0.0271776166634478
 42
1.0
 72
     4
 94
        2
 73
     1
 74
     0
 95
        6
 96
        3
 40
28.0
 40
28.0
 40
28.0
 40
29.0
 40
29.0
 40
29.0
 10
-0.132134418732531
 20
-0.0271776166634478
 42
1.0
 10
-0.131917404700533
 20
-0.0274081940724453
 42
1.0
 10
-0.0631646466882977
 20
-0.1108093992445178
 42
1.0
 72
     4
 94
        3
 73
     1
 74
     0
 95
        8
 96
        4
 40
29.0
 40
29.0
 40
29.0
 40
29.0
 40
30.0
 40
30.0
 40
30.0
 40
30.0
 10
-0.0631646466882977
 20
-0.1108093992445178
 42
1.0
 10
-0.0566135355973711
 20
-0.1186761579044303
 42
1.0
 10
-0.04676652389548
 20
-0.1236674806403748
 42
1.0
 10
-0.0357530617716029
 20
-0.1236674806403748
 42
1.0
 97
        0
 92
        0
 93
        6
 72
     1
 10
-0.3218453728294209
 20
-0.0214267448155118
 11
-0.2396919983413349
 21
-0.0214267448155118
 72
     4
 94
        3
 73
     1
 74
     0
 95
        8
 96
        4
 40
2.0
 40
2.0
 40
2.0
 40
2.0
 40
3.0
 40
3.0
 40
3.0
 40
3.0
 10
-0.2396919983413349
 20
-0.0214267448155118
 42
1.0
 10
-0.2346871122283899
 20
-0.0214674349465113
 42
1.0
 10
-0.230672352636435
 20
-0.0255025396039664
 42
1.0
 10
-0.230672352636435
 20
-0.0304938623399109
 42
1.0
 72
     1
 10
-0.230672352636435
 20
-0.0304938623399109
 11
-0.230672352636435
 21
-0.0395609798643101
 72
     1
 10
-0.230672352636435
 20
-0.0395609798643101
 11
-0.330851455157321
 21
-0.0395609798643101
 72
     1
 10
-0.330851455157321
 20
-0.0395609798643101
 11
-0.330851455157321
 21
-0.0304938623399109
 72
     4
 94
        3
 73
     1
 74
     0
 95
        8
 96
        4
 40
0.0
 40
0.0
 40
0.0
 40
0.0
 40
1.0
 40
1.0
 40
1.0
 40
1.0
 10
-0.330851455157321
 20
-0.0304938623399109
 42
1.0
 10
-0.330851455157321
 20
-0.0255025396039664
 42
1.0
 10
-0.3268366955653659
 20
-0.0214674349465113
 42
1.0
 10
-0.3218453728294209
 20
-0.0214267448155118
 42
1.0
 97
        0
 75
     0
 76
     1
 98
        1
 10
0.0
 20
0.0
  0
ENDBLK
  5
51
330
4F
100
AcDbEntity
  8
0
100
AcDbBlockEnd
  0
BLOCK
  5
DD
330
DC
100
AcDbEntity
  8
0
100
AcDbBlockBegin
  2
SW_NOTE_0
 70
     0
 10
0.0
 20
0.0
 30
0.0
  3
SW_NOTE_0
  1

  0
MTEXT
  5
DF
330
DC
100
AcDbEntity
  8
0
  6
Continuous
 62
     0
370
     0
100
AcDbMText
 10
0.3440755208
 20
0.1879890454
 30
0.0
 40
0.1458333333
 41
0.0
 71
     2
 72
     1
  1
U70506
  7
SLDTEXTSTYLE0
 73
     1
 44
1.0
  0
MTEXT
  5
E0
330
DC
100
AcDbEntity
  8
0
  6
Continuous
 62
     0
370
     0
100
AcDbMText
 10
0.3611236197
 20
-0.2008998388
 30
0.0
 40
0.1458333333
 41
0.0
 71
     2
 72
     1
  1
FUSE BLOCK,  54 X 51 FUSES  1 POLE
  7
SLDTEXTSTYLE0
 73
     1
 44
1.0
  0
MTEXT
  5
E2
330
DC
100
AcDbEntity
  8
0
  6
Continuous
 62
     0
370
     0
100
AcDbMText
 10
0.3488860338
 20
-0.589788723
 30
0.0
 40
0.1458333333
 41
0.0
 71
     2
 72
     1
  1
50A        750V
  7
SLDTEXTSTYLE2
 73
     1
 44
1.0
  0
ENDBLK
  5
DE
330
DC
100
AcDbEntity
  8
0
100
AcDbBlockEnd
  0
BLOCK
  5
E6
330
E5
100
AcDbEntity
  8
0
100
AcDbBlockBegin
  2
SW_NOTE_1
 70
     0
 10
0.0
 20
0.0
 30
0.0
  3
SW_NOTE_1
  1

  0
MTEXT
  5
E9
330
E5
100
AcDbEntity
  8
0
  6
Continuous
 62
     0
370
     0
100
AcDbMText
 10
0.5928548177
 20
0.1208501006
 30
0.0
 40
0.09375
 41
0.0
 71
     2
 72
     1
  1
OUTLINE DIMENSIONS
  7
SLDTEXTSTYLE3
 73
     1
 44
1.0
  0
MTEXT
  5
EA
330
E5
100
AcDbEntity
  8
0
  6
Continuous
 62
     0
370
     0
100
AcDbMText
 10
0.6122053954
 20
-0.0041498979
 30
0.0
 40
0.09375
 41
0.0
 71
     2
 72
     1
  1
NOT TO BE USED FOR PRODUCTION
  7
SLDTEXTSTYLE3
 73
     1
 44
1.0
  0
ENDBLK
  5
E7
330
E5
100
AcDbEntity
  8
0
100
AcDbBlockEnd
  0
BLOCK
  5
ED
330
EC
100
AcDbEntity
  8
0
100
AcDbBlockBegin
  2
SW_NOTE_2
 70
     0
 10
0.0
 20
0.0
 30
0.0
  3
SW_NOTE_2
  1

  0
MTEXT
  5
F0
330
EC
100
AcDbEntity
  8
0
  6
Continuous
 62
     0
370
     0
100
AcDbMText
 10
0.0
 20
0.1208501006
 30
0.0
 40
0.09375
 41
0.0
 71
     1
 72
     1
  1
SIGN:
  7
SLDTEXTSTYLE4
 73
     1
 44
1.0
  0
MTEXT
  5
F1
330
EC
100
AcDbEntity
  8
0
  6
Continuous
 62
     0
370
     0
100
AcDbMText
 10
0.0
 20
-0.1291498964
 30
0.0
 40
0.09375
 41
0.0
 71
     1
 72
     1
  1
DATE:
  7
SLDTEXTSTYLE4
 73
     1
 44
1.0
  0
ENDBLK
  5
EE
330
EC
100
AcDbEntity
  8
0
100
AcDbBlockEnd
  0
BLOCK
  5
F7
330
F6
100
AcDbEntity
  8
0
100
AcDbBlockBegin
  2
SW_NOTE_3
 70
     0
 10
0.0
 20
0.0
 30
0.0
  3
SW_NOTE_3
  1

  0
MTEXT
  5
F9
330
F6
100
AcDbEntity
  8
0
  6
Continuous
 62
     0
370
     0
100
AcDbMText
 10
0.0
 20
0.1208501006
 30
0.0
 40
0.09375
 41
0.0
 71
     1
 72
     1
  1
SIGN:
  7
SLDTEXTSTYLE4
 73
     1
 44
1.0
  0
MTEXT
  5
FA
330
F6
100
AcDbEntity
  8
0
  6
Continuous
 62
     0
370
     0
100
AcDbMText
 10
0.0
 20
-0.1291498964
 30
0.0
 40
0.09375
 41
0.0
 71
     1
 72
     1
  1
DATE:
  7
SLDTEXTSTYLE4
 73
     1
 44
1.0
  0
ENDBLK
  5
F8
330
F6
100
AcDbEntity
  8
0
100
AcDbBlockEnd
  0
BLOCK
  5
FD
330
FC
100
AcDbEntity
  8
0
100
AcDbBlockBegin
  2
SW_NOTE_4
 70
     0
 10
0.0
 20
0.0
 30
0.0
  3
SW_NOTE_4
  1

  0
MTEXT
  5
100
330
FC
100
AcDbEntity
  8
0
  6
Continuous
 62
     0
370
     0
100
AcDbMText
 10
0.0
 20
0.0805667337
 30
0.0
 40
0.0625
 41
0.0
 71
     1
 72
     1
  1
MERSEN USA NEWBURYPORT-MA, LLC
  7
SLDTEXTSTYLE6
 73
     1
 44
1.0
  0
MTEXT
  5
101
330
FC
100
AcDbEntity
  8
0
  6
Continuous
 62
     0
370
     0
100
AcDbMText
 10
0.0
 20
-0.0027665986
 30
0.0
 40
0.0625
 41
0.0
 71
     1
 72
     1
  1
374 MERRIMAC STREET
  7
SLDTEXTSTYLE6
 73
     1
 44
1.0
  0
MTEXT
  5
102
330
FC
100
AcDbEntity
  8
0
  6
Continuous
 62
     0
370
     0
100
AcDbMText
 10
0.0
 20
-0.0860999309
 30
0.0
 40
0.0625
 41
0.0
 71
     1
 72
     1
  1
NEWBURYPORT,MA 01950
  7
SLDTEXTSTYLE6
 73
     1
 44
1.0
  0
ENDBLK
  5
FE
330
FC
100
AcDbEntity
  8
0
100
AcDbBlockEnd
  0
BLOCK
  5
108
330
107
100
AcDbEntity
  8
0
100
AcDbBlockBegin
  2
SW_TABLEANNOTATION_0
 70
     0
 10
0.0
 20
0.0
 30
0.0
  3
SW_TABLEANNOTATION_0
  1

  0
LINE
  5
10A
330
107
100
AcDbEntity
  8
0
  6
Continuous
 62
     0
370
     0
100
AcDbLine
 10
0.0
 20
0.0
 30
0.0
 11
0.0
 21
-0.325
 31
0.0
  0
LINE
  5
10B
330
107
100
AcDbEntity
  8
0
  6
Continuous
 62
     0
370
     0
100
AcDbLine
 10
0.0
 20
-0.325
 30
0.0
 11
4.0098868482
 21
-0.325
 31
0.0
  0
LINE
  5
10C
330
107
100
AcDbEntity
  8
0
  6
Continuous
 62
     0
370
     0
100
AcDbLine
 10
4.0098868482
 20
-0.325
 30
0.0
 11
4.0098868482
 21
0.0
 31
0.0
  0
LINE
  5
10D
330
107
100
AcDbEntity
  8
0
  6
Continuous
 62
     0
370
     0
100
AcDbLine
 10
4.0098868482
 20
0.0
 30
0.0
 11
0.0
 21
0.0
 31
0.0
  0
LINE
  5
10E
330
107
100
AcDbEntity
  8
0
  6
Continuous
 62
     0
370
     0
100
AcDbLine
 10
0.2685841479
 20
0.0
 30
0.0
 11
0.2685841479
 21
-0.125
 31
0.0
  0
LINE
  5
10F
330
107
100
AcDbEntity
  8
0
  6
Continuous
 62
     0
370
     0
100
AcDbLine
 10
0.7964275457
 20
0.0
 30
0.0
 11
0.7964275457
 21
-0.125
 31
0.0
  0
LINE
  5
110
330
107
100
AcDbEntity
  8
0
  6
Continuous
 62
     0
370
     0
100
AcDbLine
 10
1.2270487134
 20
0.0
 30
0.0
 11
1.2270487134
 21
-0.125
 31
0.0
  0
LINE
  5
111
330
107
100
AcDbEntity
  8
0
  6
Continuous
 62
     0
370
     0
100
AcDbLine
 10
3.1955526504
 20
0.0
 30
0.0
 11
3.1955526504
 21
-0.125
 31
0.0
  0
LINE
  5
112
330
107
100
AcDbEntity
  8
0
  6
Continuous
 62
     0
370
     0
100
AcDbLine
 10
3.4673173399
 20
0.0
 30
0.0
 11
3.4673173399
 21
-0.125
 31
0.0
  0
LINE
  5
113
330
107
100
AcDbEntity
  8
0
  6
Continuous
 62
     0
370
     0
100
AcDbLine
 10
3.7250990076
 20
0.0
 30
0.0
 11
3.7250990076
 21
-0.125
 31
0.0
  0
LINE
  5
114
330
107
100
AcDbEntity
  8
0
  6
Continuous
 62
     0
370
     0
100
AcDbLine
 10
0.2685841479
 20
-0.125
 30
0.0
 11
0.2685841479
 21
-0.325
 31
0.0
  0
LINE
  5
115
330
107
100
AcDbEntity
  8
0
  6
Continuous
 62
     0
370
     0
100
AcDbLine
 10
0.7964275457
 20
-0.125
 30
0.0
 11
0.7964275457
 21
-0.325
 31
0.0
  0
LINE
  5
116
330
107
100
AcDbEntity
  8
0
  6
Continuous
 62
     0
370
     0
100
AcDbLine
 10
1.2270487134
 20
-0.125
 30
0.0
 11
1.2270487134
 21
-0.325
 31
0.0
  0
LINE
  5
117
330
107
100
AcDbEntity
  8
0
  6
Continuous
 62
     0
370
     0
100
AcDbLine
 10
3.1955526504
 20
-0.125
 30
0.0
 11
3.1955526504
 21
-0.325
 31
0.0
  0
LINE
  5
118
330
107
100
AcDbEntity
  8
0
  6
Continuous
 62
     0
370
     0
100
AcDbLine
 10
3.4673173399
 20
-0.125
 30
0.0
 11
3.4673173399
 21
-0.325
 31
0.0
  0
LINE
  5
119
330
107
100
AcDbEntity
  8
0
  6
Continuous
 62
     0
370
     0
100
AcDbLine
 10
3.7250990076
 20
-0.125
 30
0.0
 11
3.7250990076
 21
-0.325
 31
0.0
  0
LINE
  5
11A
330
107
100
AcDbEntity
  8
0
  6
Continuous
 62
     0
370
     0
100
AcDbLine
 10
0.0
 20
-0.125
 30
0.0
 11
4.0098868482
 21
-0.125
 31
0.0
  0
MTEXT
  5
11B
330
107
100
AcDbEntity
  8
0
  6
Continuous
 62
     0
370
     0
100
AcDbMText
 10
0.0208661417
 20
-0.0263070913
 30
0.0
 40
0.0729166667
 41
0.0
 71
     1
 72
     1
  1
REV.
  7
SLDTEXTSTYLE0
 73
     1
 44
1.0
  0
MTEXT
  5
11C
330
107
100
AcDbEntity
  8
0
  6
Continuous
 62
     0
370
     0
100
AcDbMText
 10
0.4028762126
 20
-0.0263070913
 30
0.0
 40
0.0729166667
 41
0.0
 71
     1
 72
     1
  1
DATE
  7
SLDTEXTSTYLE0
 73
     1
 44
1.0
  0
MTEXT
  5
11D
330
107
100
AcDbEntity
  8
0
  6
Continuous
 62
     0
370
     0
100
AcDbMText
 10
0.9064140529
 20
-0.0263070913
 30
0.0
 40
0.0729166667
 41
0.0
 71
     1
 72
     1
  1
ECO
  7
SLDTEXTSTYLE0
 73
     1
 44
1.0
  0
MTEXT
  5
11E
330
107
100
AcDbEntity
  8
0
  6
Continuous
 62
     0
370
     0
100
AcDbMText
 10
1.8791247959
 20
-0.0263070913
 30
0.0
 40
0.0729166667
 41
0.0
 71
     1
 72
     1
  1
DESCRIPTION
  7
SLDTEXTSTYLE0
 73
     1
 44
1.0
  0
MTEXT
  5
11F
330
107
100
AcDbEntity
  8
0
  6
Continuous
 62
     0
370
     0
100
AcDbMText
 10
3.2666201781
 20
-0.0263070913
 30
0.0
 40
0.0729166667
 41
0.0
 71
     1
 72
     1
  1
BY
  7
SLDTEXTSTYLE0
 73
     1
 44
1.0
  0
MTEXT
  5
120
330
107
100
AcDbEntity
  8
0
  6
Continuous
 62
     0
370
     0
100
AcDbMText
 10
3.5286927412
 20
-0.0263070913
 30
0.0
 40
0.0729166667
 41
0.0
 71
     1
 72
     1
  1
CK
  7
SLDTEXTSTYLE0
 73
     1
 44
1.0
  0
MTEXT
  5
121
330
107
100
AcDbEntity
  8
0
  6
Continuous
 62
     0
370
     0
100
AcDbMText
 10
3.7702706977
 20
-0.0263070913
 30
0.0
 40
0.0729166667
 41
0.0
 71
     1
 72
     1
  1
APP
  7
SLDTEXTSTYLE0
 73
     1
 44
1.0
  0
MTEXT
  5
122
330
107
100
AcDbEntity
  8
0
  6
Continuous
 62
     0
370
     0
100
AcDbMText
 10
0.1018846654
 20
-0.1888070913
 30
0.0
 40
0.0729166667
 41
0.0
 71
     1
 72
     1
  1
A
  7
SLDTEXTSTYLE0
 73
     1
 44
1.0
  0
MTEXT
  5
123
330
107
100
AcDbEntity
  8
0
  6
Continuous
 62
     0
370
     0
100
AcDbMText
 10
0.3164564626
 20
-0.1888070913
 30
0.0
 40
0.0729166667
 41
0.0
 71
     1
 72
     1
  1
1/13/2014
  7
SLDTEXTSTYLE0
 73
     1
 44
1.0
  0
MTEXT
  5
124
330
107
100
AcDbEntity
  8
0
  6
Continuous
 62
     0
370
     0
100
AcDbMText
 10
0.9307196105
 20
-0.1888070913
 30
0.0
 40
0.0729166667
 41
0.0
 71
     1
 72
     1
  1
N/A
  7
SLDTEXTSTYLE0
 73
     1
 44
1.0
  0
MTEXT
  5
125
330
107
100
AcDbEntity
  8
0
  6
Continuous
 62
     0
370
     0
100
AcDbMText
 10
1.5550506829
 20
-0.1888070913
 30
0.0
 40
0.0729166667
 41
0.0
 71
     1
 72
     1
  1
REDRAWN IN SOLIDWORKS
  7
SLDTEXTSTYLE0
 73
     1
 44
1.0
  0
MTEXT
  5
126
330
107
100
AcDbEntity
  8
0
  6
Continuous
 62
     0
370
     0
100
AcDbMText
 10
3.2234103031
 20
-0.1888070913
 30
0.0
 40
0.0729166667
 41
0.0
 71
     1
 72
     1
  1
GDR
  7
SLDTEXTSTYLE0
 73
     1
 44
1.0
  0
MTEXT
  5
127
330
107
100
AcDbEntity
  8
0
  6
Continuous
 62
     0
370
     0
100
AcDbMText
 10
3.5151896547
 20
-0.1888070913
 30
0.0
 40
0.0729166667
 41
0.0
 71
     1
 72
     1
  1
N/A
  7
SLDTEXTSTYLE0
 73
     1
 44
1.0
  0
MTEXT
  5
128
330
107
100
AcDbEntity
  8
0
  6
Continuous
 62
     0
370
     0
100
AcDbMText
 10
3.7864744088
 20
-0.1888070913
 30
0.0
 40
0.0729166667
 41
0.0
 71
     1
 72
     1
  1
N/A
  7
SLDTEXTSTYLE0
 73
     1
 44
1.0
  0
ENDBLK
  5
109
330
107
100
AcDbEntity
  8
0
100
AcDbBlockEnd
  0
BLOCK
  5
12B
330
12A
100
AcDbEntity
  8
0
100
AcDbBlockBegin
  2
SW_TABLEANNOTATION_1
 70
     0
 10
0.0
 20
0.0
 30
0.0
  3
SW_TABLEANNOTATION_1
  1

  0
LINE
  5
12D
330
12A
100
AcDbEntity
  8
DETAIL
 62
     0
100
AcDbLine
 10
0.0
 20
0.0
 30
0.0
 11
0.0
 21
-0.6
 31
0.0
  0
LINE
  5
12E
330
12A
100
AcDbEntity
  8
DETAIL
 62
     0
100
AcDbLine
 10
0.0
 20
-0.6
 30
0.0
 11
4.8
 21
-0.6
 31
0.0
  0
LINE
  5
12F
330
12A
100
AcDbEntity
  8
DETAIL
 62
     0
100
AcDbLine
 10
4.8
 20
-0.6
 30
0.0
 11
4.8
 21
0.0
 31
0.0
  0
LINE
  5
130
330
12A
100
AcDbEntity
  8
DETAIL
 62
     0
100
AcDbLine
 10
4.8
 20
0.0
 30
0.0
 11
0.0
 21
0.0
 31
0.0
  0
LINE
  5
131
330
12A
100
AcDbEntity
  8
DETAIL
 62
     0
100
AcDbLine
 10
0.6
 20
0.0
 30
0.0
 11
0.6
 21
-0.6
 31
0.0
  0
LINE
  5
132
330
12A
100
AcDbEntity
  8
DETAIL
 62
     0
100
AcDbLine
 10
1.2
 20
0.0
 30
0.0
 11
1.2
 21
-0.6
 31
0.0
  0
LINE
  5
133
330
12A
100
AcDbEntity
  8
DETAIL
 62
     0
100
AcDbLine
 10
1.8
 20
0.0
 30
0.0
 11
1.8
 21
-0.6
 31
0.0
  0
LINE
  5
134
330
12A
100
AcDbEntity
  8
DETAIL
 62
     0
100
AcDbLine
 10
2.4
 20
0.0
 30
0.0
 11
2.4
 21
-0.6
 31
0.0
  0
LINE
  5
135
330
12A
100
AcDbEntity
  8
DETAIL
 62
     0
100
AcDbLine
 10
3.0
 20
-0.2
 30
0.0
 11
3.0
 21
-0.6
 31
0.0
  0
LINE
  5
136
330
12A
100
AcDbEntity
  8
DETAIL
 62
     0
100
AcDbLine
 10
3.6
 20
0.0
 30
0.0
 11
3.6
 21
-0.6
 31
0.0
  0
LINE
  5
137
330
12A
100
AcDbEntity
  8
DETAIL
 62
     0
100
AcDbLine
 10
4.2
 20
-0.2
 30
0.0
 11
4.2
 21
-0.6
 31
0.0
  0
LINE
  5
138
330
12A
100
AcDbEntity
  8
DETAIL
 62
     0
100
AcDbLine
 10
2.4
 20
-0.2
 30
0.0
 11
4.8
 21
-0.2
 31
0.0
  0
LINE
  5
139
330
12A
100
AcDbEntity
  8
DETAIL
 62
     0
100
AcDbLine
 10
0.0
 20
-0.4
 30
0.0
 11
4.8
 21
-0.4
 31
0.0
  0
MTEXT
  5
13A
330
12A
100
AcDbEntity
  8
DETAIL
 62
     0
100
AcDbMText
 10
0.2189814809
 20
-0.1638070913
 30
0.0
 40
0.0729166667
 41
0.0
 71
     1
 72
     1
  1
P/N
  7
SLDTEXTSTYLE0
 73
     1
 44
1.0
  0
MTEXT
  5
13B
330
12A
100
AcDbEntity
  8
DETAIL
 62
     0
100
AcDbMText
 10
0.7703703658
 20
-0.1151959807
 30
0.0
 40
0.0729166667
 41
0.0
 71
     1
 72
     1
  1
FUSE
  7
SLDTEXTSTYLE0
 73
     1
 44
1.0
  0
MTEXT
  5
13C
330
12A
100
AcDbEntity
  8
DETAIL
 62
     0
100
AcDbMText
 10
0.7406635773
 20
-0.2124182018
 30
0.0
 40
0.0729166667
 41
0.0
 71
     1
 72
     1
  1
CLASS
  7
SLDTEXTSTYLE0
 73
     1
 44
1.0
  0
MTEXT
  5
13D
330
12A
100
AcDbEntity
  8
DETAIL
 62
     0
100
AcDbMText
 10
1.2731481539
 20
-0.1151959807
 30
0.0
 40
0.0729166667
 41
0.0
 71
     1
 72
     1
  1
RMS SYM
  7
SLDTEXTSTYLE0
 73
     1
 44
1.0
  0
MTEXT
  5
13E
330
12A
100
AcDbEntity
  8
DETAIL
 62
     0
100
AcDbMText
 10
1.3163580381
 20
-0.2124182018
 30
0.0
 40
0.0729166667
 41
0.0
 71
     1
 72
     1
  1
RATING
  7
SLDTEXTSTYLE0
 73
     1
 44
1.0
  0
MTEXT
  5
13F
330
12A
100
AcDbEntity
  8
DETAIL
 62
     0
100
AcDbMText
 10
1.8920524622
 20
-0.1151959807
 30
0.0
 40
0.0729166667
 41
0.0
 71
     1
 72
     1
  1
TORQUE
  7
SLDTEXTSTYLE0
 73
     1
 44
1.0
  0
MTEXT
  5
140
330
12A
100
AcDbEntity
  8
DETAIL
 62
     0
100
AcDbMText
 10
1.9109567888
 20
-0.2124182018
 30
0.0
 40
0.0729166667
 41
0.0
 71
     1
 72
     1
  1
(IN-LBS)
  7
SLDTEXTSTYLE0
 73
     1
 44
1.0
  0
MTEXT
  5
141
330
12A
100
AcDbEntity
  8
DETAIL
 62
     0
100
AcDbMText
 10
2.8730709813
 20
-0.0638070913
 30
0.0
 40
0.0729166667
 41
0.0
 71
     1
 72
     1
  1
WIRE
  7
SLDTEXTSTYLE0
 73
     1
 44
1.0
  0
MTEXT
  5
142
330
12A
100
AcDbEntity
  8
DETAIL
 62
     0
100
AcDbMText
 10
4.137885803
 20
-0.0638070913
 30
0.0
 40
0.0729166667
 41
0.0
 71
     1
 72
     1
  1
UL
  7
SLDTEXTSTYLE0
 73
     1
 44
1.0
  0
MTEXT
  5
143
330
12A
100
AcDbEntity
  8
DETAIL
 62
     0
100
AcDbMText
 10
2.6431520059
 20
-0.2638070913
 30
0.0
 40
0.0729166667
 41
0.0
 71
     1
 72
     1
  1
%%d
  7
SLDTEXTSTYLE0
 73
     1
 44
1.0
  0
MTEXT
  5
144
330
12A
100
AcDbEntity
  8
DETAIL
 62
     0
100
AcDbMText
 10
2.6866319461
 20
-0.2638070913
 30
0.0
 40
0.0729166667
 41
0.0
 71
     1
 72
     1
  1
C
  7
SLDTEXTSTYLE0
 73
     1
 44
1.0
  0
MTEXT
  5
145
330
12A
100
AcDbEntity
  8
DETAIL
 62
     0
100
AcDbMText
 10
3.1730709813
 20
-0.2638070913
 30
0.0
 40
0.0729166667
 41
0.0
 71
     1
 72
     1
  1
TYPE
  7
SLDTEXTSTYLE0
 73
     1
 44
1.0
  0
MTEXT
  5
146
330
12A
100
AcDbEntity
  8
DETAIL
 62
     0
100
AcDbMText
 10
3.6974536932
 20
-0.2638070913
 30
0.0
 40
0.0729166667
 41
0.0
 71
     1
 72
     1
  1
FILE NO.
  7
SLDTEXTSTYLE0
 73
     1
 44
1.0
  0
MTEXT
  5
147
330
12A
100
AcDbEntity
  8
DETAIL
 62
     0
100
AcDbMText
 10
4.2461419993
 20
-0.2638070913
 30
0.0
 40
0.0729166667
 41
0.0
 71
     1
 72
     1
  1
GUIDE NO.
  7
SLDTEXTSTYLE0
 73
     1
 44
1.0
  0
MTEXT
  5
148
330
12A
100
AcDbEntity
  8
DETAIL
 62
     0
100
AcDbMText
 10
0.1298611155
 20
-0.4638070913
 30
0.0
 40
0.0729166667
 41
0.0
 71
     1
 72
     1
  1
U70506
  7
SLDTEXTSTYLE0
 73
     1
 44
1.0
  0
MTEXT
  5
149
330
12A
100
AcDbEntity
  8
DETAIL
 62
     0
100
AcDbMText
 10
0.6785493849
 20
-0.4638070913
 30
0.0
 40
0.0729166667
 41
0.0
 71
     1
 72
     1
  1
14X51mm
  7
SLDTEXTSTYLE0
 73
     1
 44
1.0
  0
MTEXT
  5
14A
330
12A
100
AcDbEntity
  8
DETAIL
 62
     0
100
AcDbMText
 10
1.386574077
 20
-0.4638070913
 30
0.0
 40
0.0729166667
 41
0.0
 71
     1
 72
     1
  1
200K
  7
SLDTEXTSTYLE0
 73
     1
 44
1.0
  0
MTEXT
  5
14B
330
12A
100
AcDbEntity
  8
DETAIL
 62
     0
100
AcDbMText
 10
2.045987654
 20
-0.4638070913
 30
0.0
 40
0.0729166667
 41
0.0
 71
     1
 72
     1
  1
35
  7
SLDTEXTSTYLE0
 73
     1
 44
1.0
  0
MTEXT
  5
14C
330
12A
100
AcDbEntity
  8
DETAIL
 62
     0
100
AcDbMText
 10
2.5784722214
 20
-0.4638070913
 30
0.0
 40
0.0729166667
 41
0.0
 71
     1
 72
     1
  1
60/75
  7
SLDTEXTSTYLE0
 73
     1
 44
1.0
  0
MTEXT
  5
14D
330
12A
100
AcDbEntity
  8
DETAIL
 62
     0
100
AcDbMText
 10
3.154166673
 20
-0.4638070913
 30
0.0
 40
0.0729166667
 41
0.0
 71
     1
 72
     1
  1
CU-AL
  7
SLDTEXTSTYLE0
 73
     1
 44
1.0
  0
MTEXT
  5
14E
330
12A
100
AcDbEntity
  8
DETAIL
 62
     0
100
AcDbMText
 10
3.7325617309
 20
-0.4638070913
 30
0.0
 40
0.0729166667
 41
0.0
 71
     1
 72
     1
  1
E52283
  7
SLDTEXTSTYLE0
 73
     1
 44
1.0
  0
MTEXT
  5
14F
330
12A
100
AcDbEntity
  8
DETAIL
 62
     0
100
AcDbMText
 10
4.3730709905
 20
-0.4638070913
 30
0.0
 40
0.0729166667
 41
0.0
 71
     1
 72
     1
  1
IZLT2
  7
SLDTEXTSTYLE0
 73
     1
 44
1.0
  0
ENDBLK
  5
12C
330
12A
100
AcDbEntity
  8
0
100
AcDbBlockEnd
  0
BLOCK
  5
18A
330
189
100
AcDbEntity
  8
0
100
AcDbBlockBegin
  2
_D
 70
     0
 10
0.0
 20
0.0
 30
0.0
  3
_D
  1

  0
SOLID
  5
18C
330
189
100
AcDbEntity
  8
DETAIL
 62
     5
100
AcDbTrace
 10
2.4432526896
 20
2.8976838678
 30
0.0
 11
2.4632526896
 21
2.9916838678
 31
0.0
 12
2.4232526896
 22
2.9916838678
 32
0.0
 13
2.4232526896
 23
2.9916838678
 33
0.0
  0
SOLID
  5
18D
330
189
100
AcDbEntity
  8
DETAIL
 62
     5
100
AcDbTrace
 10
2.4432526896
 20
4.2696838678
 30
0.0
 11
2.4232526896
 21
4.1756838678
 31
0.0
 12
2.4632526896
 22
4.1756838678
 32
0.0
 13
2.4632526896
 23
4.1756838678
 33
0.0
  0
LINE
  5
18E
330
189
100
AcDbEntity
  8
DETAIL
 62
     5
100
AcDbLine
 10
2.247457942
 20
3.5836838678
 30
0.0
 11
2.2312542378
 21
3.5836838678
 31
0.0
  0
LINE
  5
18F
330
189
100
AcDbEntity
  8
DETAIL
 62
     5
100
AcDbLine
 10
2.2312542378
 20
3.5836838678
 30
0.0
 11
2.2312542378
 21
3.4749840218
 31
0.0
  0
LINE
  5
190
330
189
100
AcDbEntity
  8
DETAIL
 62
     5
100
AcDbLine
 10
2.2312542378
 20
3.4749840218
 30
0.0
 11
2.247457942
 21
3.4749840218
 31
0.0
  0
LINE
  5
191
330
189
100
AcDbEntity
  8
DETAIL
 62
     5
100
AcDbLine
 10
2.6390474371
 20
3.5836838678
 30
0.0
 11
2.6552511414
 21
3.5836838678
 31
0.0
  0
LINE
  5
192
330
189
100
AcDbEntity
  8
DETAIL
 62
     5
100
AcDbLine
 10
2.6552511414
 20
3.5836838678
 30
0.0
 11
2.6552511414
 21
3.4749840218
 31
0.0
  0
LINE
  5
193
330
189
100
AcDbEntity
  8
DETAIL
 62
     5
100
AcDbLine
 10
2.6552511414
 20
3.4749840218
 30
0.0
 11
2.6390474371
 21
3.4749840218
 31
0.0
  0
LINE
  5
194
330
189
100
AcDbEntity
  8
DETAIL
 62
     5
100
AcDbLine
 10
2.967453477
 20
2.8976838678
 30
0.0
 11
2.3182526896
 21
2.8976838678
 31
0.0
  0
LINE
  5
195
330
189
100
AcDbEntity
  8
DETAIL
 62
     5
100
AcDbLine
 10
3.3774980633
 20
4.2696838678
 30
0.0
 11
2.3182526896
 21
4.2696838678
 31
0.0
  0
LINE
  5
196
330
189
100
AcDbEntity
  8
DETAIL
 62
     5
100
AcDbLine
 10
2.4432526896
 20
2.8976838678
 30
0.0
 11
2.4432526896
 21
3.4587803107
 31
0.0
  0
LINE
  5
197
330
189
100
AcDbEntity
  8
DETAIL
 62
     5
100
AcDbLine
 10
2.4432526896
 20
4.2696838678
 30
0.0
 11
2.4432526896
 21
3.7085874249
 31
0.0
  0
MTEXT
  5
198
330
189
100
AcDbEntity
  8
DETAIL
 62
     5
100
AcDbMText
 10
2.219776613
 20
3.6938821016
 30
-0.4800629921
 40
0.0729166667
 41
0.0
 71
     1
 72
     1
  1

  7
SLDTEXTSTYLE0
 73
     1
 44
1.0
  0
MTEXT
  5
199
330
189
100
AcDbEntity
  8
DETAIL
 62
     5
100
AcDbMText
 10
2.278515036
 20
3.6938820925
 30
-0.4800629921
 40
0.0729166667
 41
0.0
 71
     1
 72
     1
  1
1.37in
  7
SLDTEXTSTYLE0
 73
     1
 44
1.0
  0
MTEXT
  5
19A
330
189
100
AcDbEntity
  8
DETAIL
 62
     5
100
AcDbMText
 10
2.2677125741
 20
3.5689785445
 30
-0.4800629921
 40
0.0729166667
 41
0.0
 71
     1
 72
     1
  1
34.8mm
  7
SLDTEXTSTYLE0
 73
     1
 44
1.0
  0
MTEXT
  5
19B
330
189
100
AcDbEntity
  8
DETAIL
 62
     5
100
AcDbMText
 10
2.7220914202
 20
3.6938821016
 30
-0.4800629921
 40
0.0729166667
 41
0.0
 71
     1
 72
     1
  1

  7
SLDTEXTSTYLE0
 73
     1
 44
1.0
  0
ENDBLK
  5
18B
330
189
100
AcDbEntity
  8
0
100
AcDbBlockEnd
  0
BLOCK
  5
459
330
458
100
AcDbEntity
  8
0
100
AcDbBlockBegin
  2
_D_1
 70
     0
 10
0.0
 20
0.0
 30
0.0
  3
_D_1
  1

  0
SOLID
  5
45B
330
458
100
AcDbEntity
  8
DETAIL
 62
     5
100
AcDbTrace
 10
3.027453477
 20
5.614082219
 30
0.0
 11
3.121453477
 21
5.594082219
 31
0.0
 12
3.121453477
 22
5.634082219
 32
0.0
 13
3.121453477
 23
5.634082219
 33
0.0
  0
SOLID
  5
45C
330
458
100
AcDbEntity
  8
DETAIL
 62
     5
100
AcDbTrace
 10
6.027453477
 20
5.614082219
 30
0.0
 11
5.933453477
 21
5.634082219
 31
0.0
 12
5.933453477
 22
5.594082219
 32
0.0
 13
5.933453477
 23
5.594082219
 33
0.0
  0
LINE
  5
45D
330
458
100
AcDbEntity
  8
DETAIL
 62
     5
100
AcDbLine
 10
4.3316587294
 20
5.614082219
 30
0.0
 11
4.3154550252
 21
5.614082219
 31
0.0
  0
LINE
  5
45E
330
458
100
AcDbEntity
  8
DETAIL
 62
     5
100
AcDbLine
 10
4.3154550252
 20
5.614082219
 30
0.0
 11
4.3154550252
 21
5.505382373
 31
0.0
  0
LINE
  5
45F
330
458
100
AcDbEntity
  8
DETAIL
 62
     5
100
AcDbLine
 10
4.3154550252
 20
5.505382373
 30
0.0
 11
4.3316587294
 21
5.505382373
 31
0.0
  0
LINE
  5
460
330
458
100
AcDbEntity
  8
DETAIL
 62
     5
100
AcDbLine
 10
4.7232482245
 20
5.614082219
 30
0.0
 11
4.7394519288
 21
5.614082219
 31
0.0
  0
LINE
  5
461
330
458
100
AcDbEntity
  8
DETAIL
 62
     5
100
AcDbLine
 10
4.7394519288
 20
5.614082219
 30
0.0
 11
4.7394519288
 21
5.505382373
 31
0.0
  0
LINE
  5
462
330
458
100
AcDbEntity
  8
DETAIL
 62
     5
100
AcDbLine
 10
4.7394519288
 20
5.505382373
 30
0.0
 11
4.7232482245
 21
5.505382373
 31
0.0
  0
LINE
  5
463
330
458
100
AcDbEntity
  8
DETAIL
 62
     5
100
AcDbLine
 10
3.027453477
 20
5.8333991185
 30
0.0
 11
3.027453477
 21
5.489082219
 31
0.0
  0
LINE
  5
464
330
458
100
AcDbEntity
  8
DETAIL
 62
     5
100
AcDbLine
 10
6.027453477
 20
5.8333991185
 30
0.0
 11
6.027453477
 21
5.489082219
 31
0.0
  0
LINE
  5
465
330
458
100
AcDbEntity
  8
DETAIL
 62
     5
100
AcDbLine
 10
3.027453477
 20
5.614082219
 30
0.0
 11
4.2330807916
 21
5.614082219
 31
0.0
  0
LINE
  5
466
330
458
100
AcDbEntity
  8
DETAIL
 62
     5
100
AcDbLine
 10
6.027453477
 20
5.614082219
 30
0.0
 11
4.8218261623
 21
5.614082219
 31
0.0
  0
MTEXT
  5
467
330
458
100
AcDbEntity
  8
DETAIL
 62
     5
100
AcDbMText
 10
4.3039774004
 20
5.7242804528
 30
-0.8978208481
 40
0.0729166667
 41
0.0
 71
     1
 72
     1
  1

  7
SLDTEXTSTYLE0
 73
     1
 44
1.0
  0
MTEXT
  5
468
330
458
100
AcDbEntity
  8
DETAIL
 62
     5
100
AcDbMText
 10
4.3627158234
 20
5.7242804437
 30
-0.8978208481
 40
0.0729166667
 41
0.0
 71
     1
 72
     1
  1
3.00in
  7
SLDTEXTSTYLE0
 73
     1
 44
1.0
  0
MTEXT
  5
469
330
458
100
AcDbEntity
  8
DETAIL
 62
     5
100
AcDbMText
 10
4.3519133615
 20
5.5993768957
 30
-0.8978208481
 40
0.0729166667
 41
0.0
 71
     1
 72
     1
  1
76.2mm
  7
SLDTEXTSTYLE0
 73
     1
 44
1.0
  0
MTEXT
  5
46A
330
458
100
AcDbEntity
  8
DETAIL
 62
     5
100
AcDbMText
 10
4.8062922076
 20
5.7242804528
 30
-0.8978208481
 40
0.0729166667
 41
0.0
 71
     1
 72
     1
  1

  7
SLDTEXTSTYLE0
 73
     1
 44
1.0
  0
ENDBLK
  5
45A
330
458
100
AcDbEntity
  8
0
100
AcDbBlockEnd
  0
BLOCK
  5
46D
330
46C
100
AcDbEntity
  8
0
100
AcDbBlockBegin
  2
_D_2
 70
     0
 10
0.0
 20
0.0
 30
0.0
  3
_D_2
  1

  0
SOLID
  5
46F
330
46C
100
AcDbEntity
  8
DETAIL
 62
     5
100
AcDbTrace
 10
2.836953477
 20
5.2877361314
 30
0.0
 11
2.930953477
 21
5.2677361314
 31
0.0
 12
2.930953477
 22
5.3077361314
 32
0.0
 13
2.930953477
 23
5.3077361314
 33
0.0
  0
SOLID
  5
470
330
46C
100
AcDbEntity
  8
DETAIL
 62
     5
100
AcDbTrace
 10
6.217953477
 20
5.2877361314
 30
0.0
 11
6.123953477
 21
5.3077361314
 31
0.0
 12
6.123953477
 22
5.2677361314
 32
0.0
 13
6.123953477
 23
5.2677361314
 33
0.0
  0
LINE
  5
471
330
46C
100
AcDbEntity
  8
DETAIL
 62
     5
100
AcDbLine
 10
4.3316587294
 20
5.2877361314
 30
0.0
 11
4.3154550252
 21
5.2877361314
 31
0.0
  0
LINE
  5
472
330
46C
100
AcDbEntity
  8
DETAIL
 62
     5
100
AcDbLine
 10
4.3154550252
 20
5.2877361314
 30
0.0
 11
4.3154550252
 21
5.1790362854
 31
0.0
  0
LINE
  5
473
330
46C
100
AcDbEntity
  8
DETAIL
 62
     5
100
AcDbLine
 10
4.3154550252
 20
5.1790362854
 30
0.0
 11
4.3316587294
 21
5.1790362854
 31
0.0
  0
LINE
  5
474
330
46C
100
AcDbEntity
  8
DETAIL
 62
     5
100
AcDbLine
 10
4.7232482245
 20
5.2877361314
 30
0.0
 11
4.7394519288
 21
5.2877361314
 31
0.0
  0
LINE
  5
475
330
46C
100
AcDbEntity
  8
DETAIL
 62
     5
100
AcDbLine
 10
4.7394519288
 20
5.2877361314
 30
0.0
 11
4.7394519288
 21
5.1790362854
 31
0.0
  0
LINE
  5
476
330
46C
100
AcDbEntity
  8
DETAIL
 62
     5
100
AcDbLine
 10
4.7394519288
 20
5.1790362854
 30
0.0
 11
4.7232482245
 21
5.1790362854
 31
0.0
  0
LINE
  5
477
330
46C
100
AcDbEntity
  8
DETAIL
 62
     5
100
AcDbLine
 10
2.836953477
 20
6.1748991185
 30
0.0
 11
2.836953477
 21
5.1627361314
 31
0.0
  0
LINE
  5
478
330
46C
100
AcDbEntity
  8
DETAIL
 62
     5
100
AcDbLine
 10
6.217953477
 20
6.1748991185
 30
0.0
 11
6.217953477
 21
5.1627361314
 31
0.0
  0
LINE
  5
479
330
46C
100
AcDbEntity
  8
DETAIL
 62
     5
100
AcDbLine
 10
2.836953477
 20
5.2877361314
 30
0.0
 11
4.2330807916
 21
5.2877361314
 31
0.0
  0
LINE
  5
47A
330
46C
100
AcDbEntity
  8
DETAIL
 62
     5
100
AcDbLine
 10
6.217953477
 20
5.2877361314
 30
0.0
 11
4.8218261623
 21
5.2877361314
 31
0.0
  0
MTEXT
  5
47B
330
46C
100
AcDbEntity
  8
DETAIL
 62
     5
100
AcDbMText
 10
4.3039774004
 20
5.3979343652
 30
-0.8978208481
 40
0.0729166667
 41
0.0
 71
     1
 72
     1
  1

  7
SLDTEXTSTYLE0
 73
     1
 44
1.0
  0
MTEXT
  5
47C
330
46C
100
AcDbEntity
  8
DETAIL
 62
     5
100
AcDbMText
 10
4.3627158234
 20
5.3979343561
 30
-0.8978208481
 40
0.0729166667
 41
0.0
 71
     1
 72
     1
  1
3.38in
  7
SLDTEXTSTYLE0
 73
     1
 44
1.0
  0
MTEXT
  5
47D
330
46C
100
AcDbEntity
  8
DETAIL
 62
     5
100
AcDbMText
 10
4.3519133615
 20
5.2730308081
 30
-0.8978208481
 40
0.0729166667
 41
0.0
 71
     1
 72
     1
  1
85.9mm
  7
SLDTEXTSTYLE0
 73
     1
 44
1.0
  0
MTEXT
  5
47E
330
46C
100
AcDbEntity
  8
DETAIL
 62
     5
100
AcDbMText
 10
4.8062922076
 20
5.3979343652
 30
-0.8978208481
 40
0.0729166667
 41
0.0
 71
     1
 72
     1
  1

  7
SLDTEXTSTYLE0
 73
     1
 44
1.0
  0
ENDBLK
  5
46E
330
46C
100
AcDbEntity
  8
0
100
AcDbBlockEnd
  0
BLOCK
  5
481
330
480
100
AcDbEntity
  8
0
100
AcDbBlockBegin
  2
_D_3
 70
     0
 10
0.0
 20
0.0
 30
0.0
  3
_D_3
  1

  0
SOLID
  5
483
330
480
100
AcDbEntity
  8
DETAIL
 62
     5
100
AcDbTrace
 10
1.8742963684
 20
6.9233991185
 30
0.0
 11
1.8542963684
 21
6.8293991185
 31
0.0
 12
1.8942963684
 22
6.8293991185
 32
0.0
 13
1.8942963684
 23
6.8293991185
 33
0.0
  0
SOLID
  5
484
330
480
100
AcDbEntity
  8
DETAIL
 62
     5
100
AcDbTrace
 10
1.8742963684
 20
5.9553991185
 30
0.0
 11
1.8942963684
 21
6.0493991185
 31
0.0
 12
1.8542963684
 22
6.0493991185
 32
0.0
 13
1.8542963684
 23
6.0493991185
 33
0.0
  0
LINE
  5
485
330
480
100
AcDbEntity
  8
DETAIL
 62
     5
100
AcDbLine
 10
1.6785016209
 20
6.4393991185
 30
0.0
 11
1.6622979166
 21
6.4393991185
 31
0.0
  0
LINE
  5
486
330
480
100
AcDbEntity
  8
DETAIL
 62
     5
100
AcDbLine
 10
1.6622979166
 20
6.4393991185
 30
0.0
 11
1.6622979166
 21
6.3306992726
 31
0.0
  0
LINE
  5
487
330
480
100
AcDbEntity
  8
DETAIL
 62
     5
100
AcDbLine
 10
1.6622979166
 20
6.3306992726
 30
0.0
 11
1.6785016209
 21
6.3306992726
 31
0.0
  0
LINE
  5
488
330
480
100
AcDbEntity
  8
DETAIL
 62
     5
100
AcDbLine
 10
2.0700911159
 20
6.4393991185
 30
0.0
 11
2.0862948202
 21
6.4393991185
 31
0.0
  0
LINE
  5
489
330
480
100
AcDbEntity
  8
DETAIL
 62
     5
100
AcDbLine
 10
2.0862948202
 20
6.4393991185
 30
0.0
 11
2.0862948202
 21
6.3306992726
 31
0.0
  0
LINE
  5
48A
330
480
100
AcDbEntity
  8
DETAIL
 62
     5
100
AcDbLine
 10
2.0862948202
 20
6.3306992726
 30
0.0
 11
2.0700911159
 21
6.3306992726
 31
0.0
  0
LINE
  5
48B
330
480
100
AcDbEntity
  8
DETAIL
 62
     5
100
AcDbLine
 10
2.9984723729
 20
6.9233991185
 30
0.0
 11
1.7492963684
 21
6.9233991185
 31
0.0
  0
LINE
  5
48C
330
480
100
AcDbEntity
  8
DETAIL
 62
     5
100
AcDbLine
 10
2.967453477
 20
5.9553991185
 30
0.0
 11
1.7492963684
 21
5.9553991185
 31
0.0
  0
LINE
  5
48D
330
480
100
AcDbEntity
  8
DETAIL
 62
     5
100
AcDbLine
 10
1.8742963684
 20
6.9233991185
 30
0.0
 11
1.8742963684
 21
6.5643026756
 31
0.0
  0
LINE
  5
48E
330
480
100
AcDbEntity
  8
DETAIL
 62
     5
100
AcDbLine
 10
1.8742963684
 20
5.9553991185
 30
0.0
 11
1.8742963684
 21
6.3144955614
 31
0.0
  0
MTEXT
  5
48F
330
480
100
AcDbEntity
  8
DETAIL
 62
     5
100
AcDbMText
 10
1.6508202918
 20
6.5495973523
 30
-0.8978208481
 40
0.0729166667
 41
0.0
 71
     1
 72
     1
  1

  7
SLDTEXTSTYLE0
 73
     1
 44
1.0
  0
MTEXT
  5
490
330
480
100
AcDbEntity
  8
DETAIL
 62
     5
100
AcDbMText
 10
1.7365648878
 20
6.5495973432
 30
-0.8978208481
 40
0.0729166667
 41
0.0
 71
     1
 72
     1
  1
.97in
  7
SLDTEXTSTYLE0
 73
     1
 44
1.0
  0
MTEXT
  5
491
330
480
100
AcDbEntity
  8
DETAIL
 62
     5
100
AcDbMText
 10
1.6987562529
 20
6.4246937952
 30
-0.8978208481
 40
0.0729166667
 41
0.0
 71
     1
 72
     1
  1
24.6mm
  7
SLDTEXTSTYLE0
 73
     1
 44
1.0
  0
MTEXT
  5
492
330
480
100
AcDbEntity
  8
DETAIL
 62
     5
100
AcDbMText
 10
2.153135099
 20
6.5495973523
 30
-0.8978208481
 40
0.0729166667
 41
0.0
 71
     1
 72
     1
  1

  7
SLDTEXTSTYLE0
 73
     1
 44
1.0
  0
ENDBLK
  5
482
330
480
100
AcDbEntity
  8
0
100
AcDbBlockEnd
  0
BLOCK
  5
495
330
494
100
AcDbEntity
  8
0
100
AcDbBlockBegin
  2
_D_4
 70
     0
 10
0.0
 20
0.0
 30
0.0
  3
_D_4
  1

  0
SOLID
  5
497
330
494
100
AcDbEntity
  8
DETAIL
 62
     5
100
AcDbTrace
 10
1.2621479712
 20
6.9233962091
 30
0.0
 11
1.2421481235
 21
6.8293961767
 31
0.0
 12
1.2821481235
 22
6.8293962414
 32
0.0
 13
1.2821481235
 23
6.8293962414
 33
0.0
  0
SOLID
  5
498
330
494
100
AcDbEntity
  8
DETAIL
 62
     5
100
AcDbTrace
 10
1.2621496897
 20
5.8623962091
 30
0.0
 11
1.2821495375
 21
5.9563962414
 31
0.0
 12
1.2421495375
 22
5.9563961767
 32
0.0
 13
1.2421495375
 23
5.9563961767
 33
0.0
  0
LINE
  5
499
330
494
100
AcDbEntity
  8
DETAIL
 62
     5
100
AcDbLine
 10
1.0663540829
 20
6.3928962091
 30
0.0
 11
1.0501503787
 21
6.3928962091
 31
0.0
  0
LINE
  5
49A
330
494
100
AcDbEntity
  8
DETAIL
 62
     5
100
AcDbLine
 10
1.0501503787
 20
6.3928962091
 30
0.0
 11
1.0501503787
 21
6.2841963631
 31
0.0
  0
LINE
  5
49B
330
494
100
AcDbEntity
  8
DETAIL
 62
     5
100
AcDbLine
 10
1.0501503787
 20
6.2841963631
 30
0.0
 11
1.0663540829
 21
6.2841963631
 31
0.0
  0
LINE
  5
49C
330
494
100
AcDbEntity
  8
DETAIL
 62
     5
100
AcDbLine
 10
1.457943578
 20
6.3928962091
 30
0.0
 11
1.4741472823
 21
6.3928962091
 31
0.0
  0
LINE
  5
49D
330
494
100
AcDbEntity
  8
DETAIL
 62
     5
100
AcDbLine
 10
1.4741472823
 20
6.3928962091
 30
0.0
 11
1.4741472823
 21
6.2841963631
 31
0.0
  0
LINE
  5
49E
330
494
100
AcDbEntity
  8
DETAIL
 62
     5
100
AcDbLine
 10
1.4741472823
 20
6.2841963631
 30
0.0
 11
1.457943578
 21
6.2841963631
 31
0.0
  0
LINE
  5
49F
330
494
100
AcDbEntity
  8
DETAIL
 62
     5
100
AcDbLine
 10
2.9984723729
 20
6.9233990213
 30
0.0
 11
1.1371479712
 21
6.9233960066
 31
0.0
  0
LINE
  5
4A0
330
494
100
AcDbEntity
  8
DETAIL
 62
     5
100
AcDbLine
 10
2.9984723729
 20
5.8623990213
 30
0.0
 11
1.1371496897
 21
5.8623960066
 31
0.0
  0
LINE
  5
4A1
330
494
100
AcDbEntity
  8
DETAIL
 62
     5
100
AcDbLine
 10
1.2621479712
 20
6.9233962091
 30
0.0
 11
1.2621486282
 21
6.5177997662
 31
0.0
  0
LINE
  5
4A2
330
494
100
AcDbEntity
  8
DETAIL
 62
     5
100
AcDbLine
 10
1.2621496897
 20
5.8623962091
 30
0.0
 11
1.2621490328
 21
6.267992652
 31
0.0
  0
MTEXT
  5
4A3
330
494
100
AcDbEntity
  8
DETAIL
 62
     5
100
AcDbMText
 10
1.0386727538
 20
6.5030944429
 30
-0.8978208481
 40
0.0729166667
 41
0.0
 71
     1
 72
     1
  1

  7
SLDTEXTSTYLE0
 73
     1
 44
1.0
  0
MTEXT
  5
4A4
330
494
100
AcDbEntity
  8
DETAIL
 62
     5
100
AcDbMText
 10
1.0974111769
 20
6.5030944337
 30
-0.8978208481
 40
0.0729166667
 41
0.0
 71
     1
 72
     1
  1
1.06in
  7
SLDTEXTSTYLE0
 73
     1
 44
1.0
  0
MTEXT
  5
4A5
330
494
100
AcDbEntity
  8
DETAIL
 62
     5
100
AcDbMText
 10
1.086608715
 20
6.3781908858
 30
-0.8978208481
 40
0.0729166667
 41
0.0
 71
     1
 72
     1
  1
26.9mm
  7
SLDTEXTSTYLE0
 73
     1
 44
1.0
  0
MTEXT
  5
4A6
330
494
100
AcDbEntity
  8
DETAIL
 62
     5
100
AcDbMText
 10
1.5409875611
 20
6.5030944429
 30
-0.8978208481
 40
0.0729166667
 41
0.0
 71
     1
 72
     1
  1

  7
SLDTEXTSTYLE0
 73
     1
 44
1.0
  0
ENDBLK
  5
496
330
494
100
AcDbEntity
  8
0
100
AcDbBlockEnd
  0
BLOCK
  5
4A9
330
4A8
100
AcDbEntity
  8
0
100
AcDbBlockBegin
  2
_D_5
 70
     0
 10
0.0
 20
0.0
 30
0.0
  3
_D_5
  1

  0
SOLID
  5
4AB
330
4A8
100
AcDbEntity
  8
DETAIL
 62
     5
100
AcDbTrace
 10
6.027453477
 20
7.1874612261
 30
0.0
 11
5.933453477
 21
7.2074612261
 31
0.0
 12
5.933453477
 22
7.1674612261
 32
0.0
 13
5.933453477
 23
7.1674612261
 33
0.0
  0
SOLID
  5
4AC
330
4A8
100
AcDbEntity
  8
DETAIL
 62
     5
100
AcDbTrace
 10
4.527453477
 20
7.1874612261
 30
0.0
 11
4.621453477
 21
7.1674612261
 31
0.0
 12
4.621453477
 22
7.2074612261
 32
0.0
 13
4.621453477
 23
7.2074612261
 33
0.0
  0
LINE
  5
4AD
330
4A8
100
AcDbEntity
  8
DETAIL
 62
     5
100
AcDbLine
 10
5.0816587294
 20
7.1874612261
 30
0.0
 11
5.0654550252
 21
7.1874612261
 31
0.0
  0
LINE
  5
4AE
330
4A8
100
AcDbEntity
  8
DETAIL
 62
     5
100
AcDbLine
 10
5.0654550252
 20
7.1874612261
 30
0.0
 11
5.0654550252
 21
7.0787613802
 31
0.0
  0
LINE
  5
4AF
330
4A8
100
AcDbEntity
  8
DETAIL
 62
     5
100
AcDbLine
 10
5.0654550252
 20
7.0787613802
 30
0.0
 11
5.0816587294
 21
7.0787613802
 31
0.0
  0
LINE
  5
4B0
330
4A8
100
AcDbEntity
  8
DETAIL
 62
     5
100
AcDbLine
 10
5.4732482245
 20
7.1874612261
 30
0.0
 11
5.4894519288
 21
7.1874612261
 31
0.0
  0
LINE
  5
4B1
330
4A8
100
AcDbEntity
  8
DETAIL
 62
     5
100
AcDbLine
 10
5.4894519288
 20
7.1874612261
 30
0.0
 11
5.4894519288
 21
7.0787613802
 31
0.0
  0
LINE
  5
4B2
330
4A8
100
AcDbEntity
  8
DETAIL
 62
     5
100
AcDbLine
 10
5.4894519288
 20
7.0787613802
 30
0.0
 11
5.4732482245
 21
7.0787613802
 31
0.0
  0
LINE
  5
4B3
330
4A8
100
AcDbEntity
  8
DETAIL
 62
     5
100
AcDbLine
 10
6.027453477
 20
6.9523991185
 30
0.0
 11
6.027453477
 21
7.3124612261
 31
0.0
  0
LINE
  5
4B4
330
4A8
100
AcDbEntity
  8
DETAIL
 62
     5
100
AcDbLine
 10
4.527453477
 20
6.9503991185
 30
0.0
 11
4.527453477
 21
7.3124612261
 31
0.0
  0
LINE
  5
4B5
330
4A8
100
AcDbEntity
  8
DETAIL
 62
     5
100
AcDbLine
 10
6.027453477
 20
7.1874612261
 30
0.0
 11
5.5718261623
 21
7.1874612261
 31
0.0
  0
LINE
  5
4B6
330
4A8
100
AcDbEntity
  8
DETAIL
 62
     5
100
AcDbLine
 10
4.527453477
 20
7.1874612261
 30
0.0
 11
4.9830807916
 21
7.1874612261
 31
0.0
  0
MTEXT
  5
4B7
330
4A8
100
AcDbEntity
  8
DETAIL
 62
     5
100
AcDbMText
 10
5.0539774004
 20
7.29765946
 30
-0.8978208481
 40
0.0729166667
 41
0.0
 71
     1
 72
     1
  1

  7
SLDTEXTSTYLE0
 73
     1
 44
1.0
  0
MTEXT
  5
4B8
330
4A8
100
AcDbEntity
  8
DETAIL
 62
     5
100
AcDbMText
 10
5.1127158234
 20
7.2976594508
 30
-0.8978208481
 40
0.0729166667
 41
0.0
 71
     1
 72
     1
  1
1.50in
  7
SLDTEXTSTYLE0
 73
     1
 44
1.0
  0
MTEXT
  5
4B9
330
4A8
100
AcDbEntity
  8
DETAIL
 62
     5
100
AcDbMText
 10
5.1019133615
 20
7.1727559028
 30
-0.8978208481
 40
0.0729166667
 41
0.0
 71
     1
 72
     1
  1
38.1mm
  7
SLDTEXTSTYLE0
 73
     1
 44
1.0
  0
MTEXT
  5
4BA
330
4A8
100
AcDbEntity
  8
DETAIL
 62
     5
100
AcDbMText
 10
5.5562922076
 20
7.29765946
 30
-0.8978208481
 40
0.0729166667
 41
0.0
 71
     1
 72
     1
  1

  7
SLDTEXTSTYLE0
 73
     1
 44
1.0
  0
ENDBLK
  5
4AA
330
4A8
100
AcDbEntity
  8
0
100
AcDbBlockEnd
  0
BLOCK
  5
4BD
330
4BC
100
AcDbEntity
  8
0
100
AcDbBlockBegin
  2
_D_6
 70
     0
 10
0.0
 20
0.0
 30
0.0
  3
_D_6
  1

  0
SOLID
  5
4BF
330
4BC
100
AcDbEntity
  8
DETAIL
 62
     5
100
AcDbTrace
 10
2.4432526896
 20
6.9233991185
 30
0.0
 11
2.4232526896
 21
6.8293991185
 31
0.0
 12
2.4632526896
 22
6.8293991185
 32
0.0
 13
2.4632526896
 23
6.8293991185
 33
0.0
  0
SOLID
  5
4C0
330
4BC
100
AcDbEntity
  8
DETAIL
 62
     5
100
AcDbTrace
 10
2.4432526896
 20
6.7213991185
 30
0.0
 11
2.4632526896
 21
6.8153991185
 31
0.0
 12
2.4232526896
 22
6.8153991185
 32
0.0
 13
2.4232526896
 23
6.8153991185
 33
0.0
  0
LINE
  5
4C1
330
4BC
100
AcDbEntity
  8
DETAIL
 62
     5
100
AcDbLine
 10
1.9151779414
 20
7.1874612261
 30
0.0
 11
1.8989742371
 21
7.1874612261
 31
0.0
  0
LINE
  5
4C2
330
4BC
100
AcDbEntity
  8
DETAIL
 62
     5
100
AcDbLine
 10
1.8989742371
 20
7.1874612261
 30
0.0
 11
1.8989742371
 21
7.0787613802
 31
0.0
  0
LINE
  5
4C3
330
4BC
100
AcDbEntity
  8
DETAIL
 62
     5
100
AcDbLine
 10
1.8989742371
 20
7.0787613802
 30
0.0
 11
1.9151779414
 21
7.0787613802
 31
0.0
  0
LINE
  5
4C4
330
4BC
100
AcDbEntity
  8
DETAIL
 62
     5
100
AcDbLine
 10
2.2527551087
 20
7.1874612261
 30
0.0
 11
2.268958813
 21
7.1874612261
 31
0.0
  0
LINE
  5
4C5
330
4BC
100
AcDbEntity
  8
DETAIL
 62
     5
100
AcDbLine
 10
2.268958813
 20
7.1874612261
 30
0.0
 11
2.268958813
 21
7.0787613802
 31
0.0
  0
LINE
  5
4C6
330
4BC
100
AcDbEntity
  8
DETAIL
 62
     5
100
AcDbLine
 10
2.268958813
 20
7.0787613802
 30
0.0
 11
2.2527551087
 21
7.0787613802
 31
0.0
  0
LINE
  5
4C7
330
4BC
100
AcDbEntity
  8
DETAIL
 62
     5
100
AcDbLine
 10
3.5425859328
 20
6.9233991185
 30
0.0
 11
2.3182526896
 21
6.9233991185
 31
0.0
  0
LINE
  5
4C8
330
4BC
100
AcDbEntity
  8
DETAIL
 62
     5
100
AcDbLine
 10
4.298453477
 20
6.7213991185
 30
0.0
 11
2.3182526896
 21
6.7213991185
 31
0.0
  0
LINE
  5
4C9
330
4BC
100
AcDbEntity
  8
DETAIL
 62
     5
100
AcDbLine
 10
2.383751209
 20
7.1874612261
 30
0.0
 11
2.4432526896
 21
7.1874612261
 31
0.0
  0
LINE
  5
4CA
330
4BC
100
AcDbEntity
  8
DETAIL
 62
     5
100
AcDbLine
 10
2.4432526896
 20
7.1874612261
 30
0.0
 11
2.4432526896
 21
6.9233991185
 31
0.0
  0
LINE
  5
4CB
330
4BC
100
AcDbEntity
  8
DETAIL
 62
     5
100
AcDbLine
 10
2.4432526896
 20
6.9233991185
 30
0.0
 11
2.4432526896
 21
6.7213991185
 31
0.0
  0
MTEXT
  5
4CC
330
4BC
100
AcDbEntity
  8
DETAIL
 62
     5
100
AcDbMText
 10
1.8874966123
 20
7.29765946
 30
-0.8978208481
 40
0.0729166667
 41
0.0
 71
     1
 72
     1
  1

  7
SLDTEXTSTYLE0
 73
     1
 44
1.0
  0
MTEXT
  5
4CD
330
4BC
100
AcDbEntity
  8
DETAIL
 62
     5
100
AcDbMText
 10
1.9462350353
 20
7.2976594508
 30
-0.8978208481
 40
0.0729166667
 41
0.0
 71
     1
 72
     1
  1
.20in
  7
SLDTEXTSTYLE0
 73
     1
 44
1.0
  0
MTEXT
  5
4CE
330
4BC
100
AcDbEntity
  8
DETAIL
 62
     5
100
AcDbMText
 10
1.9354325734
 20
7.1727559028
 30
-0.8978208481
 40
0.0729166667
 41
0.0
 71
     1
 72
     1
  1
5.1mm
  7
SLDTEXTSTYLE0
 73
     1
 44
1.0
  0
MTEXT
  5
4CF
330
4BC
100
AcDbEntity
  8
DETAIL
 62
     5
100
AcDbMText
 10
2.3357990735
 20
7.29765946
 30
-0.8978208481
 40
0.0729166667
 41
0.0
 71
     1
 72
     1
  1

  7
SLDTEXTSTYLE0
 73
     1
 44
1.0
  0
ENDBLK
  5
4BE
330
4BC
100
AcDbEntity
  8
0
100
AcDbBlockEnd
  0
BLOCK
  5
4D2
330
4D1
100
AcDbEntity
  8
0
100
AcDbBlockBegin
  2
_D_7
 70
     0
 10
0.0
 20
0.0
 30
0.0
  3
_D_7
  1

  0
SOLID
  5
4D4
330
4D1
100
AcDbEntity
  8
DETAIL
 62
     5
100
AcDbTrace
 10
2.4432526896
 20
6.7213991185
 30
0.0
 11
2.4232526896
 21
6.6273991185
 31
0.0
 12
2.4632526896
 22
6.6273991185
 32
0.0
 13
2.4632526896
 23
6.6273991185
 33
0.0
  0
SOLID
  5
4D5
330
4D1
100
AcDbEntity
  8
DETAIL
 62
     5
100
AcDbTrace
 10
2.4432526896
 20
6.1573991185
 30
0.0
 11
2.4632526896
 21
6.2513991185
 31
0.0
 12
2.4232526896
 22
6.2513991185
 32
0.0
 13
2.4232526896
 23
6.2513991185
 33
0.0
  0
LINE
  5
4D6
330
4D1
100
AcDbEntity
  8
DETAIL
 62
     5
100
AcDbLine
 10
2.247457942
 20
6.4393991185
 30
0.0
 11
2.2312542378
 21
6.4393991185
 31
0.0
  0
LINE
  5
4D7
330
4D1
100
AcDbEntity
  8
DETAIL
 62
     5
100
AcDbLine
 10
2.2312542378
 20
6.4393991185
 30
0.0
 11
2.2312542378
 21
6.3306992726
 31
0.0
  0
LINE
  5
4D8
330
4D1
100
AcDbEntity
  8
DETAIL
 62
     5
100
AcDbLine
 10
2.2312542378
 20
6.3306992726
 30
0.0
 11
2.247457942
 21
6.3306992726
 31
0.0
  0
LINE
  5
4D9
330
4D1
100
AcDbEntity
  8
DETAIL
 62
     5
100
AcDbLine
 10
2.6390474371
 20
6.4393991185
 30
0.0
 11
2.6552511414
 21
6.4393991185
 31
0.0
  0
LINE
  5
4DA
330
4D1
100
AcDbEntity
  8
DETAIL
 62
     5
100
AcDbLine
 10
2.6552511414
 20
6.4393991185
 30
0.0
 11
2.6552511414
 21
6.3306992726
 31
0.0
  0
LINE
  5
4DB
330
4D1
100
AcDbEntity
  8
DETAIL
 62
     5
100
AcDbLine
 10
2.6552511414
 20
6.3306992726
 30
0.0
 11
2.6390474371
 21
6.3306992726
 31
0.0
  0
LINE
  5
4DC
330
4D1
100
AcDbEntity
  8
DETAIL
 62
     5
100
AcDbLine
 10
4.298453477
 20
6.7213991185
 30
0.0
 11
2.3182526896
 21
6.7213991185
 31
0.0
  0
LINE
  5
4DD
330
4D1
100
AcDbEntity
  8
DETAIL
 62
     5
100
AcDbLine
 10
4.467453477
 20
6.1573991185
 30
0.0
 11
2.3182526896
 21
6.1573991185
 31
0.0
  0
LINE
  5
4DE
330
4D1
100
AcDbEntity
  8
DETAIL
 62
     5
100
AcDbLine
 10
2.4432526896
 20
6.7213991185
 30
0.0
 11
2.4432526896
 21
6.5643026756
 31
0.0
  0
LINE
  5
4DF
330
4D1
100
AcDbEntity
  8
DETAIL
 62
     5
100
AcDbLine
 10
2.4432526896
 20
6.1573991185
 30
0.0
 11
2.4432526896
 21
6.3144955614
 31
0.0
  0
MTEXT
  5
4E0
330
4D1
100
AcDbEntity
  8
DETAIL
 62
     5
100
AcDbMText
 10
2.219776613
 20
6.5495973523
 30
-0.8978208481
 40
0.0729166667
 41
0.0
 71
     1
 72
     1
  1

  7
SLDTEXTSTYLE0
 73
     1
 44
1.0
  0
MTEXT
  5
4E1
330
4D1
100
AcDbEntity
  8
DETAIL
 62
     5
100
AcDbMText
 10
2.305521209
 20
6.5495973432
 30
-0.8978208481
 40
0.0729166667
 41
0.0
 71
     1
 72
     1
  1
.56in
  7
SLDTEXTSTYLE0
 73
     1
 44
1.0
  0
MTEXT
  5
4E2
330
4D1
100
AcDbEntity
  8
DETAIL
 62
     5
100
AcDbMText
 10
2.2677125741
 20
6.4246937952
 30
-0.8978208481
 40
0.0729166667
 41
0.0
 71
     1
 72
     1
  1
14.3mm
  7
SLDTEXTSTYLE0
 73
     1
 44
1.0
  0
MTEXT
  5
4E3
330
4D1
100
AcDbEntity
  8
DETAIL
 62
     5
100
AcDbMText
 10
2.7220914202
 20
6.5495973523
 30
-0.8978208481
 40
0.0729166667
 41
0.0
 71
     1
 72
     1
  1

  7
SLDTEXTSTYLE0
 73
     1
 44
1.0
  0
ENDBLK
  5
4D3
330
4D1
100
AcDbEntity
  8
0
100
AcDbBlockEnd
  0
BLOCK
  5
4E7
330
4E6
100
AcDbEntity
  8
0
100
AcDbBlockBegin
  2
_D_8
 70
     0
 10
0.0
 20
0.0
 30
0.0
  3
_D_8
  1

  0
SOLID
  5
4E9
330
4E6
100
AcDbEntity
  8
DETAIL
 62
     5
100
AcDbTrace
 10
4.472953477
 20
6.8157958875
 30
0.0
 11
4.4432739851
 21
6.9072022755
 31
0.0
 12
4.4086329689
 22
6.8872022755
 32
0.0
 13
4.4086329689
 23
6.8872022755
 33
0.0
  0
LINE
  5
4EA
330
4E6
100
AcDbEntity
  8
DETAIL
 62
     5
100
AcDbLine
 10
3.6344591785
 20
7.4183624976
 30
0.0
 11
3.6182554742
 21
7.4183624976
 31
0.0
  0
LINE
  5
4EB
330
4E6
100
AcDbEntity
  8
DETAIL
 62
     5
100
AcDbLine
 10
3.6182554742
 20
7.4183624976
 30
0.0
 11
3.6182554742
 21
7.3096626517
 31
0.0
  0
LINE
  5
4EC
330
4E6
100
AcDbEntity
  8
DETAIL
 62
     5
100
AcDbLine
 10
3.6182554742
 20
7.3096626517
 30
0.0
 11
3.6344591785
 21
7.3096626517
 31
0.0
  0
LINE
  5
4ED
330
4E6
100
AcDbEntity
  8
DETAIL
 62
     5
100
AcDbLine
 10
3.9720363458
 20
7.4183624976
 30
0.0
 11
3.9882400501
 21
7.4183624976
 31
0.0
  0
LINE
  5
4EE
330
4E6
100
AcDbEntity
  8
DETAIL
 62
     5
100
AcDbLine
 10
3.9882400501
 20
7.4183624976
 30
0.0
 11
3.9882400501
 21
7.3096626517
 31
0.0
  0
LINE
  5
4EF
330
4E6
100
AcDbEntity
  8
DETAIL
 62
     5
100
AcDbLine
 10
3.9882400501
 20
7.3096626517
 30
0.0
 11
3.9720363458
 21
7.3096626517
 31
0.0
  0
LINE
  5
4F0
330
4E6
100
AcDbEntity
  8
DETAIL
 62
     5
100
AcDbLine
 10
4.472953477
 20
6.8157958875
 30
0.0
 11
4.1253928105
 21
7.4177886205
 31
0.0
  0
LINE
  5
4F1
330
4E6
100
AcDbEntity
  8
DETAIL
 62
     5
100
AcDbLine
 10
4.1253928105
 20
7.4177886205
 30
0.0
 11
4.0003928105
 21
7.4177886205
 31
0.0
  0
MTEXT
  5
4F2
330
4E6
100
AcDbEntity
  8
DETAIL
 62
     5
100
AcDbMText
 10
3.6304082346
 20
7.5285607223
 30
-0.8978208481
 40
0.0729166667
 41
0.0
 71
     1
 72
     1
  1
R.11in
  7
SLDTEXTSTYLE0
 73
     1
 44
1.0
  0
MTEXT
  5
4F3
330
4E6
100
AcDbEntity
  8
DETAIL
 62
     5
100
AcDbMText
 10
3.6547138105
 20
7.4036571744
 30
-0.8978208481
 40
0.0729166667
 41
0.0
 71
     1
 72
     1
  1
2.8mm
  7
SLDTEXTSTYLE0
 73
     1
 44
1.0
  0
ENDBLK
  5
4E8
330
4E6
100
AcDbEntity
  8
0
100
AcDbBlockEnd
  0
BLOCK
  5
4F5
330
4F4
100
AcDbEntity
  8
0
100
AcDbBlockBegin
  2
SW_CENTERMARKSYMBOL_0
 70
     0
 10
0.0
 20
0.0
 30
0.0
  3
SW_CENTERMARKSYMBOL_0
  1

  0
LINE
  5
4F7
330
4F4
100
AcDbEntity
  8
DETAIL
 62
     0
100
AcDbLine
 10
0.0
 20
0.0
 30
0.0
 11
0.0
 21
0.06
 31
0.0
  0
LINE
  5
4F8
330
4F4
100
AcDbEntity
  8
DETAIL
 62
     0
100
AcDbLine
 10
0.0
 20
0.0
 30
0.0
 11
-0.06
 21
0.0
 31
0.0
  0
LINE
  5
4F9
330
4F4
100
AcDbEntity
  8
DETAIL
 62
     0
100
AcDbLine
 10
0.0
 20
0.0
 30
0.0
 11
0.0
 21
-0.06
 31
0.0
  0
LINE
  5
4FA
330
4F4
100
AcDbEntity
  8
DETAIL
 62
     0
100
AcDbLine
 10
0.0
 20
0.0
 30
0.0
 11
0.06
 21
0.0
 31
0.0
  0
LINE
  5
4FB
330
4F4
100
AcDbEntity
  8
DETAIL
 62
     0
100
AcDbLine
 10
0.0
 20
0.12
 30
0.0
 11
0.0
 21
0.169
 31
0.0
  0
LINE
  5
4FC
330
4F4
100
AcDbEntity
  8
DETAIL
 62
     0
100
AcDbLine
 10
-0.12
 20
0.0
 30
0.0
 11
-0.169
 21
0.0
 31
0.0
  0
LINE
  5
4FD
330
4F4
100
AcDbEntity
  8
DETAIL
 62
     0
100
AcDbLine
 10
0.0
 20
-0.12
 30
0.0
 11
0.0
 21
-0.169
 31
0.0
  0
LINE
  5
4FE
330
4F4
100
AcDbEntity
  8
DETAIL
 62
     0
100
AcDbLine
 10
0.12
 20
0.0
 30
0.0
 11
0.169
 21
0.0
 31
0.0
  0
ENDBLK
  5
4F6
330
4F4
100
AcDbEntity
  8
0
100
AcDbBlockEnd
  0
BLOCK
  5
501
330
500
100
AcDbEntity
  8
0
100
AcDbBlockBegin
  2
SW_CENTERMARKSYMBOL_1
 70
     0
 10
0.0
 20
0.0
 30
0.0
  3
SW_CENTERMARKSYMBOL_1
  1

  0
LINE
  5
503
330
500
100
AcDbEntity
  8
DETAIL
 62
     0
100
AcDbLine
 10
0.0
 20
0.0
 30
0.0
 11
0.0
 21
0.06
 31
0.0
  0
LINE
  5
504
330
500
100
AcDbEntity
  8
DETAIL
 62
     0
100
AcDbLine
 10
0.0
 20
0.0
 30
0.0
 11
-0.06
 21
0.0
 31
0.0
  0
LINE
  5
505
330
500
100
AcDbEntity
  8
DETAIL
 62
     0
100
AcDbLine
 10
0.0
 20
0.0
 30
0.0
 11
0.0
 21
-0.06
 31
0.0
  0
LINE
  5
506
330
500
100
AcDbEntity
  8
DETAIL
 62
     0
100
AcDbLine
 10
0.0
 20
0.0
 30
0.0
 11
0.06
 21
0.0
 31
0.0
  0
LINE
  5
507
330
500
100
AcDbEntity
  8
DETAIL
 62
     0
100
AcDbLine
 10
0.0
 20
0.12
 30
0.0
 11
0.0
 21
0.169
 31
0.0
  0
LINE
  5
508
330
500
100
AcDbEntity
  8
DETAIL
 62
     0
100
AcDbLine
 10
-0.12
 20
0.0
 30
0.0
 11
-0.169
 21
0.0
 31
0.0
  0
LINE
  5
509
330
500
100
AcDbEntity
  8
DETAIL
 62
     0
100
AcDbLine
 10
0.0
 20
-0.12
 30
0.0
 11
0.0
 21
-0.169
 31
0.0
  0
LINE
  5
50A
330
500
100
AcDbEntity
  8
DETAIL
 62
     0
100
AcDbLine
 10
0.12
 20
0.0
 30
0.0
 11
0.169
 21
0.0
 31
0.0
  0
ENDBLK
  5
502
330
500
100
AcDbEntity
  8
0
100
AcDbBlockEnd
  0
ENDSEC
  0
SECTION
  2
ENTITIES
  0
LINE
  5
C9
330
1F
100
AcDbEntity
  8
0
  6
Continuous
 62
     7
370
    40
100
AcDbLine
 10
0.329927
 20
8.1295731707
 30
0.0
 11
10.629927
 21
8.1295731707
 31
0.0
  0
LINE
  5
CA
330
1F
100
AcDbEntity
  8
0
  6
Continuous
 62
     7
370
    40
100
AcDbLine
 10
0.329927
 20
8.1295731707
 30
0.0
 11
0.329927
 21
0.3295731707
 31
0.0
  0
LINE
  5
CB
330
1F
100
AcDbEntity
  8
0
  6
Continuous
 62
     7
370
    40
100
AcDbLine
 10
10.629927
 20
0.3295731707
 30
0.0
 11
0.329927
 21
0.3295731707
 31
0.0
  0
LINE
  5
CC
330
1F
100
AcDbEntity
  8
0
  6
Continuous
 62
     7
370
    40
100
AcDbLine
 10
10.629927
 20
0.3295731707
 30
0.0
 11
10.629927
 21
8.1295731707
 31
0.0
  0
LINE
  5
CD
330
1F
100
AcDbEntity
  8
0
  6
Continuous
 62
     7
370
    30
100
AcDbLine
 10
3.879927
 20
1.0338942145
 30
0.0
 11
0.379927
 21
1.0338942145
 31
0.0
  0
LINE
  5
CE
330
1F
100
AcDbEntity
  8
0
  6
Continuous
 62
     7
370
    30
100
AcDbLine
 10
2.129927
 20
0.3795731707
 30
0.0
 11
2.129927
 21
1.0338942145
 31
0.0
  0
LINE
  5
CF
330
1F
100
AcDbEntity
  8
0
  6
Continuous
 62
     7
370
    30
100
AcDbLine
 10
8.229929
 20
0.3795731707
 30
0.0
 11
8.229929
 21
1.4538942145
 31
0.0
  0
LINE
  5
D0
330
1F
100
AcDbEntity
  8
0
  6
Continuous
 62
     7
370
    30
100
AcDbLine
 10
8.229929
 20
1.0338942145
 30
0.0
 11
10.579927
 21
1.0338942145
 31
0.0
  0
LINE
  5
D1
330
1F
100
AcDbEntity
  8
0
  6
Continuous
 62
     7
370
    30
100
AcDbLine
 10
10.579927
 20
1.4538942145
 30
0.0
 11
0.379927
 21
1.4538942145
 31
0.0
  0
LINE
  5
D2
330
1F
100
AcDbEntity
  8
0
  6
Continuous
 62
     7
370
    30
100
AcDbLine
 10
3.879927
 20
0.3795731707
 30
0.0
 11
3.879927
 21
1.4538942145
 31
0.0
  0
LINE
  5
D3
330
1F
100
AcDbEntity
  8
0
  6
Continuous
 62
     7
370
    40
100
AcDbLine
 10
10.579927
 20
0.3795731707
 30
0.0
 11
10.579927
 21
8.0795731707
 31
0.0
  0
LINE
  5
D4
330
1F
100
AcDbEntity
  8
0
  6
Continuous
 62
     7
370
    40
100
AcDbLine
 10
0.379927
 20
8.0795731707
 30
0.0
 11
10.579927
 21
8.0795731707
 31
0.0
  0
LINE
  5
D5
330
1F
100
AcDbEntity
  8
0
  6
Continuous
 62
     7
370
    40
100
AcDbLine
 10
0.379927
 20
8.0795731707
 30
0.0
 11
0.379927
 21
0.3795731707
 31
0.0
  0
LINE
  5
D6
330
1F
100
AcDbEntity
  8
0
  6
Continuous
 62
     7
370
    40
100
AcDbLine
 10
10.579927
 20
0.3795731707
 30
0.0
 11
0.379927
 21
0.3795731707
 31
0.0
  0
INSERT
  5
D7
330
1F
100
AcDbEntity
  8
DATA
100
AcDbBlockReference
  2
mm DIM NOTE
 10
8.229929
 20
1.4538942145
 30
0.0
  0
INSERT
  5
D8
330
1F
100
AcDbEntity
  8
DATA
100
AcDbBlockReference
  2
Mersen-Logo
 10
1.8248816143
 20
1.311322601
 30
0.0
  0
MTEXT
  5
DA
330
1F
100
AcDbEntity
  8
0
  6
Continuous
 62
     7
370
     0
100
AcDbMText
 10
8.9846987881
 20
8.2496857838
 30
0.0
 40
0.09375
 41
0.0
 71
     1
 72
     1
  1
CONTROL No:____________
  7
SLDTEXTSTYLE1
 73
     1
 44
1.0
  0
MTEXT
  5
DB
330
1F
100
AcDbEntity
  8
0
  6
Continuous
 62
     7
370
     0
100
AcDbMText
 10
10.2392243736
 20
8.2697418634
 30
0.0
 40
0.09375
 41
0.0
 71
     2
 72
     1
  1
1618
  7
SLDTEXTSTYLE0
 73
     1
 44
1.0
  0
INSERT
  5
E3
330
1F
100
AcDbEntity
  8
0
  6
Continuous
 62
     7
370
     0
100
AcDbBlockReference
  2
SW_NOTE_0
 10
5.6296528933
 20
1.2029494176
 30
0.0
  0
MTEXT
  5
E4
330
1F
100
AcDbEntity
  8
0
  6
Continuous
 62
     7
370
     0
100
AcDbMText
 10
2.5317795679
 20
0.5349078544
 30
0.0
 40
0.09375
 41
0.0
 71
     1
 72
     1
  1
(SEE ECO)
  7
SLDTEXTSTYLE0
 73
     1
 44
1.0
  0
INSERT
  5
EB
330
1F
100
AcDbEntity
  8
0
  6
Continuous
 62
     7
370
     0
100
AcDbBlockReference
  2
SW_NOTE_1
 10
8.9113312396
 20
1.240466439
 30
0.0
  0
INSERT
  5
F2
330
1F
100
AcDbEntity
  8
0
  6
Continuous
 62
     7
370
     0
100
AcDbBlockReference
  2
SW_NOTE_2
 10
2.1941247569
 20
0.651699477
 30
0.0
  0
MTEXT
  5
F4
330
1F
100
AcDbEntity
  8
0
  6
Continuous
 62
     7
370
     0
100
AcDbMText
 10
2.6857290402
 20
0.9552904186
 30
0.0
 40
0.09375
 41
0.0
 71
     1
 72
     1
  1
\LDESIGN ENGINEER
  7
SLDTEXTSTYLE5
 73
     1
 44
1.0
  0
MTEXT
  5
F5
330
1F
100
AcDbEntity
  8
0
  6
Continuous
 62
     7
370
     0
100
AcDbMText
 10
0.8245927509
 20
0.9517335566
 30
0.0
 40
0.09375
 41
0.0
 71
     1
 72
     1
  1
\LPRODUCT MANAGER
  7
SLDTEXTSTYLE5
 73
     1
 44
1.0
  0
INSERT
  5
FB
330
1F
100
AcDbEntity
  8
0
  6
Continuous
 62
     7
370
     0
100
AcDbBlockReference
  2
SW_NOTE_3
 10
0.434288295
 20
0.6500118561
 30
0.0
  0
INSERT
  5
103
330
1F
100
AcDbEntity
  8
0
  6
Continuous
 62
     7
370
     0
100
AcDbBlockReference
  2
SW_NOTE_4
 10
2.2935611234
 20
1.2753122985
 30
0.0
  0
MTEXT
  5
105
330
1F
100
AcDbEntity
  8
0
  6
Continuous
 62
     7
370
     0
100
AcDbMText
 10
9.7571632131
 20
0.5040024688
 30
0.0
 40
0.0729166667
 41
0.0
 71
     1
 72
     1
  1
SHEET 1   OF 1
  7
SLDTEXTSTYLE7
 73
     1
 44
1.0
  0
MTEXT
  5
106
330
1F
100
AcDbEntity
  8
0
  6
Continuous
 62
     7
370
     0
100
AcDbMText
 10
9.5227437222
 20
0.9116673761
 30
0.0
 40
0.25
 41
0.0
 71
     2
 72
     1
  1
700834
  7
SLDTEXTSTYLE0
 73
     1
 44
1.0
  0
INSERT
  5
129
330
1F
100
AcDbEntity
  8
0
  6
Continuous
 62
     7
370
     0
100
AcDbBlockReference
  2
SW_TABLEANNOTATION_0
 10
6.5700401518
 20
8.0795731707
 30
0.0
  0
INSERT
  5
150
330
1F
100
AcDbEntity
  8
DETAIL
100
AcDbBlockReference
  2
SW_TABLEANNOTATION_1
 10
0.379927
 20
2.0538942145
 30
0.0
  0
LINE
  5
151
330
1F
100
AcDbEntity
  8
0
  6
Continuous
 62
     7
370
    15
100
AcDbLine
 10
2.9169534283
 20
3.4576837686
 30
0.0
 11
2.9169534283
 21
3.9976837005
 31
0.0
  0
LINE
  5
152
330
1F
100
AcDbEntity
  8
0
  6
Continuous
 62
     7
370
    15
100
AcDbLine
 10
2.9169534283
 20
3.4276837785
 30
0.0
 11
2.9169534283
 21
3.4576837686
 31
0.0
  0
LINE
  5
153
330
1F
100
AcDbEntity
  8
0
  6
Continuous
 62
     7
370
    15
100
AcDbLine
 10
3.0459615513
 20
3.4276837785
 30
0.0
 11
2.9169534283
 21
3.4276837785
 31
0.0
  0
LINE
  5
154
330
1F
100
AcDbEntity
  8
0
  6
Continuous
 62
     7
370
    15
100
AcDbLine
 10
2.9169534283
 20
3.9976837005
 30
0.0
 11
2.9169534283
 21
4.0276837273
 31
0.0
  0
LINE
  5
155
330
1F
100
AcDbEntity
  8
0
  6
Continuous
 62
     7
370
    15
100
AcDbLine
 10
3.086875652
 20
4.0276837273
 30
0.0
 11
2.9169534283
 21
4.0276837273
 31
0.0
  0
LINE
  5
156
330
1F
100
AcDbEntity
  8
0
  6
Continuous
 62
     7
370
    15
100
AcDbLine
 10
6.1379535257
 20
3.4576837686
 30
0.0
 11
6.1379535257
 21
3.9976837005
 31
0.0
  0
LINE
  5
157
330
1F
100
AcDbEntity
  8
0
  6
Continuous
 62
     7
370
    15
100
AcDbLine
 10
6.0089454027
 20
3.4276837785
 30
0.0
 11
6.1379535257
 21
3.4276837785
 31
0.0
  0
LINE
  5
158
330
1F
100
AcDbEntity
  8
0
  6
Continuous
 62
     7
370
    15
100
AcDbLine
 10
6.1379535257
 20
3.4276837785
 30
0.0
 11
6.1379535257
 21
3.4576837686
 31
0.0
  0
LINE
  5
159
330
1F
100
AcDbEntity
  8
0
  6
Continuous
 62
     7
370
    15
100
AcDbLine
 10
5.968031302
 20
4.0276837273
 30
0.0
 11
6.1379535257
 21
4.0276837273
 31
0.0
  0
LINE
  5
15A
330
1F
100
AcDbEntity
  8
0
  6
Continuous
 62
     7
370
    15
100
AcDbLine
 10
6.1379535257
 20
3.9976837005
 30
0.0
 11
6.1379535257
 21
4.0276837273
 31
0.0
  0
LINE
  5
15B
330
1F
100
AcDbEntity
  8
0
  6
Continuous
 62
     7
370
    15
100
AcDbLine
 10
6.2179535482
 20
3.5056838775
 30
0.0
 11
6.2179535482
 21
3.536683866
 31
0.0
  0
LINE
  5
15C
330
1F
100
AcDbEntity
  8
0
  6
Continuous
 62
     7
370
    15
100
AcDbLine
 10
6.1509534688
 20
3.5056838775
 30
0.0
 11
6.2179535482
 21
3.5056838775
 31
0.0
  0
LINE
  5
15D
330
1F
100
AcDbEntity
  8
0
  6
Continuous
 62
     7
370
    15
100
AcDbLine
 10
6.1509534688
 20
3.5056838775
 30
0.0
 11
6.1509534688
 21
3.536683866
 31
0.0
  0
LINE
  5
15E
330
1F
100
AcDbEntity
  8
0
  6
Continuous
 62
     7
370
    15
100
AcDbLine
 10
6.2179535482
 20
3.536683866
 30
0.0
 11
6.1509534688
 21
3.536683866
 31
0.0
  0
LINE
  5
15F
330
1F
100
AcDbEntity
  8
0
  6
Continuous
 62
     7
370
    15
100
AcDbLine
 10
6.1509534688
 20
3.536683866
 30
0.0
 11
6.1379535257
 21
3.536683866
 31
0.0
  0
LINE
  5
160
330
1F
100
AcDbEntity
  8
0
  6
Continuous
 62
     7
370
    15
100
AcDbLine
 10
6.1509534688
 20
3.5056838775
 30
0.0
 11
6.1379535257
 21
3.5056838775
 31
0.0
  0
LINE
  5
161
330
1F
100
AcDbEntity
  8
0
  6
Continuous
 62
     7
370
    15
100
AcDbLine
 10
2.9039534851
 20
3.5056838775
 30
0.0
 11
2.9039534851
 21
3.536683866
 31
0.0
  0
LINE
  5
162
330
1F
100
AcDbEntity
  8
0
  6
Continuous
 62
     7
370
    15
100
AcDbLine
 10
2.8369534058
 20
3.536683866
 30
0.0
 11
2.9039534851
 21
3.536683866
 31
0.0
  0
LINE
  5
163
330
1F
100
AcDbEntity
  8
0
  6
Continuous
 62
     7
370
    15
100
AcDbLine
 10
2.9039534851
 20
3.5056838775
 30
0.0
 11
2.8369534058
 21
3.5056838775
 31
0.0
  0
LINE
  5
164
330
1F
100
AcDbEntity
  8
0
  6
Continuous
 62
     7
370
    15
100
AcDbLine
 10
2.8369534058
 20
3.5056838775
 30
0.0
 11
2.8369534058
 21
3.536683866
 31
0.0
  0
LINE
  5
165
330
1F
100
AcDbEntity
  8
0
  6
Continuous
 62
     7
370
    15
100
AcDbLine
 10
2.9169534283
 20
3.536683866
 30
0.0
 11
2.9039534851
 21
3.536683866
 31
0.0
  0
LINE
  5
166
330
1F
100
AcDbEntity
  8
0
  6
Continuous
 62
     7
370
    15
100
AcDbLine
 10
2.9169534283
 20
3.5056838775
 30
0.0
 11
2.9039534851
 21
3.5056838775
 31
0.0
  0
LINE
  5
167
330
1F
100
AcDbEntity
  8
0
  6
Continuous
 62
     7
370
    15
100
AcDbLine
 10
4.919066223
 20
3.1156838594
 30
0.0
 11
4.9343898527
 21
3.5544952269
 31
0.0
  0
LINE
  5
168
330
1F
100
AcDbEntity
  8
0
  6
Continuous
 62
     7
370
    15
100
AcDbLine
 10
4.9500850947
 20
3.1156838594
 30
0.0
 11
4.1048218593
 21
3.1156838594
 31
0.0
  0
LINE
  5
169
330
1F
100
AcDbEntity
  8
0
  6
Continuous
 62
     7
370
    15
100
AcDbLine
 10
3.0584723668
 20
2.8976838678
 30
0.0
 11
5.9964345872
 21
2.8976838678
 31
0.0
  0
LINE
  5
16A
330
1F
100
AcDbEntity
  8
0
  6
Continuous
 62
     7
370
    15
100
AcDbLine
 10
4.1205171013
 20
3.5544952269
 30
0.0
 11
4.1358407309
 21
3.1156838594
 31
0.0
  0
LINE
  5
16B
330
1F
100
AcDbEntity
  8
0
  6
Continuous
 62
     7
370
    15
100
AcDbLine
 10
6.0045171472
 20
3.5544952269
 30
0.0
 11
6.0274534955
 21
2.8976838678
 31
0.0
  0
LINE
  5
16C
330
1F
100
AcDbEntity
  8
0
  6
Continuous
 62
     7
370
    15
100
AcDbLine
 10
6.0274534955
 20
2.8976838678
 30
0.0
 11
5.9964345872
 21
2.8976838678
 31
0.0
  0
LINE
  5
16D
330
1F
100
AcDbEntity
  8
0
  6
Continuous
 62
     7
370
    15
100
AcDbLine
 10
3.0274534584
 20
2.8976838678
 30
0.0
 11
3.0503898068
 21
3.5544952269
 31
0.0
  0
LINE
  5
16E
330
1F
100
AcDbEntity
  8
0
  6
Continuous
 62
     7
370
    15
100
AcDbLine
 10
3.0584723668
 20
2.8976838678
 30
0.0
 11
3.0274534584
 21
2.8976838678
 31
0.0
  0
LINE
  5
16F
330
1F
100
AcDbEntity
  8
0
  6
Continuous
 62
     7
370
    15
100
AcDbLine
 10
4.0986764869
 20
4.1799295219
 30
0.0
 11
4.1205171013
 21
3.5544952269
 31
0.0
  0
LINE
  5
170
330
1F
100
AcDbEntity
  8
0
  6
Continuous
 62
     7
370
    15
100
AcDbLine
 10
5.992180423
 20
3.9077711792
 30
0.0
 11
6.0045171472
 21
3.5544952269
 31
0.0
  0
LINE
  5
171
330
1F
100
AcDbEntity
  8
0
  6
Continuous
 62
     7
370
    15
100
AcDbLine
 10
3.0503898068
 20
3.5544952269
 30
0.0
 11
3.062726531
 21
3.9077711792
 31
0.0
  0
LINE
  5
172
330
1F
100
AcDbEntity
  8
0
  6
Continuous
 62
     7
370
    15
100
AcDbLine
 10
4.9343898527
 20
3.5544952269
 30
0.0
 11
4.956230467
 21
4.1799295219
 31
0.0
  0
ARC
  5
173
330
1F
100
AcDbEntity
  8
0
  6
Continuous
 62
     7
370
    15
100
AcDbCircle
 10
5.6174088907
 20
3.8946838678
 30
0.0
 40
0.3750000000000002
100
AcDbArc
 50
2.0
 51
90.0
  0
ARC
  5
174
330
1F
100
AcDbEntity
  8
0
  6
Continuous
 62
     7
370
    15
100
AcDbCircle
 10
3.4374980633
 20
3.8946838678
 30
0.0
 40
0.3750000000000002
100
AcDbArc
 50
90.0
 51
178.0
  0
ARC
  5
175
330
1F
100
AcDbEntity
  8
0
  6
Continuous
 62
     7
370
    15
100
AcDbCircle
 10
5.0491738288
 20
4.1766838678
 30
0.0
 40
0.093
100
AcDbArc
 50
90.0
 51
178.0
  0
ARC
  5
176
330
1F
100
AcDbEntity
  8
0
  6
Continuous
 62
     7
370
    15
100
AcDbCircle
 10
4.0057331252
 20
4.1766838678
 30
0.0
 40
0.093
100
AcDbArc
 50
2.0
 51
90.0
  0
LINE
  5
177
330
1F
100
AcDbEntity
  8
0
  6
Continuous
 62
     7
370
    15
100
AcDbLine
 10
3.4374980682
 20
4.2696839383
 30
0.0
 11
4.0057331339
 21
4.2696839383
 31
0.0
  0
LINE
  5
178
330
1F
100
AcDbEntity
  8
0
  6
Continuous
 62
     7
370
    15
100
AcDbLine
 10
5.04917382
 20
4.2696839383
 30
0.0
 11
5.6174088857
 21
4.2696839383
 31
0.0
  0
LINE
  5
179
330
1F
100
AcDbEntity
  8
0
  6
Continuous
 62
     7
370
    15
100
AcDbLine
 10
4.127669292
 20
3.5676838546
 30
0.0
 11
4.1434534863
 21
3.1156838594
 31
0.0
  0
LINE
  5
17A
330
1F
100
AcDbEntity
  8
0
  6
Continuous
 62
     7
370
    15
100
AcDbLine
 10
4.927237662
 20
3.5676838546
 30
0.0
 11
4.9348503807
 21
3.5676838546
 31
0.0
  0
LINE
  5
17B
330
1F
100
AcDbEntity
  8
0
  6
Continuous
 62
     7
370
    15
100
AcDbLine
 10
4.1200565733
 20
3.5676838546
 30
0.0
 11
4.127669292
 21
3.5676838546
 31
0.0
  0
LINE
  5
17C
330
1F
100
AcDbEntity
  8
0
  6
Continuous
 62
     7
370
    15
100
AcDbLine
 10
4.9114534676
 20
3.1156838594
 30
0.0
 11
4.927237662
 21
3.5676838546
 31
0.0
  0
LINE
  5
17D
330
1F
100
AcDbEntity
  8
0
  6
Continuous
 62
     7
370
    15
100
AcDbLine
 10
3.0460662701
 20
3.5676838546
 30
0.0
 11
3.0460662701
 21
3.4306838839
 31
0.0
  0
LINE
  5
17E
330
1F
100
AcDbEntity
  8
0
  6
Continuous
 62
     7
370
    15
100
AcDbLine
 10
3.0460662701
 20
3.5676838546
 30
0.0
 11
3.0508503348
 21
3.5676838546
 31
0.0
  0
LINE
  5
17F
330
1F
100
AcDbEntity
  8
0
  6
Continuous
 62
     7
370
    15
100
AcDbLine
 10
6.0088406839
 20
3.5676838546
 30
0.0
 11
6.0088406839
 21
3.4306838839
 31
0.0
  0
LINE
  5
180
330
1F
100
AcDbEntity
  8
0
  6
Continuous
 62
     7
370
    15
100
AcDbLine
 10
6.0040566191
 20
3.5676838546
 30
0.0
 11
6.0088406839
 21
3.5676838546
 31
0.0
  0
LINE
  5
181
330
1F
100
AcDbEntity
  8
0
  6
Continuous
 62
     7
370
    15
100
AcDbLine
 10
4.1062892056
 20
4.1799295219
 30
0.0
 11
4.127669292
 21
3.5676838546
 31
0.0
  0
LINE
  5
182
330
1F
100
AcDbEntity
  8
0
  6
Continuous
 62
     7
370
    15
100
AcDbLine
 10
4.927237662
 20
3.5676838546
 30
0.0
 11
4.9486177483
 21
4.1799295219
 31
0.0
  0
ARC
  5
183
330
1F
100
AcDbEntity
  8
0
  6
Continuous
 62
     7
370
    15
100
AcDbCircle
 10
5.041561101
 20
4.1766838678
 30
0.0
 40
0.093
100
AcDbArc
 50
90.0
 51
178.0
  0
ARC
  5
184
330
1F
100
AcDbEntity
  8
0
  6
Continuous
 62
     7
370
    15
100
AcDbCircle
 10
4.0133458529
 20
4.1766838678
 30
0.0
 40
0.093
100
AcDbArc
 50
2.0
 51
90.0
  0
LINE
  5
185
330
1F
100
AcDbEntity
  8
0
  6
Continuous
 62
     7
370
    15
100
AcDbLine
 10
5.0415611013
 20
4.2696839383
 30
0.0
 11
5.04917382
 21
4.2696839383
 31
0.0
  0
LINE
  5
186
330
1F
100
AcDbEntity
  8
0
  6
Continuous
 62
     7
370
    15
100
AcDbLine
 10
4.0057331339
 20
4.2696839383
 30
0.0
 11
4.0133458527
 21
4.2696839383
 31
0.0
  0
DIMENSION
  5
187
330
1F
100
AcDbEntity
  8
DETAIL
 62
     5
100
AcDbDimension
  2
_D
 10
2.4432526896
 20
4.2696838678
 30
0.0
 11
2.4432526896
 21
3.5836838678
 31
0.0
 70
   160
  1
<>
 71
     2
 42
-1.0
  3
SLDDIMSTYLE0
100
AcDbAlignedDimension
 13
3.027453477
 23
2.8976838678
 33
0.0
 14
3.4374980633
 24
4.2696838678
 34
0.0
 50
90.0
100
AcDbRotatedDimension
  0
LINE
  5
19C
330
1F
100
AcDbEntity
  8
0
  6
Continuous
 62
     7
370
    15
100
AcDbLine
 10
8.6496181352
 20
3.7496421392
 30
0.0
 11
8.6468180258
 21
3.7512588272
 31
0.0
  0
LINE
  5
19D
330
1F
100
AcDbEntity
  8
0
  6
Continuous
 62
     7
370
    15
100
AcDbLine
 10
8.3264180171
 20
3.7512588272
 30
0.0
 11
8.3236179261
 21
3.7496421392
 31
0.0
  0
LINE
  5
19E
330
1F
100
AcDbEntity
  8
0
  6
Continuous
 62
     7
370
    15
100
AcDbLine
 10
8.6492675875
 20
3.7813678994
 30
0.0
 11
8.6468180258
 21
3.7827821164
 31
0.0
  0
LINE
  5
19F
330
1F
100
AcDbEntity
  8
0
  6
Continuous
 62
     7
370
    15
100
AcDbLine
 10
8.3264180171
 20
3.7827821164
 30
0.0
 11
8.3239684554
 21
3.7813678994
 31
0.0
  0
LINE
  5
1A0
330
1F
100
AcDbEntity
  8
0
  6
Continuous
 62
     7
370
    15
100
AcDbLine
 10
8.3236179261
 20
3.7528754419
 30
0.0
 11
8.3264180171
 21
3.7512588272
 31
0.0
  0
LINE
  5
1A1
330
1F
100
AcDbEntity
  8
0
  6
Continuous
 62
     7
370
    15
100
AcDbLine
 10
8.6468180258
 20
3.7512588272
 30
0.0
 11
8.6496181352
 21
3.7528754419
 31
0.0
  0
LINE
  5
1A2
330
1F
100
AcDbEntity
  8
0
  6
Continuous
 62
     7
370
    15
100
AcDbLine
 10
8.6496181352
 20
3.6550721984
 30
0.0
 11
8.6468180258
 21
3.656688813
 31
0.0
  0
LINE
  5
1A3
330
1F
100
AcDbEntity
  8
0
  6
Continuous
 62
     7
370
    15
100
AcDbLine
 10
8.3264180171
 20
3.656688813
 30
0.0
 11
8.3236179261
 21
3.6550721984
 31
0.0
  0
LINE
  5
1A4
330
1F
100
AcDbEntity
  8
0
  6
Continuous
 62
     7
370
    15
100
AcDbLine
 10
8.3241693864
 20
3.7840803947
 30
0.0
 11
8.3264180171
 21
3.7827821164
 31
0.0
  0
LINE
  5
1A5
330
1F
100
AcDbEntity
  8
0
  6
Continuous
 62
     7
370
    15
100
AcDbLine
 10
8.6468180258
 20
3.7827821164
 30
0.0
 11
8.6490666565
 21
3.7840803947
 31
0.0
  0
LINE
  5
1A6
330
1F
100
AcDbEntity
  8
0
  6
Continuous
 62
     7
370
    15
100
AcDbLine
 10
8.3236179261
 20
3.5911838364
 30
0.0
 11
8.3391180304
 21
3.5756836955
 31
0.0
  0
LINE
  5
1A7
330
1F
100
AcDbEntity
  8
0
  6
Continuous
 62
     7
370
    15
100
AcDbLine
 10
8.6341180125
 20
3.5756836955
 30
0.0
 11
8.6496181352
 21
3.5911838364
 31
0.0
  0
LINE
  5
1A8
330
1F
100
AcDbEntity
  8
0
  6
Continuous
 62
     7
370
    15
100
AcDbLine
 10
8.3236179261
 20
3.6898287902
 30
0.0
 11
8.3264180171
 21
3.6882121756
 31
0.0
  0
LINE
  5
1A9
330
1F
100
AcDbEntity
  8
0
  6
Continuous
 62
     7
370
    15
100
AcDbLine
 10
8.6468180258
 20
3.6882121756
 30
0.0
 11
8.6496181352
 21
3.6898287902
 31
0.0
  0
LINE
  5
1AA
330
1F
100
AcDbEntity
  8
0
  6
Continuous
 62
     7
370
    15
100
AcDbLine
 10
8.3236179261
 20
3.6267821385
 30
0.0
 11
8.3264180171
 21
3.6251655239
 31
0.0
  0
LINE
  5
1AB
330
1F
100
AcDbEntity
  8
0
  6
Continuous
 62
     7
370
    15
100
AcDbLine
 10
8.6468180258
 20
3.6251655239
 30
0.0
 11
8.6496181352
 21
3.6267821385
 31
0.0
  0
LINE
  5
1AC
330
1F
100
AcDbEntity
  8
0
  6
Continuous
 62
     7
370
    15
100
AcDbLine
 10
8.6496181352
 20
3.7181188501
 30
0.0
 11
8.6468180258
 21
3.7197354647
 31
0.0
  0
LINE
  5
1AD
330
1F
100
AcDbEntity
  8
0
  6
Continuous
 62
     7
370
    15
100
AcDbLine
 10
8.3264180171
 20
3.7197354647
 30
0.0
 11
8.3236179261
 21
3.7181188501
 31
0.0
  0
LINE
  5
1AE
330
1F
100
AcDbEntity
  8
0
  6
Continuous
 62
     7
370
    15
100
AcDbLine
 10
8.3236179261
 20
3.7213520794
 30
0.0
 11
8.3264180171
 21
3.7197354647
 31
0.0
  0
LINE
  5
1AF
330
1F
100
AcDbEntity
  8
0
  6
Continuous
 62
     7
370
    15
100
AcDbLine
 10
8.6468180258
 20
3.7197354647
 30
0.0
 11
8.6496181352
 21
3.7213520794
 31
0.0
  0
LINE
  5
1B0
330
1F
100
AcDbEntity
  8
0
  6
Continuous
 62
     7
370
    15
100
AcDbLine
 10
8.3236179261
 20
3.658305501
 30
0.0
 11
8.3264180171
 21
3.656688813
 31
0.0
  0
LINE
  5
1B1
330
1F
100
AcDbEntity
  8
0
  6
Continuous
 62
     7
370
    15
100
AcDbLine
 10
8.6468180258
 20
3.656688813
 30
0.0
 11
8.6496181352
 21
3.658305501
 31
0.0
  0
LINE
  5
1B2
330
1F
100
AcDbEntity
  8
0
  6
Continuous
 62
     7
370
    15
100
AcDbLine
 10
8.6496181352
 20
3.6865954876
 30
0.0
 11
8.6468180258
 21
3.6882121756
 31
0.0
  0
LINE
  5
1B3
330
1F
100
AcDbEntity
  8
0
  6
Continuous
 62
     7
370
    15
100
AcDbLine
 10
8.3264180171
 20
3.6882121756
 30
0.0
 11
8.3236179261
 21
3.6865954876
 31
0.0
  0
LINE
  5
1B4
330
1F
100
AcDbEntity
  8
0
  6
Continuous
 62
     7
370
    15
100
AcDbLine
 10
8.6496181352
 20
3.6241792019
 30
0.0
 11
8.6468180258
 21
3.6251655239
 31
0.0
  0
LINE
  5
1B5
330
1F
100
AcDbEntity
  8
0
  6
Continuous
 62
     7
370
    15
100
AcDbLine
 10
8.3264180171
 20
3.6251655239
 30
0.0
 11
8.3236179261
 21
3.6241792019
 31
0.0
  0
LWPOLYLINE
  5
1B6
330
1F
100
AcDbEntity
  8
0
  6
Continuous
 62
     7
370
    15
100
AcDbPolyline
 90
        3
 70
   128
 43
0.0
 10
8.3615260549
 20
3.5756836955
 10
8.3767352492
 20
3.5633735177
 10
8.3879100201
 20
3.5558575979
  0
LWPOLYLINE
  5
1B7
330
1F
100
AcDbEntity
  8
0
  6
Continuous
 62
     7
370
    15
100
AcDbPolyline
 90
        3
 70
   128
 43
0.0
 10
8.4262379773
 20
3.5376999609
 10
8.4288512905
 20
3.536829871
 10
8.4293026886
 20
3.536683866
  0
LWPOLYLINE
  5
1B8
330
1F
100
AcDbEntity
  8
0
  6
Continuous
 62
     7
370
    15
100
AcDbPolyline
 90
        3
 70
   128
 43
0.0
 10
8.5439333544
 20
3.536683866
 10
8.5443847525
 20
3.536829871
 10
8.5469980656
 20
3.5376999609
  0
LWPOLYLINE
  5
1B9
330
1F
100
AcDbEntity
  8
0
  6
Continuous
 62
     7
370
    15
100
AcDbPolyline
 90
        3
 70
   128
 43
0.0
 10
8.5853260229
 20
3.5558575979
 10
8.5965007938
 20
3.5633735177
 10
8.6117099881
 20
3.5756836955
  0
ARC
  5
1BA
330
1F
100
AcDbEntity
  8
0
  6
Continuous
 62
     7
370
    15
100
AcDbCircle
 10
8.5783337503
 20
3.5266838678
 30
0.0
 40
0.030000000000001
100
AcDbArc
 50
19.4712206345
 51
90.0
  0
ARC
  5
1BB
330
1F
100
AcDbEntity
  8
0
  6
Continuous
 62
     7
370
    15
100
AcDbCircle
 10
8.5749022928
 20
3.5266838678
 30
0.0
 40
0.0300000000000002
100
AcDbArc
 50
90.0
 51
160.5287793655
  0
ARC
  5
1BC
330
1F
100
AcDbEntity
  8
0
  6
Continuous
 62
     7
370
    15
100
AcDbCircle
 10
8.3983337503
 20
3.5266838678
 30
0.0
 40
0.030000000000001
100
AcDbArc
 50
19.4712206345
 51
90.0
  0
ARC
  5
1BD
330
1F
100
AcDbEntity
  8
0
  6
Continuous
 62
     7
370
    15
100
AcDbCircle
 10
8.3949022928
 20
3.5266838678
 30
0.0
 40
0.0300000000000002
100
AcDbArc
 50
90.0
 51
160.5287793655
  0
LINE
  5
1BE
330
1F
100
AcDbEntity
  8
0
  6
Continuous
 62
     7
370
    15
100
AcDbLine
 10
8.3348200501
 20
3.8300671235
 30
0.0
 11
8.6384159929
 21
3.8300671235
 31
0.0
  0
LINE
  5
1BF
330
1F
100
AcDbEntity
  8
0
  6
Continuous
 62
     7
370
    15
100
AcDbLine
 10
8.3295633941
 20
3.8143054789
 30
0.0
 11
8.6436726672
 21
3.8143054789
 31
0.0
  0
LINE
  5
1C0
330
1F
100
AcDbEntity
  8
0
  6
Continuous
 62
     7
370
    15
100
AcDbLine
 10
8.3264180171
 20
3.7512588272
 30
0.0
 11
8.6468180258
 21
3.7512588272
 31
0.0
  0
LINE
  5
1C1
330
1F
100
AcDbEntity
  8
0
  6
Continuous
 62
     7
370
    15
100
AcDbLine
 10
8.3236179261
 20
3.7354971093
 30
0.0
 11
8.6496181352
 21
3.7354971093
 31
0.0
  0
LINE
  5
1C2
330
1F
100
AcDbEntity
  8
0
  6
Continuous
 62
     7
370
    15
100
AcDbLine
 10
8.3264180171
 20
3.7827821164
 30
0.0
 11
8.6468180258
 21
3.7827821164
 31
0.0
  0
LINE
  5
1C3
330
1F
100
AcDbEntity
  8
0
  6
Continuous
 62
     7
370
    15
100
AcDbLine
 10
8.3236179261
 20
3.7670204718
 30
0.0
 11
8.6496181352
 21
3.7670204718
 31
0.0
  0
LINE
  5
1C4
330
1F
100
AcDbEntity
  8
0
  6
Continuous
 62
     7
370
    15
100
AcDbLine
 10
8.3264180171
 20
3.656688813
 30
0.0
 11
8.6468180258
 21
3.656688813
 31
0.0
  0
LINE
  5
1C5
330
1F
100
AcDbEntity
  8
0
  6
Continuous
 62
     7
370
    15
100
AcDbLine
 10
8.3236179261
 20
3.6409271685
 30
0.0
 11
8.6496181352
 21
3.6409271685
 31
0.0
  0
LINE
  5
1C6
330
1F
100
AcDbEntity
  8
0
  6
Continuous
 62
     7
370
    15
100
AcDbLine
 10
8.3513221694
 20
3.8615904127
 30
0.0
 11
8.6219138552
 21
3.8615904127
 31
0.0
  0
LINE
  5
1C7
330
1F
100
AcDbEntity
  8
0
  6
Continuous
 62
     7
370
    15
100
AcDbLine
 10
8.3419728641
 20
3.8458287681
 30
0.0
 11
8.6312631789
 21
3.8458287681
 31
0.0
  0
LINE
  5
1C8
330
1F
100
AcDbEntity
  8
0
  6
Continuous
 62
     7
370
    15
100
AcDbLine
 10
8.3260165218
 20
3.798543761
 30
0.0
 11
8.6472195212
 21
3.798543761
 31
0.0
  0
LINE
  5
1C9
330
1F
100
AcDbEntity
  8
0
  6
Continuous
 62
     7
370
    15
100
AcDbLine
 10
8.6341180125
 20
3.5756836955
 30
0.0
 11
8.3391180304
 21
3.5756836955
 31
0.0
  0
LINE
  5
1CA
330
1F
100
AcDbEntity
  8
0
  6
Continuous
 62
     7
370
    15
100
AcDbLine
 10
8.6496181352
 20
3.6156837067
 30
0.0
 11
8.3236179261
 21
3.6156837067
 31
0.0
  0
LINE
  5
1CB
330
1F
100
AcDbEntity
  8
0
  6
Continuous
 62
     7
370
    15
100
AcDbLine
 10
8.4330705851
 20
3.9246370644
 30
0.0
 11
8.5401654579
 21
3.9246370644
 31
0.0
  0
LINE
  5
1CC
330
1F
100
AcDbEntity
  8
0
  6
Continuous
 62
     7
370
    15
100
AcDbLine
 10
8.4001771517
 20
3.9088754198
 30
0.0
 11
8.5730588912
 21
3.9088754198
 31
0.0
  0
LINE
  5
1CD
330
1F
100
AcDbEntity
  8
0
  6
Continuous
 62
     7
370
    15
100
AcDbLine
 10
8.3790082263
 20
3.8931137752
 30
0.0
 11
8.5942278167
 21
3.8931137752
 31
0.0
  0
LINE
  5
1CE
330
1F
100
AcDbEntity
  8
0
  6
Continuous
 62
     7
370
    15
100
AcDbLine
 10
8.3633668836
 20
3.8773521306
 30
0.0
 11
8.6098691593
 21
3.8773521306
 31
0.0
  0
LINE
  5
1CF
330
1F
100
AcDbEntity
  8
0
  6
Continuous
 62
     7
370
    15
100
AcDbLine
 10
8.3236179261
 20
3.7039738201
 30
0.0
 11
8.6496181352
 21
3.7039738201
 31
0.0
  0
LINE
  5
1D0
330
1F
100
AcDbEntity
  8
0
  6
Continuous
 62
     7
370
    15
100
AcDbLine
 10
8.3264180171
 20
3.6882121756
 30
0.0
 11
8.6468180258
 21
3.6882121756
 31
0.0
  0
LINE
  5
1D1
330
1F
100
AcDbEntity
  8
0
  6
Continuous
 62
     7
370
    15
100
AcDbLine
 10
8.3264180171
 20
3.6251655239
 30
0.0
 11
8.6468180258
 21
3.6251655239
 31
0.0
  0
LINE
  5
1D2
330
1F
100
AcDbEntity
  8
0
  6
Continuous
 62
     7
370
    15
100
AcDbLine
 10
8.3264180171
 20
3.7197354647
 30
0.0
 11
8.6468180258
 21
3.7197354647
 31
0.0
  0
LINE
  5
1D3
330
1F
100
AcDbEntity
  8
0
  6
Continuous
 62
     7
370
    15
100
AcDbLine
 10
8.3236179261
 20
3.6724504576
 30
0.0
 11
8.6496181352
 21
3.6724504576
 31
0.0
  0
ARC
  5
1D4
330
1F
100
AcDbEntity
  8
0
  6
Continuous
 62
     7
370
    15
100
AcDbCircle
 10
8.4866180215
 20
3.7706834959
 30
0.0
 40
0.1630001068115217
100
AcDbArc
 50
0.0
 51
180.0
  0
LINE
  5
1D5
330
1F
100
AcDbEntity
  8
0
  6
Continuous
 62
     7
370
    15
100
AcDbLine
 10
8.3236179261
 20
3.536683866
 30
0.0
 11
8.3236179261
 21
3.7706835028
 31
0.0
  0
LINE
  5
1D6
330
1F
100
AcDbEntity
  8
0
  6
Continuous
 62
     7
370
    15
100
AcDbLine
 10
8.6496181352
 20
3.536683866
 30
0.0
 11
8.6496181352
 21
3.7706835028
 31
0.0
  0
LINE
  5
1D7
330
1F
100
AcDbEntity
  8
0
  6
Continuous
 62
     7
370
    15
100
AcDbLine
 10
8.6861180968
 20
3.4276837785
 30
0.0
 11
8.2871179278
 21
3.4276837785
 31
0.0
  0
ARC
  5
1D8
330
1F
100
AcDbEntity
  8
0
  6
Continuous
 62
     7
370
    15
100
AcDbCircle
 10
8.2871179383
 20
3.4576837712
 30
0.0
 40
0.0300000000000011
100
AcDbArc
 50
180.0
 51
270.0
  0
LINE
  5
1D9
330
1F
100
AcDbEntity
  8
0
  6
Continuous
 62
     7
370
    15
100
AcDbLine
 10
8.2571179743
 20
3.4576837686
 30
0.0
 11
8.2571179743
 21
3.9976837005
 31
0.0
  0
ARC
  5
1DA
330
1F
100
AcDbEntity
  8
0
  6
Continuous
 62
     7
370
    15
100
AcDbCircle
 10
8.2871179383
 20
3.9976837317
 30
0.0
 40
0.0300000000000011
100
AcDbArc
 50
90.0
 51
180.0
  0
LINE
  5
1DB
330
1F
100
AcDbEntity
  8
0
  6
Continuous
 62
     7
370
    15
100
AcDbLine
 10
8.6861180968
 20
4.0276837273
 30
0.0
 11
8.2871179278
 21
4.0276837273
 31
0.0
  0
ARC
  5
1DC
330
1F
100
AcDbEntity
  8
0
  6
Continuous
 62
     7
370
    15
100
AcDbCircle
 10
8.6861181048
 20
3.9976837317
 30
0.0
 40
0.0299999999999998
100
AcDbArc
 50
0.0
 51
90.0
  0
LINE
  5
1DD
330
1F
100
AcDbEntity
  8
0
  6
Continuous
 62
     7
370
    15
100
AcDbLine
 10
8.7161181053
 20
3.4576837686
 30
0.0
 11
8.7161181053
 21
3.9976837005
 31
0.0
  0
ARC
  5
1DE
330
1F
100
AcDbEntity
  8
0
  6
Continuous
 62
     7
370
    15
100
AcDbCircle
 10
8.6861181048
 20
3.4576837712
 30
0.0
 40
0.0300000000000002
100
AcDbArc
 50
270.0
 51
0.0
  0
LINE
  5
1DF
330
1F
100
AcDbEntity
  8
0
  6
Continuous
 62
     7
370
    15
100
AcDbLine
 10
8.7823841356
 20
3.5676838546
 30
0.0
 11
8.7735857681
 21
3.6839298517
 31
0.0
  0
LINE
  5
1E0
330
1F
100
AcDbEntity
  8
0
  6
Continuous
 62
     7
370
    15
100
AcDbLine
 10
8.7735857681
 20
3.6839298517
 30
0.0
 11
8.7885429828
 21
3.6850618853
 31
0.0
  0
LINE
  5
1E1
330
1F
100
AcDbEntity
  8
0
  6
Continuous
 62
     7
370
    15
100
AcDbLine
 10
8.7974270393
 20
3.5676838546
 30
0.0
 11
8.7885429828
 21
3.6850618853
 31
0.0
  0
LINE
  5
1E2
330
1F
100
AcDbEntity
  8
0
  6
Continuous
 62
     7
370
    15
100
AcDbLine
 10
8.7376906344
 20
3.4306838839
 30
0.0
 11
8.7453623858
 21
3.4311381786
 31
0.0
  0
LINE
  5
1E3
330
1F
100
AcDbEntity
  8
0
  6
Continuous
 62
     7
370
    15
100
AcDbLine
 10
8.7376906344
 20
3.4456838606
 30
0.0
 11
8.7453623858
 21
3.4462759471
 31
0.0
  0
LINE
  5
1E4
330
1F
100
AcDbEntity
  8
0
  6
Continuous
 62
     7
370
    15
100
AcDbLine
 10
8.2355453902
 20
3.4456838606
 30
0.0
 11
8.2596224254
 21
3.4456838606
 31
0.0
  0
LINE
  5
1E5
330
1F
100
AcDbEntity
  8
0
  6
Continuous
 62
     7
370
    15
100
AcDbLine
 10
8.7136135992
 20
3.4456838606
 30
0.0
 11
8.7376906344
 21
3.4456838606
 31
0.0
  0
LINE
  5
1E6
330
1F
100
AcDbEntity
  8
0
  6
Continuous
 62
     7
370
    15
100
AcDbLine
 10
8.2271180209
 20
3.4312324842
 30
0.0
 11
8.2355453902
 21
3.4306838839
 31
0.0
  0
LINE
  5
1E7
330
1F
100
AcDbEntity
  8
0
  6
Continuous
 62
     7
370
    15
100
AcDbLine
 10
8.2271180209
 20
3.4463991823
 30
0.0
 11
8.2355453902
 21
3.4456838606
 31
0.0
  0
LINE
  5
1E8
330
1F
100
AcDbEntity
  8
0
  6
Continuous
 62
     7
370
    15
100
AcDbLine
 10
8.1996503116
 20
3.6839298517
 30
0.0
 11
8.184693051
 21
3.6850618853
 31
0.0
  0
LINE
  5
1E9
330
1F
100
AcDbEntity
  8
0
  6
Continuous
 62
     7
370
    15
100
AcDbLine
 10
8.184693051
 20
3.6850618853
 30
0.0
 11
8.175808967
 21
3.5676838546
 31
0.0
  0
LINE
  5
1EA
330
1F
100
AcDbEntity
  8
0
  6
Continuous
 62
     7
370
    15
100
AcDbLine
 10
8.1996503116
 20
3.6839298517
 30
0.0
 11
8.1908518799
 21
3.5676838546
 31
0.0
  0
LINE
  5
1EB
330
1F
100
AcDbEntity
  8
0
  6
Continuous
 62
     7
370
    15
100
AcDbLine
 10
8.7522543378
 20
3.9657650759
 30
0.0
 11
8.7532619628
 21
3.9524520764
 31
0.0
  0
LINE
  5
1EC
330
1F
100
AcDbEntity
  8
0
  6
Continuous
 62
     7
370
    15
100
AcDbLine
 10
8.7602600453
 20
3.8599920578
 30
0.0
 11
8.7735857681
 21
3.6839298517
 31
0.0
  0
LINE
  5
1ED
330
1F
100
AcDbEntity
  8
0
  6
Continuous
 62
     7
370
    15
100
AcDbLine
 10
8.7672115617
 20
3.9668971828
 30
0.0
 11
8.7885429828
 21
3.6850618853
 31
0.0
  0
LINE
  5
1EE
330
1F
100
AcDbEntity
  8
0
  6
Continuous
 62
     7
370
    15
100
AcDbLine
 10
8.7237379006
 20
4.038380517
 30
0.0
 11
8.7374967983
 21
4.0443548414
 31
0.0
  0
LINE
  5
1EF
330
1F
100
AcDbEntity
  8
0
  6
Continuous
 62
     7
370
    15
100
AcDbLine
 10
8.7237379006
 20
4.038380517
 30
0.0
 11
8.7482599723
 21
3.9819059228
 31
0.0
  0
LINE
  5
1F0
330
1F
100
AcDbEntity
  8
0
  6
Continuous
 62
     7
370
    15
100
AcDbLine
 10
8.7374967983
 20
4.0443548414
 30
0.0
 11
8.7620188884
 21
3.9878802471
 31
0.0
  0
ARC
  5
1F1
330
1F
100
AcDbEntity
  8
0
  6
Continuous
 62
     7
370
    15
100
AcDbCircle
 10
8.7023969424
 20
3.961991525
 30
0.0
 40
0.065
100
AcDbArc
 50
4.3283254326
 51
23.4711649655
  0
ARC
  5
1F2
330
1F
100
AcDbEntity
  8
0
  6
Continuous
 62
     7
370
    15
100
AcDbCircle
 10
8.7023969424
 20
3.961991525
 30
0.0
 40
0.0499999999999992
100
AcDbArc
 50
4.3283254326
 51
23.4711649655
  0
LINE
  5
1F3
330
1F
100
AcDbEntity
  8
0
  6
Continuous
 62
     7
370
    15
100
AcDbLine
 10
8.2112171913
 20
3.9878802471
 30
0.0
 11
8.235739208
 21
4.0443548414
 31
0.0
  0
LINE
  5
1F4
330
1F
100
AcDbEntity
  8
0
  6
Continuous
 62
     7
370
    15
100
AcDbLine
 10
8.235739208
 20
4.0443548414
 30
0.0
 11
8.2494981424
 21
4.038380517
 31
0.0
  0
LINE
  5
1F5
330
1F
100
AcDbEntity
  8
0
  6
Continuous
 62
     7
370
    15
100
AcDbLine
 10
8.2249760523
 20
3.9819059228
 30
0.0
 11
8.2494981424
 21
4.038380517
 31
0.0
  0
LINE
  5
1F6
330
1F
100
AcDbEntity
  8
0
  6
Continuous
 62
     7
370
    15
100
AcDbLine
 10
8.184693051
 20
3.6850618853
 30
0.0
 11
8.2060245179
 21
3.9668971828
 31
0.0
  0
LINE
  5
1F7
330
1F
100
AcDbEntity
  8
0
  6
Continuous
 62
     7
370
    15
100
AcDbLine
 10
8.1996503116
 20
3.6839298517
 30
0.0
 11
8.2129759976
 21
3.8599920578
 31
0.0
  0
LINE
  5
1F8
330
1F
100
AcDbEntity
  8
0
  6
Continuous
 62
     7
370
    15
100
AcDbLine
 10
8.2199740434
 20
3.9524520764
 30
0.0
 11
8.2209817051
 21
3.9657650759
 31
0.0
  0
ARC
  5
1F9
330
1F
100
AcDbEntity
  8
0
  6
Continuous
 62
     7
370
    15
100
AcDbCircle
 10
8.2708391007
 20
3.961991525
 30
0.0
 40
0.0499999999999992
100
AcDbArc
 50
156.5288350345
 51
175.6716745674
  0
ARC
  5
1FA
330
1F
100
AcDbEntity
  8
0
  6
Continuous
 62
     7
370
    15
100
AcDbCircle
 10
8.2708391007
 20
3.961991525
 30
0.0
 40
0.0649999999999997
100
AcDbArc
 50
156.5288350345
 51
175.6716745674
  0
LINE
  5
1FB
330
1F
100
AcDbEntity
  8
0
  6
Continuous
 62
     7
370
    15
100
AcDbLine
 10
8.2816179913
 20
3.5056838775
 30
0.0
 11
8.691618015
 21
3.5056838775
 31
0.0
  0
LINE
  5
1FC
330
1F
100
AcDbEntity
  8
0
  6
Continuous
 62
     7
370
    15
100
AcDbLine
 10
8.2816179913
 20
3.5056838775
 30
0.0
 11
8.2816179913
 21
3.536683866
 31
0.0
  0
LINE
  5
1FD
330
1F
100
AcDbEntity
  8
0
  6
Continuous
 62
     7
370
    15
100
AcDbLine
 10
8.2816179913
 20
3.536683866
 30
0.0
 11
8.691618015
 21
3.536683866
 31
0.0
  0
LINE
  5
1FE
330
1F
100
AcDbEntity
  8
0
  6
Continuous
 62
     7
370
    15
100
AcDbLine
 10
8.691618015
 20
3.5056838775
 30
0.0
 11
8.691618015
 21
3.536683866
 31
0.0
  0
LINE
  5
1FF
330
1F
100
AcDbEntity
  8
0
  6
Continuous
 62
     7
370
    15
100
AcDbLine
 10
8.5749022866
 20
3.556683835
 30
0.0
 11
8.5783337336
 21
3.556683835
 31
0.0
  0
LINE
  5
200
330
1F
100
AcDbEntity
  8
0
  6
Continuous
 62
     7
370
    15
100
AcDbLine
 10
8.3949023093
 20
3.556683835
 30
0.0
 11
8.3983337563
 21
3.556683835
 31
0.0
  0
LINE
  5
201
330
1F
100
AcDbEntity
  8
0
  6
Continuous
 62
     7
370
    15
100
AcDbLine
 10
8.7448789597
 20
3.5598891246
 30
0.0
 11
8.7453623858
 21
3.5585106205
 31
0.0
  0
ARC
  5
202
330
1F
100
AcDbEntity
  8
0
  6
Continuous
 62
     7
370
    15
100
AcDbCircle
 10
8.6866180215
 20
3.5386838678
 30
0.0
 40
0.062000000000001
100
AcDbArc
 50
298.4119584781
 51
341.3500266453
  0
LINE
  5
203
330
1F
100
AcDbEntity
  8
0
  6
Continuous
 62
     7
370
    15
100
AcDbLine
 10
8.7161181053
 20
3.6389089118
 30
0.0
 11
8.7448789597
 21
3.5598891246
 31
0.0
  0
ARC
  5
204
330
1F
100
AcDbEntity
  8
0
  6
Continuous
 62
     7
370
    15
100
AcDbCircle
 10
8.9626030487
 20
3.9090097361
 30
0.0
 40
0.3240000000000017
100
AcDbArc
 50
143.0
 51
158.5137603204
  0
LINE
  5
205
330
1F
100
AcDbEntity
  8
0
  6
Continuous
 62
     7
370
    15
100
AcDbLine
 10
8.758618021
 20
4.176683826
 30
0.0
 11
8.7038451437
 21
4.103997839
 31
0.0
  0
ARC
  5
206
330
1F
100
AcDbEntity
  8
0
  6
Continuous
 62
     7
370
    15
100
AcDbCircle
 10
8.9626030487
 20
3.9090097361
 30
0.0
 40
0.2930000000000005
100
AcDbArc
 50
143.0
 51
156.3452079825
  0
LINE
  5
207
330
1F
100
AcDbEntity
  8
0
  6
Continuous
 62
     7
370
    15
100
AcDbLine
 10
8.7740094373
 20
3.5704917555
 30
0.0
 11
8.7161181053
 21
3.7295468381
 31
0.0
  0
ARC
  5
208
330
1F
100
AcDbEntity
  8
0
  6
Continuous
 62
     7
370
    15
100
AcDbCircle
 10
8.6866180215
 20
3.5386838678
 30
0.0
 40
0.0930000000000007
100
AcDbArc
 50
287.8744062162
 51
309.1726935627
  0
LINE
  5
209
330
1F
100
AcDbEntity
  8
0
  6
Continuous
 62
     7
370
    15
100
AcDbLine
 10
8.7749809094
 20
3.5676838546
 30
0.0
 11
8.7740094373
 21
3.5704917555
 31
0.0
  0
LINE
  5
20A
330
1F
100
AcDbEntity
  8
0
  6
Continuous
 62
     7
370
    15
100
AcDbLine
 10
8.728602851
 20
4.0853415412
 30
0.0
 11
8.7833757191
 21
4.1580276015
 31
0.0
  0
LINE
  5
20B
330
1F
100
AcDbEntity
  8
0
  6
Continuous
 62
     7
370
    15
100
AcDbLine
 10
8.7833757191
 20
4.1580276015
 30
0.0
 11
8.758618021
 21
4.176683826
 31
0.0
  0
LINE
  5
20C
330
1F
100
AcDbEntity
  8
0
  6
Continuous
 62
     7
370
    15
100
AcDbLine
 10
8.2571179743
 20
3.7295468381
 30
0.0
 11
8.1992265964
 21
3.5704917555
 31
0.0
  0
ARC
  5
20D
330
1F
100
AcDbEntity
  8
0
  6
Continuous
 62
     7
370
    15
100
AcDbCircle
 10
8.0106329944
 20
3.9090097361
 30
0.0
 40
0.292999999999999
100
AcDbArc
 50
23.6547920175
 51
37.0
  0
LINE
  5
20E
330
1F
100
AcDbEntity
  8
0
  6
Continuous
 62
     7
370
    15
100
AcDbLine
 10
8.1898603513
 20
4.1580276015
 30
0.0
 11
8.2446331919
 21
4.0853415412
 31
0.0
  0
LINE
  5
20F
330
1F
100
AcDbEntity
  8
0
  6
Continuous
 62
     7
370
    15
100
AcDbLine
 10
8.2146179853
 20
4.176683826
 30
0.0
 11
8.1898603513
 21
4.1580276015
 31
0.0
  0
LINE
  5
210
330
1F
100
AcDbEntity
  8
0
  6
Continuous
 62
     7
370
    15
100
AcDbLine
 10
8.2693908992
 20
4.103997839
 30
0.0
 11
8.2146179853
 21
4.176683826
 31
0.0
  0
ARC
  5
211
330
1F
100
AcDbEntity
  8
0
  6
Continuous
 62
     7
370
    15
100
AcDbCircle
 10
8.0106329944
 20
3.9090097361
 30
0.0
 40
0.3240000000000002
100
AcDbArc
 50
21.4862396796
 51
37.0
  0
LINE
  5
212
330
1F
100
AcDbEntity
  8
0
  6
Continuous
 62
     7
370
    15
100
AcDbLine
 10
8.2283570466
 20
3.5598891246
 30
0.0
 11
8.2571179743
 21
3.6389089118
 31
0.0
  0
ARC
  5
213
330
1F
100
AcDbEntity
  8
0
  6
Continuous
 62
     7
370
    15
100
AcDbCircle
 10
8.2866180215
 20
3.5386838678
 30
0.0
 40
0.0619999999999999
100
AcDbArc
 50
196.3260838312
 51
241.5880415219
  0
LINE
  5
214
330
1F
100
AcDbEntity
  8
0
  6
Continuous
 62
     7
370
    15
100
AcDbLine
 10
8.2271180209
 20
3.5561122816
 30
0.0
 11
8.2283570466
 21
3.5598891246
 31
0.0
  0
LINE
  5
215
330
1F
100
AcDbEntity
  8
0
  6
Continuous
 62
     7
370
    15
100
AcDbLine
 10
8.1992265964
 20
3.5704917555
 30
0.0
 11
8.198255161
 21
3.5676838546
 31
0.0
  0
ARC
  5
216
330
1F
100
AcDbEntity
  8
0
  6
Continuous
 62
     7
370
    15
100
AcDbCircle
 10
8.2866180215
 20
3.5386838678
 30
0.0
 40
0.0929999999999991
100
AcDbArc
 50
230.2242146488
 51
252.1255937838
  0
LINE
  5
217
330
1F
100
AcDbEntity
  8
0
  6
Continuous
 62
     7
370
    15
100
AcDbLine
 10
8.7317196834
 20
4.0084731092
 30
0.0
 11
8.7246663082
 21
4.0219731066
 31
0.0
  0
ARC
  5
218
330
1F
100
AcDbEntity
  8
0
  6
Continuous
 62
     7
370
    15
100
AcDbCircle
 10
8.4986180215
 20
3.8866838678
 30
0.0
 40
0.2630000000000003
100
AcDbArc
 50
348.8435057375
 51
27.5858356685
  0
ARC
  5
219
330
1F
100
AcDbEntity
  8
0
  6
Continuous
 62
     7
370
    15
100
AcDbCircle
 10
8.7771180215
 20
3.6966838678
 30
0.0
 40
0.0470000000000002
100
AcDbArc
 50
168.8435057375
 51
188.6532847181
  0
LINE
  5
21A
330
1F
100
AcDbEntity
  8
0
  6
Continuous
 62
     7
370
    15
100
AcDbLine
 10
8.7262337717
 20
3.841794308
 30
0.0
 11
8.7161181053
 21
3.7905021206
 31
0.0
  0
ARC
  5
21B
330
1F
100
AcDbEntity
  8
0
  6
Continuous
 62
     7
370
    15
100
AcDbCircle
 10
8.4986180215
 20
3.8866838678
 30
0.0
 40
0.2320000000000002
100
AcDbArc
 50
348.8435057375
 51
20.3640757219
  0
ARC
  5
21C
330
1F
100
AcDbEntity
  8
0
  6
Continuous
 62
     7
370
    15
100
AcDbCircle
 10
8.7796180215
 20
4.0506838678
 30
0.0
 40
0.0619999999999994
100
AcDbArc
 50
149.7611162915
 51
207.5858356685
  0
LINE
  5
21D
330
1F
100
AcDbEntity
  8
0
  6
Continuous
 62
     7
370
    15
100
AcDbLine
 10
8.7310062133
 20
3.7057778726
 30
0.0
 11
8.7566479437
 21
3.8357961506
 31
0.0
  0
ARC
  5
21E
330
1F
100
AcDbEntity
  8
0
  6
Continuous
 62
     7
370
    15
100
AcDbCircle
 10
8.7796180215
 20
4.0506838678
 30
0.0
 40
0.0929999999999995
100
AcDbArc
 50
137.6842940428
 51
148.6978634099
  0
ARC
  5
21F
330
1F
100
AcDbEntity
  8
0
  6
Continuous
 62
     7
370
    15
100
AcDbCircle
 10
8.4746180215
 20
3.8866838678
 30
0.0
 40
0.2319999999999993
100
AcDbArc
 50
159.6359242781
 51
191.1564942625
  0
LINE
  5
220
330
1F
100
AcDbEntity
  8
0
  6
Continuous
 62
     7
370
    15
100
AcDbLine
 10
8.2571179743
 20
3.7905021206
 30
0.0
 11
8.2470022712
 21
3.841794308
 31
0.0
  0
ARC
  5
221
330
1F
100
AcDbEntity
  8
0
  6
Continuous
 62
     7
370
    15
100
AcDbCircle
 10
8.1961180215
 20
3.6966838678
 30
0.0
 40
0.0470000000000001
100
AcDbArc
 50
351.3467152819
 51
11.1564942625
  0
LINE
  5
222
330
1F
100
AcDbEntity
  8
0
  6
Continuous
 62
     7
370
    15
100
AcDbLine
 10
8.2165881359
 20
3.8357961506
 30
0.0
 11
8.2422298663
 21
3.7057778726
 31
0.0
  0
ARC
  5
223
330
1F
100
AcDbEntity
  8
0
  6
Continuous
 62
     7
370
    15
100
AcDbCircle
 10
8.4746180215
 20
3.8866838678
 30
0.0
 40
0.2629999999999998
100
AcDbArc
 50
152.4141643315
 51
191.1564942625
  0
LINE
  5
224
330
1F
100
AcDbEntity
  8
0
  6
Continuous
 62
     7
370
    15
100
AcDbLine
 10
8.2485697531
 20
4.0219731066
 30
0.0
 11
8.2415163412
 21
4.0084731092
 31
0.0
  0
ARC
  5
225
330
1F
100
AcDbEntity
  8
0
  6
Continuous
 62
     7
370
    15
100
AcDbCircle
 10
8.1936180215
 20
4.0506838678
 30
0.0
 40
0.0620000000000005
100
AcDbArc
 50
332.4141643315
 51
30.2388837085
  0
ARC
  5
226
330
1F
100
AcDbEntity
  8
0
  6
Continuous
 62
     7
370
    15
100
AcDbCircle
 10
8.1936180215
 20
4.0506838678
 30
0.0
 40
0.0929999999999999
100
AcDbArc
 50
31.3021365901
 51
42.3157059572
  0
LINE
  5
227
330
1F
100
AcDbEntity
  8
0
  6
Continuous
 62
     7
370
    15
100
AcDbLine
 10
8.0021180401
 20
2.8976838678
 30
0.0
 11
7.9711180516
 21
2.8976838678
 31
0.0
  0
LINE
  5
228
330
1F
100
AcDbEntity
  8
0
  6
Continuous
 62
     7
370
    15
100
AcDbLine
 10
7.9711180516
 20
2.8976838678
 30
0.0
 11
7.9401179897
 21
2.8976838678
 31
0.0
  0
LINE
  5
229
330
1F
100
AcDbEntity
  8
0
  6
Continuous
 62
     7
370
    15
100
AcDbLine
 10
7.9091180011
 20
2.8976838678
 30
0.0
 11
7.9091180011
 21
3.5534133528
 31
0.0
  0
LINE
  5
22A
330
1F
100
AcDbEntity
  8
0
  6
Continuous
 62
     7
370
    15
100
AcDbLine
 10
7.9401179897
 20
2.8976838678
 30
0.0
 11
7.9091180011
 21
2.8976838678
 31
0.0
  0
ARC
  5
22B
330
1F
100
AcDbEntity
  8
0
  6
Continuous
 62
     7
370
    15
100
AcDbCircle
 10
7.9711180215
 20
3.5534133349
 30
0.0
 40
0.0310000000000006
100
AcDbArc
 50
0.0
 51
1.0
  0
LINE
  5
22C
330
1F
100
AcDbEntity
  8
0
  6
Continuous
 62
     7
370
    15
100
AcDbLine
 10
7.9959468181
 20
3.9072303521
 30
0.0
 11
8.0021132735
 21
3.5539543265
 31
0.0
  0
LINE
  5
22D
330
1F
100
AcDbEntity
  8
0
  6
Continuous
 62
     7
370
    15
100
AcDbLine
 10
7.9091227677
 20
3.5539543265
 30
0.0
 11
7.9152892232
 21
3.9072303521
 31
0.0
  0
ARC
  5
22E
330
1F
100
AcDbEntity
  8
0
  6
Continuous
 62
     7
370
    15
100
AcDbCircle
 10
7.9401180215
 20
3.5534133349
 30
0.0
 40
0.0310000000000007
100
AcDbArc
 50
179.0
 51
180.0
  0
LINE
  5
22F
330
1F
100
AcDbEntity
  8
0
  6
Continuous
 62
     7
370
    15
100
AcDbLine
 10
7.9520794715
 20
4.2696839383
 30
0.0
 11
7.9591565698
 21
4.2696839383
 31
0.0
  0
LWPOLYLINE
  5
230
330
1F
100
AcDbEntity
  8
0
  6
Continuous
 62
     7
370
    15
100
AcDbPolyline
 90
       22
 70
   128
 43
0.0
 10
7.9152892232
 20
3.9072303521
 10
7.9157271648
 20
3.9323198156
 10
7.9161615864
 20
3.9572109881
 10
7.9165902882
 20
3.981770771
 10
7.9170109233
 20
4.0058677526
 10
7.9174212186
 20
4.0293731611
 10
7.917818974
 20
4.0521613778
 10
7.9182021362
 20
4.074110451
 10
7.9185685053
 20
4.0951030484
 10
7.9189163213
 20
4.1150269716
 10
7.9192435308
 20
4.1337756684
 10
7.919548594
 20
4.1512490398
 10
7.9198296774
 20
4.1673532938
 10
7.9200853878
 20
4.1820026312
 10
7.9203143318
 20
4.1951187331
 10
7.9205152628
 20
4.2066313467
 10
7.9206871542
 20
4.216478873
 10
7.9208290525
 20
4.2246088057
 10
7.9209402246
 20
4.2309775855
 10
7.9210200836
 20
4.2355513326
 10
7.9210681164
 20
4.2383052608
 10
7.9210841762
 20
4.2392248502
  0
ARC
  5
231
330
1F
100
AcDbEntity
  8
0
  6
Continuous
 62
     7
370
    15
100
AcDbCircle
 10
7.9520794632
 20
4.2386838678
 30
0.0
 40
0.0309999999999997
100
AcDbArc
 50
90.0
 51
179.0
  0
ARC
  5
232
330
1F
100
AcDbEntity
  8
0
  6
Continuous
 62
     7
370
    15
100
AcDbCircle
 10
7.9591565799
 20
4.2386838678
 30
0.0
 40
0.0310000000000007
100
AcDbArc
 50
1.0
 51
90.0
  0
LWPOLYLINE
  5
233
330
1F
100
AcDbEntity
  8
0
  6
Continuous
 62
     7
370
    15
100
AcDbPolyline
 90
       22
 70
   128
 43
0.0
 10
7.990151865
 20
4.2392248502
 10
7.9901679248
 20
4.2383052608
 10
7.9902159576
 20
4.2355513326
 10
7.9902958167
 20
4.2309775855
 10
7.9904069887
 20
4.2246088057
 10
7.9905488871
 20
4.216478873
 10
7.9907207785
 20
4.2066313467
 10
7.9909217095
 20
4.1951187331
 10
7.9911506535
 20
4.1820026312
 10
7.9914063639
 20
4.1673532938
 10
7.9916874473
 20
4.1512490398
 10
7.9919925104
 20
4.1337756684
 10
7.99231972
 20
4.1150269716
 10
7.992667536
 20
4.0951030484
 10
7.9930339784
 20
4.074110451
 10
7.9934170673
 20
4.0521613778
 10
7.9938148227
 20
4.0293731611
 10
7.994225118
 20
4.0058677526
 10
7.9946457531
 20
3.981770771
 10
7.9950744548
 20
3.9572109881
 10
7.9955088765
 20
3.9323198156
 10
7.9959468181
 20
3.9072303521
  0
LINE
  5
234
330
1F
100
AcDbEntity
  8
0
  6
Continuous
 62
     7
370
    15
100
AcDbLine
 10
8.9701180227
 20
3.5536838763
 30
0.0
 11
8.9701180227
 21
2.8976838678
 31
0.0
  0
ARC
  5
235
330
1F
100
AcDbEntity
  8
0
  6
Continuous
 62
     7
370
    15
100
AcDbCircle
 10
8.9487970915
 20
3.3316039838
 30
0.0
 40
0.2231013013061446
100
AcDbArc
 50
84.5160965884
 51
92.4865115835
  0
LINE
  5
236
330
1F
100
AcDbEntity
  8
0
  6
Continuous
 62
     7
370
    15
100
AcDbLine
 10
8.9701180227
 20
2.8976838678
 30
0.0
 11
8.9391180216
 21
2.8976838678
 31
0.0
  0
LINE
  5
237
330
1F
100
AcDbEntity
  8
0
  6
Continuous
 62
     7
370
    15
100
AcDbLine
 10
8.0951180058
 20
3.4306838839
 30
0.0
 11
8.2271180209
 21
3.4306838839
 31
0.0
  0
LINE
  5
238
330
1F
100
AcDbEntity
  8
0
  6
Continuous
 62
     7
370
    15
100
AcDbLine
 10
8.2271180209
 20
3.4306838839
 30
0.0
 11
8.2740410588
 21
3.4306838839
 31
0.0
  0
LINE
  5
239
330
1F
100
AcDbEntity
  8
0
  6
Continuous
 62
     7
370
    15
100
AcDbLine
 10
8.6991950024
 20
3.4306838839
 30
0.0
 11
8.7453623858
 21
3.4306838839
 31
0.0
  0
LINE
  5
23A
330
1F
100
AcDbEntity
  8
0
  6
Continuous
 62
     7
370
    15
100
AcDbLine
 10
8.7453623858
 20
3.4306838839
 30
0.0
 11
8.8773623917
 21
3.4306838839
 31
0.0
  0
LINE
  5
23B
330
1F
100
AcDbEntity
  8
0
  6
Continuous
 62
     7
370
    15
100
AcDbLine
 10
8.8773623917
 20
3.5676838546
 30
0.0
 11
8.9083482305
 21
3.5676838546
 31
0.0
  0
LINE
  5
23C
330
1F
100
AcDbEntity
  8
0
  6
Continuous
 62
     7
370
    15
100
AcDbLine
 10
8.0021180401
 20
3.5676838546
 30
0.0
 11
8.0021180401
 21
2.8976838678
 31
0.0
  0
LINE
  5
23D
330
1F
100
AcDbEntity
  8
0
  6
Continuous
 62
     7
370
    15
100
AcDbLine
 10
8.0021180401
 20
3.5676838546
 30
0.0
 11
8.0951180058
 21
3.5676838546
 31
0.0
  0
LINE
  5
23E
330
1F
100
AcDbEntity
  8
0
  6
Continuous
 62
     7
370
    15
100
AcDbLine
 10
8.9391180216
 20
2.8976838678
 30
0.0
 11
8.0021180401
 21
2.8976838678
 31
0.0
  0
LINE
  5
23F
330
1F
100
AcDbEntity
  8
0
  6
Continuous
 62
     7
370
    15
100
AcDbLine
 10
8.8773623917
 20
3.5676838546
 30
0.0
 11
8.8773623917
 21
3.4306838839
 31
0.0
  0
LINE
  5
240
330
1F
100
AcDbEntity
  8
0
  6
Continuous
 62
     7
370
    15
100
AcDbLine
 10
8.7453623858
 20
3.5676838546
 30
0.0
 11
8.7453623858
 21
3.4306838839
 31
0.0
  0
LINE
  5
241
330
1F
100
AcDbEntity
  8
0
  6
Continuous
 62
     7
370
    15
100
AcDbLine
 10
8.7453623858
 20
3.5676838546
 30
0.0
 11
8.8773623917
 21
3.5676838546
 31
0.0
  0
LINE
  5
242
330
1F
100
AcDbEntity
  8
0
  6
Continuous
 62
     7
370
    15
100
AcDbLine
 10
8.2271180209
 20
3.5676838546
 30
0.0
 11
8.2271180209
 21
3.4306838839
 31
0.0
  0
LINE
  5
243
330
1F
100
AcDbEntity
  8
0
  6
Continuous
 62
     7
370
    15
100
AcDbLine
 10
8.0951180058
 20
3.5676838546
 30
0.0
 11
8.0951180058
 21
3.4306838839
 31
0.0
  0
LINE
  5
244
330
1F
100
AcDbEntity
  8
0
  6
Continuous
 62
     7
370
    15
100
AcDbLine
 10
8.0951180058
 20
3.5676838546
 30
0.0
 11
8.2271180209
 21
3.5676838546
 31
0.0
  0
LINE
  5
245
330
1F
100
AcDbEntity
  8
0
  6
Continuous
 62
     7
370
    15
100
AcDbLine
 10
8.9639468465
 20
3.9072303521
 30
0.0
 11
8.9701180227
 21
3.5536838763
 31
0.0
  0
LINE
  5
246
330
1F
100
AcDbEntity
  8
0
  6
Continuous
 62
     7
370
    15
100
AcDbLine
 10
8.8773623917
 20
3.5676838546
 30
0.0
 11
8.8832891966
 21
3.9072303521
 31
0.0
  0
LINE
  5
247
330
1F
100
AcDbEntity
  8
0
  6
Continuous
 62
     7
370
    15
100
AcDbLine
 10
8.9581518591
 20
4.2392248502
 30
0.0
 11
8.9639468465
 21
3.9072303521
 31
0.0
  0
ARC
  5
248
330
1F
100
AcDbEntity
  8
0
  6
Continuous
 62
     7
370
    15
100
AcDbCircle
 10
8.9271565799
 20
4.2386838678
 30
0.0
 40
0.0310000000000006
100
AcDbArc
 50
1.0
 51
90.0
  0
LINE
  5
249
330
1F
100
AcDbEntity
  8
0
  6
Continuous
 62
     7
370
    15
100
AcDbLine
 10
8.9200794633
 20
4.2696839383
 30
0.0
 11
8.9271565798
 21
4.2696839383
 31
0.0
  0
LINE
  5
24A
330
1F
100
AcDbEntity
  8
0
  6
Continuous
 62
     7
370
    15
100
AcDbLine
 10
8.8832891966
 20
3.9072303521
 30
0.0
 11
8.889084184
 21
4.2392248502
 31
0.0
  0
ARC
  5
24B
330
1F
100
AcDbEntity
  8
0
  6
Continuous
 62
     7
370
    15
100
AcDbCircle
 10
8.9200794632
 20
4.2386838678
 30
0.0
 40
0.0310000000000007
100
AcDbArc
 50
90.0
 51
179.0
  0
LINE
  5
24C
330
1F
100
AcDbEntity
  8
0
  6
Continuous
 62
     7
370
    15
100
AcDbLine
 10
8.6461180306
 20
3.536683866
 30
0.0
 11
8.6461180306
 21
3.5676838546
 31
0.0
  0
LINE
  5
24D
330
1F
100
AcDbEntity
  8
0
  6
Continuous
 62
     7
370
    15
100
AcDbLine
 10
8.7420419091
 20
3.5676838546
 30
0.0
 11
8.7161181053
 21
3.5676838546
 31
0.0
  0
LINE
  5
24E
330
1F
100
AcDbEntity
  8
0
  6
Continuous
 62
     7
370
    15
100
AcDbLine
 10
8.6496181352
 20
3.5676838546
 30
0.0
 11
8.6461180306
 21
3.5676838546
 31
0.0
  0
LINE
  5
24F
330
1F
100
AcDbEntity
  8
0
  6
Continuous
 62
     7
370
    15
100
AcDbLine
 10
8.3261180139
 20
3.536683866
 30
0.0
 11
8.3261180139
 21
3.5676838546
 31
0.0
  0
LINE
  5
250
330
1F
100
AcDbEntity
  8
0
  6
Continuous
 62
     7
370
    15
100
AcDbLine
 10
8.3261180139
 20
3.5676838546
 30
0.0
 11
8.3236179261
 21
3.5676838546
 31
0.0
  0
LINE
  5
251
330
1F
100
AcDbEntity
  8
0
  6
Continuous
 62
     7
370
    15
100
AcDbLine
 10
8.2571179743
 20
3.5676838546
 30
0.0
 11
8.2311941338
 21
3.5676838546
 31
0.0
  0
LINE
  5
252
330
1F
100
AcDbEntity
  8
0
  6
Continuous
 62
     7
370
    15
100
AcDbLine
 10
8.6461180306
 20
3.5676838546
 30
0.0
 11
8.6022036779
 21
3.5676838546
 31
0.0
  0
LINE
  5
253
330
1F
100
AcDbEntity
  8
0
  6
Continuous
 62
     7
370
    15
100
AcDbLine
 10
8.3710323651
 20
3.5676838546
 30
0.0
 11
8.3261180139
 21
3.5676838546
 31
0.0
  0
LINE
  5
254
330
1F
100
AcDbEntity
  8
0
  6
Continuous
 62
     7
370
    15
100
AcDbLine
 10
5.5399535005
 20
6.7559717313
 30
0.0
 11
5.0399534699
 21
6.7559717313
 31
0.0
  0
LINE
  5
255
330
1F
100
AcDbEntity
  8
0
  6
Continuous
 62
     7
370
    15
100
AcDbLine
 10
5.0399534699
 20
6.1238264781
 30
0.0
 11
5.5399535005
 21
6.1238264781
 31
0.0
  0
LINE
  5
256
330
1F
100
AcDbEntity
  8
0
  6
Continuous
 62
     7
370
    15
100
AcDbLine
 10
4.0149534841
 20
6.7559717313
 30
0.0
 11
3.5149534535
 21
6.7559717313
 31
0.0
  0
LINE
  5
257
330
1F
100
AcDbEntity
  8
0
  6
Continuous
 62
     7
370
    15
100
AcDbLine
 10
3.5149534535
 20
6.1238264781
 30
0.0
 11
4.0149534841
 21
6.1238264781
 31
0.0
  0
LINE
  5
258
330
1F
100
AcDbEntity
  8
0
  6
Continuous
 62
     7
370
    15
100
AcDbLine
 10
5.4349534801
 20
6.6398991197
 30
0.0
 11
5.5649534984
 21
6.6398991197
 31
0.0
  0
LINE
  5
259
330
1F
100
AcDbEntity
  8
0
  6
Continuous
 62
     7
370
    15
100
AcDbLine
 10
5.0399534699
 20
6.6398991197
 30
0.0
 11
5.3549534576
 21
6.6398991197
 31
0.0
  0
LINE
  5
25A
330
1F
100
AcDbEntity
  8
0
  6
Continuous
 62
     7
370
    15
100
AcDbLine
 10
5.5649534984
 20
6.2398991172
 30
0.0
 11
5.4349534801
 21
6.2398991172
 31
0.0
  0
LINE
  5
25B
330
1F
100
AcDbEntity
  8
0
  6
Continuous
 62
     7
370
    15
100
AcDbLine
 10
5.3549534576
 20
6.2398991172
 30
0.0
 11
5.0399534699
 21
6.2398991172
 31
0.0
  0
LINE
  5
25C
330
1F
100
AcDbEntity
  8
0
  6
Continuous
 62
     7
370
    15
100
AcDbLine
 10
5.5649534984
 20
6.5918841427
 30
0.0
 11
5.6099534652
 21
6.5918841427
 31
0.0
  0
LINE
  5
25D
330
1F
100
AcDbEntity
  8
0
  6
Continuous
 62
     7
370
    15
100
AcDbLine
 10
5.6099534652
 20
6.2879140759
 30
0.0
 11
5.5649534984
 21
6.2879140759
 31
0.0
  0
LINE
  5
25E
330
1F
100
AcDbEntity
  8
0
  6
Continuous
 62
     7
370
    15
100
AcDbLine
 10
3.4899534556
 20
6.6398991197
 30
0.0
 11
3.6199534738
 21
6.6398991197
 31
0.0
  0
LINE
  5
25F
330
1F
100
AcDbEntity
  8
0
  6
Continuous
 62
     7
370
    15
100
AcDbLine
 10
3.6999534963
 20
6.6398991197
 30
0.0
 11
4.0149534841
 21
6.6398991197
 31
0.0
  0
LINE
  5
260
330
1F
100
AcDbEntity
  8
0
  6
Continuous
 62
     7
370
    15
100
AcDbLine
 10
4.0149534841
 20
6.2398991172
 30
0.0
 11
3.6999534963
 21
6.2398991172
 31
0.0
  0
LINE
  5
261
330
1F
100
AcDbEntity
  8
0
  6
Continuous
 62
     7
370
    15
100
AcDbLine
 10
3.6199534738
 20
6.2398991172
 30
0.0
 11
3.4899534556
 21
6.2398991172
 31
0.0
  0
LINE
  5
262
330
1F
100
AcDbEntity
  8
0
  6
Continuous
 62
     7
370
    15
100
AcDbLine
 10
3.4449534888
 20
6.5918841427
 30
0.0
 11
3.4899534556
 21
6.5918841427
 31
0.0
  0
LINE
  5
263
330
1F
100
AcDbEntity
  8
0
  6
Continuous
 62
     7
370
    15
100
AcDbLine
 10
3.4899534556
 20
6.2879140759
 30
0.0
 11
3.4449534888
 21
6.2879140759
 31
0.0
  0
ARC
  5
264
330
1F
100
AcDbEntity
  8
0
  6
Continuous
 62
     7
370
    15
100
AcDbCircle
 10
3.2127654366
 20
6.7047233364
 30
0.0
 40
0.7267868426345568
100
AcDbArc
 50
334.6457684765
 51
336.539681172
  0
ARC
  5
265
330
1F
100
AcDbEntity
  8
0
  6
Continuous
 62
     7
370
    15
100
AcDbCircle
 10
3.5900817904
 20
7.0821942486
 30
0.0
 40
0.7269039689407272
100
AcDbArc
 50
293.4603923869
 51
295.3539986934
  0
ARC
  5
266
330
1F
100
AcDbEntity
  8
0
  6
Continuous
 62
     7
370
    15
100
AcDbCircle
 10
3.8656013536
 20
6.9939687664
 30
0.0
 40
0.5697851449324628
100
AcDbArc
 50
273.5970462819
 51
275.848298537
  0
ARC
  5
267
330
1F
100
AcDbEntity
  8
0
  6
Continuous
 62
     7
370
    15
100
AcDbCircle
 10
3.855453477
 20
6.4393991185
 30
0.0
 40
0.0692974081851048
100
AcDbArc
 50
349.8181800338
 51
10.1818199662
  0
ARC
  5
268
330
1F
100
AcDbEntity
  8
0
  6
Continuous
 62
     7
370
    15
100
AcDbCircle
 10
3.8656117364
 20
5.8849438413
 30
0.0
 40
0.5696703129867795
100
AcDbArc
 50
84.1515682112
 51
86.4032740197
  0
ARC
  5
269
330
1F
100
AcDbEntity
  8
0
  6
Continuous
 62
     7
370
    15
100
AcDbCircle
 10
3.5901424124
 20
5.7967400116
 30
0.0
 40
0.7267550568409802
100
AcDbArc
 50
64.6457270561
 51
66.5397225925
  0
ARC
  5
26A
330
1F
100
AcDbEntity
  8
0
  6
Continuous
 62
     7
370
    15
100
AcDbCircle
 10
3.2127654366
 20
6.174074902
 30
0.0
 40
0.7267868426345414
100
AcDbArc
 50
23.460318828
 51
25.3542315235
  0
ARC
  5
26B
330
1F
100
AcDbEntity
  8
0
  6
Continuous
 62
     7
370
    15
100
AcDbCircle
 10
3.300957628
 20
6.4495531733
 30
0.0
 40
0.5697110831804372
100
AcDbArc
 50
3.5968903688
 51
5.8484389973
  0
ARC
  5
26C
330
1F
100
AcDbEntity
  8
0
  6
Continuous
 62
     7
370
    15
100
AcDbCircle
 10
3.855453477
 20
6.4393991185
 30
0.0
 40
0.0692974081851045
100
AcDbArc
 50
79.8181800338
 51
100.1818199662
  0
ARC
  5
26D
330
1F
100
AcDbEntity
  8
0
  6
Continuous
 62
     7
370
    15
100
AcDbCircle
 10
4.4098920769
 20
6.4495597682
 30
0.0
 40
0.5696535005751611
100
AcDbArc
 50
174.151634544
 51
176.403410189
  0
ARC
  5
26E
330
1F
100
AcDbEntity
  8
0
  6
Continuous
 62
     7
370
    15
100
AcDbCircle
 10
4.4979930304
 20
6.1741422962
 30
0.0
 40
0.7266237696858868
100
AcDbArc
 50
154.6455559359
 51
156.5398937126
  0
ARC
  5
26F
330
1F
100
AcDbEntity
  8
0
  6
Continuous
 62
     7
370
    15
100
AcDbCircle
 10
4.1207234383
 20
5.7968306645
 30
0.0
 40
0.7266555208613992
100
AcDbArc
 50
113.4601476776
 51
115.3544026738
  0
ARC
  5
270
330
1F
100
AcDbEntity
  8
0
  6
Continuous
 62
     7
370
    15
100
AcDbCircle
 10
3.845296141
 20
5.8849319044
 30
0.0
 40
0.5696822821791675
100
AcDbArc
 50
93.5967400736
 51
95.8484022429
  0
ARC
  5
271
330
1F
100
AcDbEntity
  8
0
  6
Continuous
 62
     7
370
    15
100
AcDbCircle
 10
3.855453477
 20
6.4393991185
 30
0.0
 40
0.0692974081851041
100
AcDbArc
 50
169.8181800338
 51
190.1818199662
  0
ARC
  5
272
330
1F
100
AcDbEntity
  8
0
  6
Continuous
 62
     7
370
    15
100
AcDbCircle
 10
3.8453065241
 20
6.993980707
 30
0.0
 40
0.5697971178773329
100
AcDbArc
 50
264.1517310073
 51
266.4029396266
  0
ARC
  5
273
330
1F
100
AcDbEntity
  8
0
  6
Continuous
 62
     7
370
    15
100
AcDbCircle
 10
4.1207840331
 20
7.0821035353
 30
0.0
 40
0.726804366802537
100
AcDbArc
 50
244.6458715438
 51
246.539737376
  0
ARC
  5
274
330
1F
100
AcDbEntity
  8
0
  6
Continuous
 62
     7
370
    15
100
AcDbCircle
 10
4.4979930304
 20
6.7046559422
 30
0.0
 40
0.7266237696859027
100
AcDbArc
 50
203.4601062874
 51
205.3544440641
  0
ARC
  5
275
330
1F
100
AcDbEntity
  8
0
  6
Continuous
 62
     7
370
    15
100
AcDbCircle
 10
4.4098920769
 20
6.4292384703
 30
0.0
 40
0.5696535005751461
100
AcDbArc
 50
183.596589811
 51
185.848365456
  0
ARC
  5
276
330
1F
100
AcDbEntity
  8
0
  6
Continuous
 62
     7
370
    15
100
AcDbCircle
 10
3.855453477
 20
6.4393991185
 30
0.0
 40
0.0692974081851038
100
AcDbArc
 50
259.8181800338
 51
280.1818199662
  0
ARC
  5
277
330
1F
100
AcDbEntity
  8
0
  6
Continuous
 62
     7
370
    15
100
AcDbCircle
 10
3.300957628
 20
6.4292450652
 30
0.0
 40
0.5697110831804216
100
AcDbArc
 50
354.1515610027
 51
356.4031096312
  0
LINE
  5
278
330
1F
100
AcDbEntity
  8
0
  6
Continuous
 62
     7
370
    15
100
AcDbLine
 10
3.8757021327
 20
6.4596477953
 30
0.0
 11
3.8794731825
 21
6.4634188084
 31
0.0
  0
LINE
  5
279
330
1F
100
AcDbEntity
  8
0
  6
Continuous
 62
     7
370
    15
100
AcDbLine
 10
3.8757021327
 20
6.4596477953
 30
0.0
 11
3.8654189382
 21
6.4844737385
 31
0.0
  0
LINE
  5
27A
330
1F
100
AcDbEntity
  8
0
  6
Continuous
 62
     7
370
    15
100
AcDbLine
 10
3.8654189382
 20
6.4844737385
 30
0.0
 11
3.8695464572
 21
6.485294769
 31
0.0
  0
LINE
  5
27B
330
1F
100
AcDbEntity
  8
0
  6
Continuous
 62
     7
370
    15
100
AcDbLine
 10
3.8454880484
 20
6.4844737385
 30
0.0
 11
3.8413605295
 21
6.485294769
 31
0.0
  0
LINE
  5
27C
330
1F
100
AcDbEntity
  8
0
  6
Continuous
 62
     7
370
    15
100
AcDbLine
 10
3.8454880484
 20
6.4844737385
 30
0.0
 11
3.8352047806
 21
6.4596477953
 31
0.0
  0
LINE
  5
27D
330
1F
100
AcDbEntity
  8
0
  6
Continuous
 62
     7
370
    15
100
AcDbLine
 10
3.8352047806
 20
6.4596477953
 30
0.0
 11
3.8314338041
 21
6.4634188084
 31
0.0
  0
LINE
  5
27E
330
1F
100
AcDbEntity
  8
0
  6
Continuous
 62
     7
370
    15
100
AcDbLine
 10
3.8352047806
 20
6.4596477953
 30
0.0
 11
3.810378874
 21
6.4493645641
 31
0.0
  0
LINE
  5
27F
330
1F
100
AcDbEntity
  8
0
  6
Continuous
 62
     7
370
    15
100
AcDbLine
 10
3.810378874
 20
6.4493645641
 30
0.0
 11
3.8095578435
 21
6.4534920831
 31
0.0
  0
LINE
  5
280
330
1F
100
AcDbEntity
  8
0
  6
Continuous
 62
     7
370
    15
100
AcDbLine
 10
3.810378874
 20
6.4294336743
 30
0.0
 11
3.8095578435
 21
6.4253061187
 31
0.0
  0
LINE
  5
281
330
1F
100
AcDbEntity
  8
0
  6
Continuous
 62
     7
370
    15
100
AcDbLine
 10
3.810378874
 20
6.4294336743
 30
0.0
 11
3.8352047806
 21
6.4191504431
 31
0.0
  0
LINE
  5
282
330
1F
100
AcDbEntity
  8
0
  6
Continuous
 62
     7
370
    15
100
AcDbLine
 10
3.8352047806
 20
6.4191504431
 30
0.0
 11
3.8314338041
 21
6.41537943
 31
0.0
  0
LINE
  5
283
330
1F
100
AcDbEntity
  8
0
  6
Continuous
 62
     7
370
    15
100
AcDbLine
 10
3.8757021327
 20
6.4191504431
 30
0.0
 11
3.8794731825
 21
6.41537943
 31
0.0
  0
LINE
  5
284
330
1F
100
AcDbEntity
  8
0
  6
Continuous
 62
     7
370
    15
100
AcDbLine
 10
3.8757021327
 20
6.4191504431
 30
0.0
 11
3.9005281126
 21
6.4294336743
 31
0.0
  0
LINE
  5
285
330
1F
100
AcDbEntity
  8
0
  6
Continuous
 62
     7
370
    15
100
AcDbLine
 10
3.9005281126
 20
6.4294336743
 30
0.0
 11
3.9013491431
 21
6.4253061187
 31
0.0
  0
LINE
  5
286
330
1F
100
AcDbEntity
  8
0
  6
Continuous
 62
     7
370
    15
100
AcDbLine
 10
3.9005281126
 20
6.4493645641
 30
0.0
 11
3.9013491431
 21
6.4534920831
 31
0.0
  0
LINE
  5
287
330
1F
100
AcDbEntity
  8
0
  6
Continuous
 62
     7
370
    15
100
AcDbLine
 10
3.9005281126
 20
6.4493645641
 30
0.0
 11
3.8757021327
 21
6.4596477953
 31
0.0
  0
LINE
  5
288
330
1F
100
AcDbEntity
  8
0
  6
Continuous
 62
     7
370
    15
100
AcDbLine
 10
3.8654189382
 20
6.3943244999
 30
0.0
 11
3.8695464572
 21
6.3935034694
 31
0.0
  0
LINE
  5
289
330
1F
100
AcDbEntity
  8
0
  6
Continuous
 62
     7
370
    15
100
AcDbLine
 10
3.8654189382
 20
6.3943244999
 30
0.0
 11
3.8757021327
 21
6.4191504431
 31
0.0
  0
LINE
  5
28A
330
1F
100
AcDbEntity
  8
0
  6
Continuous
 62
     7
370
    15
100
AcDbLine
 10
3.8352047806
 20
6.4191504431
 30
0.0
 11
3.8454880484
 21
6.3943244999
 31
0.0
  0
LINE
  5
28B
330
1F
100
AcDbEntity
  8
0
  6
Continuous
 62
     7
370
    15
100
AcDbLine
 10
3.8454880484
 20
6.3943244999
 30
0.0
 11
3.8413605295
 21
6.3935034694
 31
0.0
  0
LINE
  5
28C
330
1F
100
AcDbEntity
  8
0
  6
Continuous
 62
     7
370
    15
100
AcDbLine
 10
3.8454880484
 20
6.5018652709
 30
0.0
 11
3.8432035948
 21
6.5076052246
 31
0.0
  0
LINE
  5
28D
330
1F
100
AcDbEntity
  8
0
  6
Continuous
 62
     7
370
    15
100
AcDbLine
 10
3.8454880484
 20
6.5018652709
 30
0.0
 11
3.8454880484
 21
6.4844737385
 31
0.0
  0
LINE
  5
28E
330
1F
100
AcDbEntity
  8
0
  6
Continuous
 62
     7
370
    15
100
AcDbLine
 10
3.8654189382
 20
6.4844737385
 30
0.0
 11
3.8654189382
 21
6.5018652709
 31
0.0
  0
SPLINE
  5
28F
330
1F
100
AcDbEntity
  8
0
  6
Continuous
 62
     7
370
    15
100
AcDbSpline
210
0.0
220
0.0
230
1.0
 70
     8
 71
     3
 72
     9
 73
     5
 74
     0
 42
0.00000001
 43
0.00000001
 12
1.0
 22
0.0
 32
0.0
 13
1.0
 23
0.0
 33
0.0
 40
0.0
 40
0.0
 40
0.0
 40
0.0
 40
0.5243051398498907
 40
1.0
 40
1.0
 40
1.0
 40
1.0
 10
3.865418938196173
 20
6.501865270934277
 30
0.0
 10
3.865818075941787
 20
6.502869800707423
 30
0.0
 10
3.866579345888002
 20
6.504785726562035
 30
0.0
 10
3.867341002390192
 20
6.506696350594106
 30
0.0
 10
3.867703318473484
 20
6.507605224625843
 30
0.0
  0
LINE
  5
290
330
1F
100
AcDbEntity
  8
0
  6
Continuous
 62
     7
370
    15
100
AcDbLine
 10
3.810378874
 20
6.4493645641
 30
0.0
 11
3.7929873416
 21
6.4493645641
 31
0.0
  0
SPLINE
  5
291
330
1F
100
AcDbEntity
  8
0
  6
Continuous
 62
     7
370
    15
100
AcDbSpline
210
0.0
220
0.0
230
1.0
 70
     8
 71
     3
 72
     9
 73
     5
 74
     0
 42
0.00000001
 43
0.00000001
 12
1.0
 22
0.0
 32
0.0
 13
1.0
 23
0.0
 33
0.0
 40
0.0
 40
0.0
 40
0.0
 40
0.0
 40
0.5243049266429061
 40
1.0
 40
1.0
 40
1.0
 40
1.0
 10
3.792987341598825
 20
6.44936456409359
 30
0.0
 10
3.791982811601287
 20
6.449763698397242
 30
0.0
 10
3.790066884539586
 20
6.450524962088217
 30
0.0
 10
3.788156261753598
 20
6.451286649898403
 30
0.0
 10
3.787247387907259
 20
6.451648981037144
 30
0.0
  0
LINE
  5
292
330
1F
100
AcDbEntity
  8
0
  6
Continuous
 62
     7
370
    15
100
AcDbLine
 10
3.9005281126
 20
6.4294336743
 30
0.0
 11
3.9179196084
 21
6.4294336743
 31
0.0
  0
SPLINE
  5
293
330
1F
100
AcDbEntity
  8
0
  6
Continuous
 62
     7
370
    15
100
AcDbSpline
210
0.0
220
0.0
230
1.0
 70
     8
 71
     3
 72
     9
 73
     5
 74
     0
 42
0.00000001
 43
0.00000001
 12
1.0
 22
0.0
 32
0.0
 13
1.0
 23
0.0
 33
0.0
 40
0.0
 40
0.0
 40
0.0
 40
0.0
 40
0.5243059481318717
 40
1.0
 40
1.0
 40
1.0
 40
1.0
 10
3.917919608370618
 20
6.429433674336929
 30
0.0
 10
3.918924156250685
 20
6.429034540462098
 30
0.0
 10
3.920840113686694
 20
6.428273279072153
 30
0.0
 10
3.92275070509412
 20
6.427511588884844
 30
0.0
 10
3.923659562062183
 20
6.427149257393375
 30
0.0
  0
LINE
  5
294
330
1F
100
AcDbEntity
  8
0
  6
Continuous
 62
     7
370
    15
100
AcDbLine
 10
3.7929873416
 20
6.4294336743
 30
0.0
 11
3.7872473879
 21
6.4271492574
 31
0.0
  0
LINE
  5
295
330
1F
100
AcDbEntity
  8
0
  6
Continuous
 62
     7
370
    15
100
AcDbLine
 10
3.7929873416
 20
6.4294336743
 30
0.0
 11
3.810378874
 21
6.4294336743
 31
0.0
  0
LINE
  5
296
330
1F
100
AcDbEntity
  8
0
  6
Continuous
 62
     7
370
    15
100
AcDbLine
 10
3.8654189382
 20
6.3769329675
 30
0.0
 11
3.8677033185
 21
6.3711930138
 31
0.0
  0
LINE
  5
297
330
1F
100
AcDbEntity
  8
0
  6
Continuous
 62
     7
370
    15
100
AcDbLine
 10
3.8654189382
 20
6.3769329675
 30
0.0
 11
3.8654189382
 21
6.3943244999
 31
0.0
  0
LINE
  5
298
330
1F
100
AcDbEntity
  8
0
  6
Continuous
 62
     7
370
    15
100
AcDbLine
 10
3.9179196084
 20
6.4493645641
 30
0.0
 11
3.9236595621
 21
6.451648981
 31
0.0
  0
LINE
  5
299
330
1F
100
AcDbEntity
  8
0
  6
Continuous
 62
     7
370
    15
100
AcDbLine
 10
3.9179196084
 20
6.4493645641
 30
0.0
 11
3.9005281126
 21
6.4493645641
 31
0.0
  0
LINE
  5
29A
330
1F
100
AcDbEntity
  8
0
  6
Continuous
 62
     7
370
    15
100
AcDbLine
 10
3.8454880484
 20
6.3943244999
 30
0.0
 11
3.8454880484
 21
6.3769329675
 31
0.0
  0
SPLINE
  5
29B
330
1F
100
AcDbEntity
  8
0
  6
Continuous
 62
     7
370
    15
100
AcDbSpline
210
0.0
220
0.0
230
1.0
 70
     8
 71
     3
 72
     9
 73
     5
 74
     0
 42
0.00000001
 43
0.00000001
 12
1.0
 22
0.0
 32
0.0
 13
1.0
 23
0.0
 33
0.0
 40
0.0
 40
0.0
 40
0.0
 40
0.0
 40
0.5243047134290845
 40
1.0
 40
1.0
 40
1.0
 40
1.0
 10
3.845488048439512
 20
6.376932967496241
 30
0.0
 10
3.84508891757781
 20
6.375928437274303
 30
0.0
 10
3.844327660142048
 20
6.374012509005475
 30
0.0
 10
3.843565941023907
 20
6.372101887465611
 30
0.0
 10
3.843203594829716
 20
6.371193013804676
 30
0.0
  0
ARC
  5
29C
330
1F
100
AcDbEntity
  8
0
  6
Continuous
 62
     7
370
    15
100
AcDbCircle
 10
3.855453477
 20
6.4393991185
 30
0.0
 40
0.0632560523863222
100
AcDbArc
 50
80.9357988327
 51
99.0642011673
  0
ARC
  5
29D
330
1F
100
AcDbEntity
  8
0
  6
Continuous
 62
     7
370
    15
100
AcDbCircle
 10
3.855453477
 20
6.4393991185
 30
0.0
 40
0.0632560523863217
100
AcDbArc
 50
170.9357988327
 51
189.0642011673
  0
ARC
  5
29E
330
1F
100
AcDbEntity
  8
0
  6
Continuous
 62
     7
370
    15
100
AcDbCircle
 10
3.855453477
 20
6.4393991185
 30
0.0
 40
0.063256052386322
100
AcDbArc
 50
350.9357988327
 51
9.0642011673
  0
ARC
  5
29F
330
1F
100
AcDbEntity
  8
0
  6
Continuous
 62
     7
370
    15
100
AcDbCircle
 10
3.855453477
 20
6.4393991185
 30
0.0
 40
0.0632560523863213
100
AcDbArc
 50
260.9357988327
 51
279.0642011673
  0
CIRCLE
  5
2A0
330
1F
100
AcDbEntity
  8
0
  6
Continuous
 62
     7
370
    15
100
AcDbCircle
 10
3.855453477
 20
6.4393991185
 30
0.0
 40
0.1175000000000002
  0
ARC
  5
2A1
330
1F
100
AcDbEntity
  8
0
  6
Continuous
 62
     7
370
    15
100
AcDbCircle
 10
4.5569139235
 20
6.7046559422
 30
0.0
 40
0.7266237696876776
100
AcDbArc
 50
334.6455559359
 51
336.5398937126
  0
ARC
  5
2A2
330
1F
100
AcDbEntity
  8
0
  6
Continuous
 62
     7
370
    15
100
AcDbCircle
 10
4.9341229209
 20
7.0821035353
 30
0.0
 40
0.72680436680221
100
AcDbArc
 50
293.460262624
 51
295.3541284562
  0
ARC
  5
2A3
330
1F
100
AcDbEntity
  8
0
  6
Continuous
 62
     7
370
    15
100
AcDbCircle
 10
5.2096004299
 20
6.993980707
 30
0.0
 40
0.5697971178773543
100
AcDbArc
 50
273.5970603734
 51
275.8482689927
  0
ARC
  5
2A4
330
1F
100
AcDbEntity
  8
0
  6
Continuous
 62
     7
370
    15
100
AcDbCircle
 10
5.199453477
 20
6.4393991185
 30
0.0
 40
0.0692974081851047
100
AcDbArc
 50
349.8181800338
 51
10.1818199662
  0
ARC
  5
2A5
330
1F
100
AcDbEntity
  8
0
  6
Continuous
 62
     7
370
    15
100
AcDbCircle
 10
5.209610813
 20
5.8849319044
 30
0.0
 40
0.5696822821791881
100
AcDbArc
 50
84.1515977571
 51
86.4032599264
  0
ARC
  5
2A6
330
1F
100
AcDbEntity
  8
0
  6
Continuous
 62
     7
370
    15
100
AcDbCircle
 10
4.9341835157
 20
5.7968306645
 30
0.0
 40
0.7266555208610721
100
AcDbArc
 50
64.6455973262
 51
66.5398523224
  0
ARC
  5
2A7
330
1F
100
AcDbEntity
  8
0
  6
Continuous
 62
     7
370
    15
100
AcDbCircle
 10
4.5569139235
 20
6.1741422962
 30
0.0
 40
0.7266237696876613
100
AcDbArc
 50
23.4601062874
 51
25.3544440641
  0
ARC
  5
2A8
330
1F
100
AcDbEntity
  8
0
  6
Continuous
 62
     7
370
    15
100
AcDbCircle
 10
4.6450148771
 20
6.4495597682
 30
0.0
 40
0.5696535005741401
100
AcDbArc
 50
3.596589811
 51
5.848365456
  0
ARC
  5
2A9
330
1F
100
AcDbEntity
  8
0
  6
Continuous
 62
     7
370
    15
100
AcDbCircle
 10
5.199453477
 20
6.4393991185
 30
0.0
 40
0.0692974081851038
100
AcDbArc
 50
79.8181800338
 51
100.1818199662
  0
ARC
  5
2AA
330
1F
100
AcDbEntity
  8
0
  6
Continuous
 62
     7
370
    15
100
AcDbCircle
 10
5.7539493259
 20
6.4495531733
 30
0.0
 40
0.5697110831769838
100
AcDbArc
 50
174.1515610027
 51
176.4031096312
  0
ARC
  5
2AB
330
1F
100
AcDbEntity
  8
0
  6
Continuous
 62
     7
370
    15
100
AcDbCircle
 10
5.8421415174
 20
6.174074902
 30
0.0
 40
0.7267868426332501
100
AcDbArc
 50
154.6457684765
 51
156.539681172
  0
ARC
  5
2AC
330
1F
100
AcDbEntity
  8
0
  6
Continuous
 62
     7
370
    15
100
AcDbCircle
 10
5.4647645415
 20
5.7967400116
 30
0.0
 40
0.7267550568399053
100
AcDbArc
 50
113.4602774075
 51
115.3542729439
  0
ARC
  5
2AD
330
1F
100
AcDbEntity
  8
0
  6
Continuous
 62
     7
370
    15
100
AcDbCircle
 10
5.1892952176
 20
5.8849438413
 30
0.0
 40
0.5696703129867866
100
AcDbArc
 50
93.5967259803
 51
95.8484317888
  0
ARC
  5
2AE
330
1F
100
AcDbEntity
  8
0
  6
Continuous
 62
     7
370
    15
100
AcDbCircle
 10
5.199453477
 20
6.4393991185
 30
0.0
 40
0.0692974081851038
100
AcDbArc
 50
169.8181800338
 51
190.1818199662
  0
ARC
  5
2AF
330
1F
100
AcDbEntity
  8
0
  6
Continuous
 62
     7
370
    15
100
AcDbCircle
 10
5.1893056004
 20
6.9939687664
 30
0.0
 40
0.5697851449324726
100
AcDbArc
 50
264.151701463
 51
266.4029537181
  0
ARC
  5
2B0
330
1F
100
AcDbEntity
  8
0
  6
Continuous
 62
     7
370
    15
100
AcDbCircle
 10
5.4648251635
 20
7.0821942486
 30
0.0
 40
0.7269039689396516
100
AcDbArc
 50
244.6460013066
 51
246.5396076131
  0
ARC
  5
2B1
330
1F
100
AcDbEntity
  8
0
  6
Continuous
 62
     7
370
    15
100
AcDbCircle
 10
5.8421415174
 20
6.7047233364
 30
0.0
 40
0.7267868426332653
100
AcDbArc
 50
203.460318828
 51
205.3542315235
  0
ARC
  5
2B2
330
1F
100
AcDbEntity
  8
0
  6
Continuous
 62
     7
370
    15
100
AcDbCircle
 10
5.7539493259
 20
6.4292450652
 30
0.0
 40
0.5697110831769686
100
AcDbArc
 50
183.5968903688
 51
185.8484389973
  0
ARC
  5
2B3
330
1F
100
AcDbEntity
  8
0
  6
Continuous
 62
     7
370
    15
100
AcDbCircle
 10
5.199453477
 20
6.4393991185
 30
0.0
 40
0.0692974081851047
100
AcDbArc
 50
259.8181800338
 51
280.1818199662
  0
ARC
  5
2B4
330
1F
100
AcDbEntity
  8
0
  6
Continuous
 62
     7
370
    15
100
AcDbCircle
 10
4.6450148771
 20
6.4292384703
 30
0.0
 40
0.569653500574124
100
AcDbArc
 50
354.151634544
 51
356.403410189
  0
LINE
  5
2B5
330
1F
100
AcDbEntity
  8
0
  6
Continuous
 62
     7
370
    15
100
AcDbLine
 10
5.2197021734
 20
6.4596477953
 30
0.0
 11
5.2234731498
 21
6.4634188084
 31
0.0
  0
LINE
  5
2B6
330
1F
100
AcDbEntity
  8
0
  6
Continuous
 62
     7
370
    15
100
AcDbLine
 10
5.2197021734
 20
6.4596477953
 30
0.0
 11
5.2094189055
 21
6.4844737385
 31
0.0
  0
LINE
  5
2B7
330
1F
100
AcDbEntity
  8
0
  6
Continuous
 62
     7
370
    15
100
AcDbLine
 10
5.2094189055
 20
6.4844737385
 30
0.0
 11
5.2135464245
 21
6.485294769
 31
0.0
  0
LINE
  5
2B8
330
1F
100
AcDbEntity
  8
0
  6
Continuous
 62
     7
370
    15
100
AcDbLine
 10
5.1894880158
 20
6.4844737385
 30
0.0
 11
5.1853604968
 21
6.485294769
 31
0.0
  0
LINE
  5
2B9
330
1F
100
AcDbEntity
  8
0
  6
Continuous
 62
     7
370
    15
100
AcDbLine
 10
5.1894880158
 20
6.4844737385
 30
0.0
 11
5.1792048212
 21
6.4596477953
 31
0.0
  0
LINE
  5
2BA
330
1F
100
AcDbEntity
  8
0
  6
Continuous
 62
     7
370
    15
100
AcDbLine
 10
5.1792048212
 20
6.4596477953
 30
0.0
 11
5.1754337715
 21
6.4634188084
 31
0.0
  0
LINE
  5
2BB
330
1F
100
AcDbEntity
  8
0
  6
Continuous
 62
     7
370
    15
100
AcDbLine
 10
5.2197021734
 20
6.4191504431
 30
0.0
 11
5.2234731498
 21
6.41537943
 31
0.0
  0
LINE
  5
2BC
330
1F
100
AcDbEntity
  8
0
  6
Continuous
 62
     7
370
    15
100
AcDbLine
 10
5.2197021734
 20
6.4191504431
 30
0.0
 11
5.2445280799
 21
6.4294336743
 31
0.0
  0
LINE
  5
2BD
330
1F
100
AcDbEntity
  8
0
  6
Continuous
 62
     7
370
    15
100
AcDbLine
 10
5.2445280799
 20
6.4294336743
 30
0.0
 11
5.2453491105
 21
6.4253061187
 31
0.0
  0
LINE
  5
2BE
330
1F
100
AcDbEntity
  8
0
  6
Continuous
 62
     7
370
    15
100
AcDbLine
 10
5.1792048212
 20
6.4596477953
 30
0.0
 11
5.1543788414
 21
6.4493645641
 31
0.0
  0
LINE
  5
2BF
330
1F
100
AcDbEntity
  8
0
  6
Continuous
 62
     7
370
    15
100
AcDbLine
 10
5.1543788414
 20
6.4493645641
 30
0.0
 11
5.1535578108
 21
6.4534920831
 31
0.0
  0
LINE
  5
2C0
330
1F
100
AcDbEntity
  8
0
  6
Continuous
 62
     7
370
    15
100
AcDbLine
 10
5.2445280799
 20
6.4493645641
 30
0.0
 11
5.2453491105
 21
6.4534920831
 31
0.0
  0
LINE
  5
2C1
330
1F
100
AcDbEntity
  8
0
  6
Continuous
 62
     7
370
    15
100
AcDbLine
 10
5.2445280799
 20
6.4493645641
 30
0.0
 11
5.2197021734
 21
6.4596477953
 31
0.0
  0
LINE
  5
2C2
330
1F
100
AcDbEntity
  8
0
  6
Continuous
 62
     7
370
    15
100
AcDbLine
 10
5.1543788414
 20
6.4294336743
 30
0.0
 11
5.1535578108
 21
6.4253061187
 31
0.0
  0
LINE
  5
2C3
330
1F
100
AcDbEntity
  8
0
  6
Continuous
 62
     7
370
    15
100
AcDbLine
 10
5.1543788414
 20
6.4294336743
 30
0.0
 11
5.1792048212
 21
6.4191504431
 31
0.0
  0
LINE
  5
2C4
330
1F
100
AcDbEntity
  8
0
  6
Continuous
 62
     7
370
    15
100
AcDbLine
 10
5.1792048212
 20
6.4191504431
 30
0.0
 11
5.1754337715
 21
6.41537943
 31
0.0
  0
LINE
  5
2C5
330
1F
100
AcDbEntity
  8
0
  6
Continuous
 62
     7
370
    15
100
AcDbLine
 10
5.2094189055
 20
6.3943244999
 30
0.0
 11
5.2135464245
 21
6.3935034694
 31
0.0
  0
LINE
  5
2C6
330
1F
100
AcDbEntity
  8
0
  6
Continuous
 62
     7
370
    15
100
AcDbLine
 10
5.2094189055
 20
6.3943244999
 30
0.0
 11
5.2197021734
 21
6.4191504431
 31
0.0
  0
LINE
  5
2C7
330
1F
100
AcDbEntity
  8
0
  6
Continuous
 62
     7
370
    15
100
AcDbLine
 10
5.1792048212
 20
6.4191504431
 30
0.0
 11
5.1894880158
 21
6.3943244999
 31
0.0
  0
LINE
  5
2C8
330
1F
100
AcDbEntity
  8
0
  6
Continuous
 62
     7
370
    15
100
AcDbLine
 10
5.1894880158
 20
6.3943244999
 30
0.0
 11
5.1853604968
 21
6.3935034694
 31
0.0
  0
LINE
  5
2C9
330
1F
100
AcDbEntity
  8
0
  6
Continuous
 62
     7
370
    15
100
AcDbLine
 10
5.1894880158
 20
6.5018652709
 30
0.0
 11
5.1872036355
 21
6.5076052246
 31
0.0
  0
LINE
  5
2CA
330
1F
100
AcDbEntity
  8
0
  6
Continuous
 62
     7
370
    15
100
AcDbLine
 10
5.1894880158
 20
6.5018652709
 30
0.0
 11
5.1894880158
 21
6.4844737385
 31
0.0
  0
LINE
  5
2CB
330
1F
100
AcDbEntity
  8
0
  6
Continuous
 62
     7
370
    15
100
AcDbLine
 10
5.2094189055
 20
6.4844737385
 30
0.0
 11
5.2094189055
 21
6.5018652709
 31
0.0
  0
SPLINE
  5
2CC
330
1F
100
AcDbEntity
  8
0
  6
Continuous
 62
     7
370
    15
100
AcDbSpline
210
0.0
220
0.0
230
1.0
 70
     8
 71
     3
 72
     9
 73
     5
 74
     0
 42
0.00000001
 43
0.00000001
 12
1.0
 22
0.0
 32
0.0
 13
1.0
 23
0.0
 33
0.0
 40
0.0
 40
0.0
 40
0.0
 40
0.0
 40
0.5243047134290845
 40
1.0
 40
1.0
 40
1.0
 40
1.0
 10
5.209418905527196
 20
6.501865270934277
 30
0.0
 10
5.209818036388899
 20
6.502869801156217
 30
0.0
 10
5.210579293824661
 20
6.504785729425045
 30
0.0
 10
5.211341012942802
 20
6.506696350964909
 30
0.0
 10
5.211703359136994
 20
6.507605224625843
 30
0.0
  0
LINE
  5
2CD
330
1F
100
AcDbEntity
  8
0
  6
Continuous
 62
     7
370
    15
100
AcDbLine
 10
5.2445280799
 20
6.4294336743
 30
0.0
 11
5.2619196124
 21
6.4294336743
 31
0.0
  0
SPLINE
  5
2CE
330
1F
100
AcDbEntity
  8
0
  6
Continuous
 62
     7
370
    15
100
AcDbSpline
210
0.0
220
0.0
230
1.0
 70
     8
 71
     3
 72
     9
 73
     5
 74
     0
 42
0.00000001
 43
0.00000001
 12
1.0
 22
0.0
 32
0.0
 13
1.0
 23
0.0
 33
0.0
 40
0.0
 40
0.0
 40
0.0
 40
0.0
 40
0.5243049266429061
 40
1.0
 40
1.0
 40
1.0
 40
1.0
 10
5.261919612367883
 20
6.429433674336929
 30
0.0
 10
5.262924142365422
 20
6.429034540033277
 30
0.0
 10
5.264840069427122
 20
6.428273276342303
 30
0.0
 10
5.266750692213111
 20
6.427511588532117
 30
0.0
 10
5.267659566059448
 20
6.427149257393375
 30
0.0
  0
LINE
  5
2CF
330
1F
100
AcDbEntity
  8
0
  6
Continuous
 62
     7
370
    15
100
AcDbLine
 10
5.2619196124
 20
6.4493645641
 30
0.0
 11
5.2676595661
 21
6.451648981
 31
0.0
  0
LINE
  5
2D0
330
1F
100
AcDbEntity
  8
0
  6
Continuous
 62
     7
370
    15
100
AcDbLine
 10
5.2619196124
 20
6.4493645641
 30
0.0
 11
5.2445280799
 21
6.4493645641
 31
0.0
  0
LINE
  5
2D1
330
1F
100
AcDbEntity
  8
0
  6
Continuous
 62
     7
370
    15
100
AcDbLine
 10
5.1543788414
 20
6.4493645641
 30
0.0
 11
5.1369873456
 21
6.4493645641
 31
0.0
  0
SPLINE
  5
2D2
330
1F
100
AcDbEntity
  8
0
  6
Continuous
 62
     7
370
    15
100
AcDbSpline
210
0.0
220
0.0
230
1.0
 70
     8
 71
     3
 72
     9
 73
     5
 74
     0
 42
0.00000001
 43
0.00000001
 12
1.0
 22
0.0
 32
0.0
 13
1.0
 23
0.0
 33
0.0
 40
0.0
 40
0.0
 40
0.0
 40
0.0
 40
0.5243059481318717
 40
1.0
 40
1.0
 40
1.0
 40
1.0
 10
5.13698734559609
 20
6.44936456409359
 30
0.0
 10
5.135982797716024
 20
6.449763697968422
 30
0.0
 10
5.134066840280014
 20
6.450524959358367
 30
0.0
 10
5.132156248872588
 20
6.451286649545676
 30
0.0
 10
5.131247391904525
 20
6.451648981037144
 30
0.0
  0
LINE
  5
2D3
330
1F
100
AcDbEntity
  8
0
  6
Continuous
 62
     7
370
    15
100
AcDbLine
 10
5.1369873456
 20
6.4294336743
 30
0.0
 11
5.1312473919
 21
6.4271492574
 31
0.0
  0
LINE
  5
2D4
330
1F
100
AcDbEntity
  8
0
  6
Continuous
 62
     7
370
    15
100
AcDbLine
 10
5.1369873456
 20
6.4294336743
 30
0.0
 11
5.1543788414
 21
6.4294336743
 31
0.0
  0
LINE
  5
2D5
330
1F
100
AcDbEntity
  8
0
  6
Continuous
 62
     7
370
    15
100
AcDbLine
 10
5.2094189055
 20
6.3769329675
 30
0.0
 11
5.2117033591
 21
6.3711930138
 31
0.0
  0
LINE
  5
2D6
330
1F
100
AcDbEntity
  8
0
  6
Continuous
 62
     7
370
    15
100
AcDbLine
 10
5.2094189055
 20
6.3769329675
 30
0.0
 11
5.2094189055
 21
6.3943244999
 31
0.0
  0
LINE
  5
2D7
330
1F
100
AcDbEntity
  8
0
  6
Continuous
 62
     7
370
    15
100
AcDbLine
 10
5.1894880158
 20
6.3943244999
 30
0.0
 11
5.1894880158
 21
6.3769329675
 31
0.0
  0
SPLINE
  5
2D8
330
1F
100
AcDbEntity
  8
0
  6
Continuous
 62
     7
370
    15
100
AcDbSpline
210
0.0
220
0.0
230
1.0
 70
     8
 71
     3
 72
     9
 73
     5
 74
     0
 42
0.00000001
 43
0.00000001
 12
1.0
 22
0.0
 32
0.0
 13
1.0
 23
0.0
 33
0.0
 40
0.0
 40
0.0
 40
0.0
 40
0.0
 40
0.5243051398498907
 40
1.0
 40
1.0
 40
1.0
 40
1.0
 10
5.189488015770535
 20
6.376932967496241
 30
0.0
 10
5.189088878024922
 20
6.375928437723097
 30
0.0
 10
5.188327608078707
 20
6.374012511868485
 30
0.0
 10
5.187565951576516
 20
6.372101887836412
 30
0.0
 10
5.187203635493224
 20
6.371193013804676
 30
0.0
  0
ARC
  5
2D9
330
1F
100
AcDbEntity
  8
0
  6
Continuous
 62
     7
370
    15
100
AcDbCircle
 10
5.199453477
 20
6.4393991185
 30
0.0
 40
0.0632560523863221
100
AcDbArc
 50
80.9357988327
 51
99.0642011673
  0
ARC
  5
2DA
330
1F
100
AcDbEntity
  8
0
  6
Continuous
 62
     7
370
    15
100
AcDbCircle
 10
5.199453477
 20
6.4393991185
 30
0.0
 40
0.0632560523863213
100
AcDbArc
 50
350.9357988327
 51
9.0642011673
  0
ARC
  5
2DB
330
1F
100
AcDbEntity
  8
0
  6
Continuous
 62
     7
370
    15
100
AcDbCircle
 10
5.199453477
 20
6.4393991185
 30
0.0
 40
0.0632560523863221
100
AcDbArc
 50
170.9357988327
 51
189.0642011673
  0
ARC
  5
2DC
330
1F
100
AcDbEntity
  8
0
  6
Continuous
 62
     7
370
    15
100
AcDbCircle
 10
5.199453477
 20
6.4393991185
 30
0.0
 40
0.0632560523863221
100
AcDbArc
 50
260.9357988327
 51
279.0642011673
  0
CIRCLE
  5
2DD
330
1F
100
AcDbEntity
  8
0
  6
Continuous
 62
     7
370
    15
100
AcDbCircle
 10
5.199453477
 20
6.4393991185
 30
0.0
 40
0.1174999999999997
  0
ARC
  5
2DE
330
1F
100
AcDbEntity
  8
0
  6
Continuous
 62
     7
370
    15
100
AcDbCircle
 10
3.1703402561
 20
6.4398991185
 30
0.0
 40
0.1474999999999989
100
AcDbArc
 50
99.9553896305
 51
260.0446103695
  0
LINE
  5
2DF
330
1F
100
AcDbEntity
  8
0
  6
Continuous
 62
     7
370
    15
100
AcDbLine
 10
3.144840289
 20
6.2776191114
 30
0.0
 11
3.144840289
 21
6.294620075
 31
0.0
  0
SPLINE
  5
2E0
330
1F
100
AcDbEntity
  8
0
  6
Continuous
 62
     7
370
    15
100
AcDbSpline
210
0.0
220
0.0
230
1.0
 70
    24
 71
     3
 72
     9
 73
     5
 74
     0
 42
0.00000001
 43
0.00000001
 12
1.0
 22
0.0
 32
0.0
 13
1.0
 23
0.0
 33
0.0
 40
0.0
 40
0.0
 40
0.0
 40
0.0
 40
0.6498673791954812
 40
1.0
 40
1.0
 40
1.0
 40
1.0
 10
3.144840289048884
 20
6.585178161829986
 30
0.0
 10
3.144840289048884
 20
6.588878753274945
 30
0.0
 10
3.144840289048884
 20
6.59457313271824
 30
0.0
 10
3.144840289048884
 20
6.600254648875715
 30
0.0
 10
3.144840289048884
 20
6.602243933018074
 30
0.0
  0
SPLINE
  5
2E1
330
1F
100
AcDbEntity
  8
0
  6
Continuous
 62
     7
370
    15
100
AcDbSpline
210
0.0
220
0.0
230
1.0
 70
    24
 71
     3
 72
     9
 73
     5
 74
     0
 42
0.00000001
 43
0.00000001
 12
1.0
 22
0.0
 32
0.0
 13
1.0
 23
0.0
 33
0.0
 40
0.0
 40
0.0
 40
0.0
 40
0.0
 40
0.6507352835262554
 40
1.0
 40
1.0
 40
1.0
 40
1.0
 10
3.195840246559689
 20
6.294620075048465
 30
0.0
 10
3.195840246559689
 20
6.29091948604955
 30
0.0
 10
3.195840246559689
 20
6.285232705122499
 30
0.0
 10
3.19584024655969
 20
6.279558735862759
 30
0.0
 10
3.19584024655969
 20
6.277577018597975
 30
0.0
  0
ARC
  5
2E2
330
1F
100
AcDbEntity
  8
0
  6
Continuous
 62
     7
370
    15
100
AcDbCircle
 10
3.1703402561
 20
6.4398991185
 30
0.0
 40
0.1474999999999989
100
AcDbArc
 50
279.9553896305
 51
80.0446103695
  0
LINE
  5
2E3
330
1F
100
AcDbEntity
  8
0
  6
Continuous
 62
     7
370
    15
100
AcDbLine
 10
3.1958402466
 20
6.6021996219
 30
0.0
 11
3.1958402466
 21
6.5851781618
 31
0.0
  0
LINE
  5
2E4
330
1F
100
AcDbEntity
  8
0
  6
Continuous
 62
     7
370
    15
100
AcDbLine
 10
3.144840289
 20
6.5851781618
 30
0.0
 11
3.144840289
 21
6.294620075
 31
0.0
  0
LINE
  5
2E5
330
1F
100
AcDbEntity
  8
0
  6
Continuous
 62
     7
370
    15
100
AcDbLine
 10
3.1958402466
 20
6.294620075
 30
0.0
 11
3.1958402466
 21
6.5851781618
 31
0.0
  0
SPLINE
  5
2E6
330
1F
100
AcDbEntity
  8
0
  6
Continuous
 62
     7
370
    15
100
AcDbSpline
210
0.0
220
0.0
230
1.0
 70
    24
 71
     3
 72
     9
 73
     5
 74
     0
 42
0.00000001
 43
0.00000001
 12
1.0
 22
0.0
 32
0.0
 13
1.0
 23
0.0
 33
0.0
 40
0.0
 40
0.0
 40
0.0
 40
0.0
 40
0.6507352835262554
 40
1.0
 40
1.0
 40
1.0
 40
1.0
 10
5.85906670740702
 20
6.585178161829986
 30
0.0
 10
5.85906670740702
 20
6.588878750828902
 30
0.0
 10
5.85906670740702
 20
6.594565531755952
 30
0.0
 10
5.859066707407019
 20
6.600239501015693
 30
0.0
 10
5.859066707407019
 20
6.602221218280476
 30
0.0
  0
ARC
  5
2E7
330
1F
100
AcDbEntity
  8
0
  6
Continuous
 62
     7
370
    15
100
AcDbCircle
 10
5.8845666979
 20
6.4398991185
 30
0.0
 40
0.1474999999999992
100
AcDbArc
 50
99.9553896305
 51
260.0446103695
  0
LINE
  5
2E8
330
1F
100
AcDbEntity
  8
0
  6
Continuous
 62
     7
370
    15
100
AcDbLine
 10
5.8590667074
 20
6.277598615
 30
0.0
 11
5.8590667074
 21
6.294620075
 31
0.0
  0
SPLINE
  5
2E9
330
1F
100
AcDbEntity
  8
0
  6
Continuous
 62
     7
370
    15
100
AcDbSpline
210
0.0
220
0.0
230
1.0
 70
    24
 71
     3
 72
     9
 73
     5
 74
     0
 42
0.00000001
 43
0.00000001
 12
1.0
 22
0.0
 32
0.0
 13
1.0
 23
0.0
 33
0.0
 40
0.0
 40
0.0
 40
0.0
 40
0.0
 40
0.649867732465704
 40
1.0
 40
1.0
 40
1.0
 40
1.0
 10
5.910066664917824
 20
6.294620075048465
 30
0.0
 10
5.910066664917824
 20
6.290919481780121
 30
0.0
 10
5.910066664917825
 20
6.285225102626529
 30
0.0
 10
5.910066664917824
 20
6.279543599697162
 30
0.0
 10
5.910066664917824
 20
6.277554322193499
 30
0.0
  0
ARC
  5
2EA
330
1F
100
AcDbEntity
  8
0
  6
Continuous
 62
     7
370
    15
100
AcDbCircle
 10
5.8845666979
 20
6.4398991185
 30
0.0
 40
0.1474999999999986
100
AcDbArc
 50
279.9553896305
 51
80.0446103695
  0
LINE
  5
2EB
330
1F
100
AcDbEntity
  8
0
  6
Continuous
 62
     7
370
    15
100
AcDbLine
 10
5.9100666649
 20
6.6021791438
 30
0.0
 11
5.9100666649
 21
6.5851781618
 31
0.0
  0
LINE
  5
2EC
330
1F
100
AcDbEntity
  8
0
  6
Continuous
 62
     7
370
    15
100
AcDbLine
 10
5.8590667074
 20
6.5851781618
 30
0.0
 11
5.8590667074
 21
6.294620075
 31
0.0
  0
LINE
  5
2ED
330
1F
100
AcDbEntity
  8
0
  6
Continuous
 62
     7
370
    15
100
AcDbLine
 10
5.9100666649
 20
6.294620075
 30
0.0
 11
5.9100666649
 21
6.5851781618
 31
0.0
  0
LINE
  5
2EE
330
1F
100
AcDbEntity
  8
0
  6
Continuous
 62
     7
370
    15
100
AcDbLine
 10
2.9169534283
 20
6.6693992022
 30
0.0
 11
2.9169534283
 21
6.6393991938
 31
0.0
  0
LINE
  5
2EF
330
1F
100
AcDbEntity
  8
0
  6
Continuous
 62
     7
370
    15
100
AcDbLine
 10
3.3909534993
 20
6.6693992022
 30
0.0
 11
2.9169534283
 21
6.6693992022
 31
0.0
  0
LINE
  5
2F0
330
1F
100
AcDbEntity
  8
0
  6
Continuous
 62
     7
370
    15
100
AcDbLine
 10
3.3909534993
 20
6.6693992022
 30
0.0
 11
3.3909534993
 21
6.6393991938
 31
0.0
  0
CIRCLE
  5
2F1
330
1F
100
AcDbEntity
  8
0
  6
Continuous
 62
     7
370
    15
100
AcDbCircle
 10
3.1703402561
 20
6.4398991185
 30
0.0
 40
0.165
  0
LINE
  5
2F2
330
1F
100
AcDbEntity
  8
0
  6
Continuous
 62
     7
370
    15
100
AcDbLine
 10
2.9169534283
 20
6.2403990247
 30
0.0
 11
2.9169534283
 21
6.6393991938
 31
0.0
  0
LINE
  5
2F3
330
1F
100
AcDbEntity
  8
0
  6
Continuous
 62
     7
370
    15
100
AcDbLine
 10
3.3909534993
 20
6.2403990247
 30
0.0
 11
3.3909534993
 21
6.6393991938
 31
0.0
  0
LINE
  5
2F4
330
1F
100
AcDbEntity
  8
0
  6
Continuous
 62
     7
370
    15
100
AcDbLine
 10
3.3909534993
 20
6.2103990713
 30
0.0
 11
2.9169534283
 21
6.2103990713
 31
0.0
  0
LINE
  5
2F5
330
1F
100
AcDbEntity
  8
0
  6
Continuous
 62
     7
370
    15
100
AcDbLine
 10
2.9169534283
 20
6.2103990713
 30
0.0
 11
2.9169534283
 21
6.2403990247
 31
0.0
  0
LINE
  5
2F6
330
1F
100
AcDbEntity
  8
0
  6
Continuous
 62
     7
370
    15
100
AcDbLine
 10
3.3909534993
 20
6.2103990713
 30
0.0
 11
3.3909534993
 21
6.2403990247
 31
0.0
  0
CIRCLE
  5
2F7
330
1F
100
AcDbEntity
  8
0
  6
Continuous
 62
     7
370
    15
100
AcDbCircle
 10
5.8845666979
 20
6.4398991185
 30
0.0
 40
0.165
  0
LINE
  5
2F8
330
1F
100
AcDbEntity
  8
0
  6
Continuous
 62
     7
370
    15
100
AcDbLine
 10
6.1379535257
 20
6.6393991938
 30
0.0
 11
6.1379535257
 21
6.2403990247
 31
0.0
  0
LINE
  5
2F9
330
1F
100
AcDbEntity
  8
0
  6
Continuous
 62
     7
370
    15
100
AcDbLine
 10
5.6639534547
 20
6.6393991938
 30
0.0
 11
5.6639534547
 21
6.2403990247
 31
0.0
  0
LINE
  5
2FA
330
1F
100
AcDbEntity
  8
0
  6
Continuous
 62
     7
370
    15
100
AcDbLine
 10
5.6639534547
 20
6.6693992022
 30
0.0
 11
6.1379535257
 21
6.6693992022
 31
0.0
  0
LINE
  5
2FB
330
1F
100
AcDbEntity
  8
0
  6
Continuous
 62
     7
370
    15
100
AcDbLine
 10
6.1379535257
 20
6.6693992022
 30
0.0
 11
6.1379535257
 21
6.6393991938
 31
0.0
  0
LINE
  5
2FC
330
1F
100
AcDbEntity
  8
0
  6
Continuous
 62
     7
370
    15
100
AcDbLine
 10
5.6639534547
 20
6.6693992022
 30
0.0
 11
5.6639534547
 21
6.6393991938
 31
0.0
  0
LINE
  5
2FD
330
1F
100
AcDbEntity
  8
0
  6
Continuous
 62
     7
370
    15
100
AcDbLine
 10
5.6639534547
 20
6.2103990713
 30
0.0
 11
6.1379535257
 21
6.2103990713
 31
0.0
  0
LINE
  5
2FE
330
1F
100
AcDbEntity
  8
0
  6
Continuous
 62
     7
370
    15
100
AcDbLine
 10
6.1379535257
 20
6.2103990713
 30
0.0
 11
6.1379535257
 21
6.2403990247
 31
0.0
  0
LINE
  5
2FF
330
1F
100
AcDbEntity
  8
0
  6
Continuous
 62
     7
370
    15
100
AcDbLine
 10
5.6639534547
 20
6.2103990713
 30
0.0
 11
5.6639534547
 21
6.2403990247
 31
0.0
  0
LINE
  5
300
330
1F
100
AcDbEntity
  8
0
  6
Continuous
 62
     7
370
    15
100
AcDbLine
 10
5.5399535005
 20
6.7557863468
 30
0.0
 11
5.5399535005
 21
6.7418240797
 31
0.0
  0
LINE
  5
301
330
1F
100
AcDbEntity
  8
0
  6
Continuous
 62
     7
370
    15
100
AcDbLine
 10
5.3299534598
 20
6.7418240797
 30
0.0
 11
5.5399535005
 21
6.7418240797
 31
0.0
  0
LINE
  5
302
330
1F
100
AcDbEntity
  8
0
  6
Continuous
 62
     7
370
    15
100
AcDbLine
 10
5.0399534699
 20
6.7507081363
 30
0.0
 11
5.0399534699
 21
6.7366568161
 31
0.0
  0
LINE
  5
303
330
1F
100
AcDbEntity
  8
0
  6
Continuous
 62
     7
370
    15
100
AcDbLine
 10
5.3299534598
 20
6.7366568161
 30
0.0
 11
5.3299534598
 21
6.7418240797
 31
0.0
  0
LINE
  5
304
330
1F
100
AcDbEntity
  8
0
  6
Continuous
 62
     7
370
    15
100
AcDbLine
 10
5.5399535005
 20
6.137974148
 30
0.0
 11
5.3299534598
 21
6.137974148
 31
0.0
  0
LINE
  5
305
330
1F
100
AcDbEntity
  8
0
  6
Continuous
 62
     7
370
    15
100
AcDbLine
 10
5.5399535005
 20
6.137974148
 30
0.0
 11
5.5399535005
 21
6.1240118626
 31
0.0
  0
LINE
  5
306
330
1F
100
AcDbEntity
  8
0
  6
Continuous
 62
     7
370
    15
100
AcDbLine
 10
5.0399534699
 20
6.1431414483
 30
0.0
 11
5.0399534699
 21
6.1290900639
 31
0.0
  0
LINE
  5
307
330
1F
100
AcDbEntity
  8
0
  6
Continuous
 62
     7
370
    15
100
AcDbLine
 10
5.3299534598
 20
6.137974148
 30
0.0
 11
5.3299534598
 21
6.1431414483
 31
0.0
  0
LINE
  5
308
330
1F
100
AcDbEntity
  8
0
  6
Continuous
 62
     7
370
    15
100
AcDbLine
 10
5.5399535005
 20
6.7366568161
 30
0.0
 11
5.5399535005
 21
6.7418240797
 31
0.0
  0
LINE
  5
309
330
1F
100
AcDbEntity
  8
0
  6
Continuous
 62
     7
370
    15
100
AcDbLine
 10
5.5399535005
 20
6.1431414483
 30
0.0
 11
5.5399535005
 21
6.137974148
 31
0.0
  0
LINE
  5
30A
330
1F
100
AcDbEntity
  8
0
  6
Continuous
 62
     7
370
    15
100
AcDbLine
 10
5.5399535005
 20
6.7559717313
 30
0.0
 11
5.5399535005
 21
6.7557863468
 31
0.0
  0
LINE
  5
30B
330
1F
100
AcDbEntity
  8
0
  6
Continuous
 62
     7
370
    15
100
AcDbLine
 10
5.5399535005
 20
6.1240118626
 30
0.0
 11
5.5399535005
 21
6.1238264781
 31
0.0
  0
LINE
  5
30C
330
1F
100
AcDbEntity
  8
0
  6
Continuous
 62
     7
370
    15
100
AcDbLine
 10
3.5149534535
 20
6.7418240797
 30
0.0
 11
3.7249534942
 21
6.7418240797
 31
0.0
  0
LINE
  5
30D
330
1F
100
AcDbEntity
  8
0
  6
Continuous
 62
     7
370
    15
100
AcDbLine
 10
3.5149534535
 20
6.7418240797
 30
0.0
 11
3.5149534535
 21
6.7557863468
 31
0.0
  0
LINE
  5
30E
330
1F
100
AcDbEntity
  8
0
  6
Continuous
 62
     7
370
    15
100
AcDbLine
 10
4.0149534841
 20
6.7366568161
 30
0.0
 11
4.0149534841
 21
6.7507081363
 31
0.0
  0
LINE
  5
30F
330
1F
100
AcDbEntity
  8
0
  6
Continuous
 62
     7
370
    15
100
AcDbLine
 10
3.7249534942
 20
6.7418240797
 30
0.0
 11
3.7249534942
 21
6.7366568161
 31
0.0
  0
LINE
  5
310
330
1F
100
AcDbEntity
  8
0
  6
Continuous
 62
     7
370
    15
100
AcDbLine
 10
3.7249534942
 20
6.1431414483
 30
0.0
 11
3.7249534942
 21
6.137974148
 31
0.0
  0
LINE
  5
311
330
1F
100
AcDbEntity
  8
0
  6
Continuous
 62
     7
370
    15
100
AcDbLine
 10
4.0149534841
 20
6.1290900639
 30
0.0
 11
4.0149534841
 21
6.1431414483
 31
0.0
  0
LINE
  5
312
330
1F
100
AcDbEntity
  8
0
  6
Continuous
 62
     7
370
    15
100
AcDbLine
 10
3.5149534535
 20
6.1240118626
 30
0.0
 11
3.5149534535
 21
6.137974148
 31
0.0
  0
LINE
  5
313
330
1F
100
AcDbEntity
  8
0
  6
Continuous
 62
     7
370
    15
100
AcDbLine
 10
3.7249534942
 20
6.137974148
 30
0.0
 11
3.5149534535
 21
6.137974148
 31
0.0
  0
LINE
  5
314
330
1F
100
AcDbEntity
  8
0
  6
Continuous
 62
     7
370
    15
100
AcDbLine
 10
3.5149534535
 20
6.7366568161
 30
0.0
 11
3.5149534535
 21
6.7418240797
 31
0.0
  0
LINE
  5
315
330
1F
100
AcDbEntity
  8
0
  6
Continuous
 62
     7
370
    15
100
AcDbLine
 10
3.5149534535
 20
6.1431414483
 30
0.0
 11
3.5149534535
 21
6.137974148
 31
0.0
  0
LINE
  5
316
330
1F
100
AcDbEntity
  8
0
  6
Continuous
 62
     7
370
    15
100
AcDbLine
 10
3.5149534535
 20
6.7557863468
 30
0.0
 11
3.5149534535
 21
6.7559717313
 31
0.0
  0
LINE
  5
317
330
1F
100
AcDbEntity
  8
0
  6
Continuous
 62
     7
370
    15
100
AcDbLine
 10
3.5149534535
 20
6.1238264781
 30
0.0
 11
3.5149534535
 21
6.1240118626
 31
0.0
  0
LINE
  5
318
330
1F
100
AcDbEntity
  8
0
  6
Continuous
 62
     7
370
    15
100
AcDbLine
 10
5.0399534699
 20
6.6641305931
 30
0.0
 11
5.3549534576
 21
6.6641305931
 31
0.0
  0
LINE
  5
319
330
1F
100
AcDbEntity
  8
0
  6
Continuous
 62
     7
370
    15
100
AcDbLine
 10
5.0399534699
 20
6.7118991179
 30
0.0
 11
5.0399534699
 21
6.6641305931
 31
0.0
  0
LINE
  5
31A
330
1F
100
AcDbEntity
  8
0
  6
Continuous
 62
     7
370
    15
100
AcDbLine
 10
5.0399534699
 20
6.7118991179
 30
0.0
 11
5.6099534652
 21
6.7118991179
 31
0.0
  0
LINE
  5
31B
330
1F
100
AcDbEntity
  8
0
  6
Continuous
 62
     7
370
    15
100
AcDbLine
 10
5.6099534652
 20
6.7118991179
 30
0.0
 11
5.6099534652
 21
6.6571262407
 31
0.0
  0
LINE
  5
31C
330
1F
100
AcDbEntity
  8
0
  6
Continuous
 62
     7
370
    15
100
AcDbLine
 10
5.4349534801
 20
6.6641305931
 30
0.0
 11
5.5649534984
 21
6.6641305931
 31
0.0
  0
LINE
  5
31D
330
1F
100
AcDbEntity
  8
0
  6
Continuous
 62
     7
370
    15
100
AcDbLine
 10
5.4349534801
 20
6.6641305931
 30
0.0
 11
5.4349534801
 21
6.6659323173
 31
0.0
  0
LINE
  5
31E
330
1F
100
AcDbEntity
  8
0
  6
Continuous
 62
     7
370
    15
100
AcDbLine
 10
5.4349534801
 20
6.6659323173
 30
0.0
 11
5.3549534576
 21
6.6659323173
 31
0.0
  0
LINE
  5
31F
330
1F
100
AcDbEntity
  8
0
  6
Continuous
 62
     7
370
    15
100
AcDbLine
 10
5.3549534576
 20
6.6659323173
 30
0.0
 11
5.3549534576
 21
6.6641305931
 31
0.0
  0
LINE
  5
320
330
1F
100
AcDbEntity
  8
0
  6
Continuous
 62
     7
370
    15
100
AcDbLine
 10
5.0399534699
 20
6.7366568161
 30
0.0
 11
5.6099534652
 21
6.7366568161
 31
0.0
  0
LINE
  5
321
330
1F
100
AcDbEntity
  8
0
  6
Continuous
 62
     7
370
    15
100
AcDbLine
 10
5.6099534652
 20
6.7366568161
 30
0.0
 11
5.6099534652
 21
6.7118991179
 31
0.0
  0
LINE
  5
322
330
1F
100
AcDbEntity
  8
0
  6
Continuous
 62
     7
370
    15
100
AcDbLine
 10
5.0399534699
 20
6.7366568161
 30
0.0
 11
5.0399534699
 21
6.7118991179
 31
0.0
  0
LINE
  5
323
330
1F
100
AcDbEntity
  8
0
  6
Continuous
 62
     7
370
    15
100
AcDbLine
 10
5.3549534576
 20
6.2138659379
 30
0.0
 11
5.4349534801
 21
6.2138659379
 31
0.0
  0
LINE
  5
324
330
1F
100
AcDbEntity
  8
0
  6
Continuous
 62
     7
370
    15
100
AcDbLine
 10
5.4349534801
 20
6.2138659379
 30
0.0
 11
5.4349534801
 21
6.2156676438
 31
0.0
  0
LINE
  5
325
330
1F
100
AcDbEntity
  8
0
  6
Continuous
 62
     7
370
    15
100
AcDbLine
 10
5.4349534801
 20
6.2156676438
 30
0.0
 11
5.5649534984
 21
6.2156676438
 31
0.0
  0
LINE
  5
326
330
1F
100
AcDbEntity
  8
0
  6
Continuous
 62
     7
370
    15
100
AcDbLine
 10
5.0399534699
 20
6.1678990823
 30
0.0
 11
5.6099534652
 21
6.1678990823
 31
0.0
  0
LINE
  5
327
330
1F
100
AcDbEntity
  8
0
  6
Continuous
 62
     7
370
    15
100
AcDbLine
 10
5.0399534699
 20
6.2156676438
 30
0.0
 11
5.3549534576
 21
6.2156676438
 31
0.0
  0
LINE
  5
328
330
1F
100
AcDbEntity
  8
0
  6
Continuous
 62
     7
370
    15
100
AcDbLine
 10
5.3549534576
 20
6.2156676438
 30
0.0
 11
5.3549534576
 21
6.2138659379
 31
0.0
  0
LINE
  5
329
330
1F
100
AcDbEntity
  8
0
  6
Continuous
 62
     7
370
    15
100
AcDbLine
 10
5.6099534652
 20
6.2226719962
 30
0.0
 11
5.6099534652
 21
6.1678990823
 31
0.0
  0
LINE
  5
32A
330
1F
100
AcDbEntity
  8
0
  6
Continuous
 62
     7
370
    15
100
AcDbLine
 10
5.0399534699
 20
6.2156676438
 30
0.0
 11
5.0399534699
 21
6.1678990823
 31
0.0
  0
LINE
  5
32B
330
1F
100
AcDbEntity
  8
0
  6
Continuous
 62
     7
370
    15
100
AcDbLine
 10
5.0399534699
 20
6.1431414483
 30
0.0
 11
5.6099534652
 21
6.1431414483
 31
0.0
  0
LINE
  5
32C
330
1F
100
AcDbEntity
  8
0
  6
Continuous
 62
     7
370
    15
100
AcDbLine
 10
5.6099534652
 20
6.1678990823
 30
0.0
 11
5.6099534652
 21
6.1431414483
 31
0.0
  0
LINE
  5
32D
330
1F
100
AcDbEntity
  8
0
  6
Continuous
 62
     7
370
    15
100
AcDbLine
 10
5.0399534699
 20
6.1678990823
 30
0.0
 11
5.0399534699
 21
6.1431414483
 31
0.0
  0
LINE
  5
32E
330
1F
100
AcDbEntity
  8
0
  6
Continuous
 62
     7
370
    15
100
AcDbLine
 10
5.5649534984
 20
6.6641305931
 30
0.0
 11
5.5649534984
 21
6.6534362416
 31
0.0
  0
LINE
  5
32F
330
1F
100
AcDbEntity
  8
0
  6
Continuous
 62
     7
370
    15
100
AcDbLine
 10
5.4349534801
 20
6.6398991197
 30
0.0
 11
5.4349534801
 21
6.6641305931
 31
0.0
  0
LINE
  5
330
330
1F
100
AcDbEntity
  8
0
  6
Continuous
 62
     7
370
    15
100
AcDbLine
 10
5.3549534576
 20
6.6641305931
 30
0.0
 11
5.3549534576
 21
6.6398991197
 31
0.0
  0
LINE
  5
331
330
1F
100
AcDbEntity
  8
0
  6
Continuous
 62
     7
370
    15
100
AcDbLine
 10
5.0399534699
 20
6.6641305931
 30
0.0
 11
5.0399534699
 21
6.6398991197
 31
0.0
  0
LINE
  5
332
330
1F
100
AcDbEntity
  8
0
  6
Continuous
 62
     7
370
    15
100
AcDbLine
 10
5.5649534984
 20
6.2263620136
 30
0.0
 11
5.5649534984
 21
6.2156676438
 31
0.0
  0
LINE
  5
333
330
1F
100
AcDbEntity
  8
0
  6
Continuous
 62
     7
370
    15
100
AcDbLine
 10
5.4349534801
 20
6.2156676438
 30
0.0
 11
5.4349534801
 21
6.2398991172
 31
0.0
  0
LINE
  5
334
330
1F
100
AcDbEntity
  8
0
  6
Continuous
 62
     7
370
    15
100
AcDbLine
 10
5.3549534576
 20
6.2398991172
 30
0.0
 11
5.3549534576
 21
6.2156676438
 31
0.0
  0
LINE
  5
335
330
1F
100
AcDbEntity
  8
0
  6
Continuous
 62
     7
370
    15
100
AcDbLine
 10
5.0399534699
 20
6.2398991172
 30
0.0
 11
5.0399534699
 21
6.2156676438
 31
0.0
  0
LINE
  5
336
330
1F
100
AcDbEntity
  8
0
  6
Continuous
 62
     7
370
    15
100
AcDbLine
 10
5.5649534984
 20
6.6534362416
 30
0.0
 11
5.5649534984
 21
6.5918841427
 31
0.0
  0
LINE
  5
337
330
1F
100
AcDbEntity
  8
0
  6
Continuous
 62
     7
370
    15
100
AcDbLine
 10
5.6099534652
 20
6.6571262407
 30
0.0
 11
5.6099534652
 21
6.5918841427
 31
0.0
  0
LINE
  5
338
330
1F
100
AcDbEntity
  8
0
  6
Continuous
 62
     7
370
    15
100
AcDbLine
 10
5.5649534984
 20
6.2879140759
 30
0.0
 11
5.5649534984
 21
6.2263620136
 31
0.0
  0
LINE
  5
339
330
1F
100
AcDbEntity
  8
0
  6
Continuous
 62
     7
370
    15
100
AcDbLine
 10
5.6099534652
 20
6.2879140759
 30
0.0
 11
5.6099534652
 21
6.2226719962
 31
0.0
  0
LINE
  5
33A
330
1F
100
AcDbEntity
  8
0
  6
Continuous
 62
     7
370
    15
100
AcDbLine
 10
5.6509535115
 20
6.6448991119
 30
0.0
 11
5.6509535115
 21
6.589899124
 31
0.0
  0
LINE
  5
33B
330
1F
100
AcDbEntity
  8
0
  6
Continuous
 62
     7
370
    15
100
AcDbLine
 10
5.6509535115
 20
6.589899124
 30
0.0
 11
5.6639534547
 21
6.589899124
 31
0.0
  0
LINE
  5
33C
330
1F
100
AcDbEntity
  8
0
  6
Continuous
 62
     7
370
    15
100
AcDbLine
 10
6.1379535257
 20
6.589899124
 30
0.0
 11
6.1509534688
 21
6.589899124
 31
0.0
  0
LINE
  5
33D
330
1F
100
AcDbEntity
  8
0
  6
Continuous
 62
     7
370
    15
100
AcDbLine
 10
6.2179535482
 20
6.2348990883
 30
0.0
 11
6.1509534688
 21
6.2348990883
 31
0.0
  0
LINE
  5
33E
330
1F
100
AcDbEntity
  8
0
  6
Continuous
 62
     7
370
    15
100
AcDbLine
 10
6.1509534688
 20
6.2348990883
 30
0.0
 11
6.1509534688
 21
6.2898991129
 31
0.0
  0
LINE
  5
33F
330
1F
100
AcDbEntity
  8
0
  6
Continuous
 62
     7
370
    15
100
AcDbLine
 10
6.1509534688
 20
6.2898991129
 30
0.0
 11
6.1379535257
 21
6.2898991129
 31
0.0
  0
LINE
  5
340
330
1F
100
AcDbEntity
  8
0
  6
Continuous
 62
     7
370
    15
100
AcDbLine
 10
5.6639534547
 20
6.2898991129
 30
0.0
 11
5.6509535115
 21
6.2898991129
 31
0.0
  0
LINE
  5
341
330
1F
100
AcDbEntity
  8
0
  6
Continuous
 62
     7
370
    15
100
AcDbLine
 10
5.6509535115
 20
6.2898991129
 30
0.0
 11
5.6509535115
 21
6.2348990883
 31
0.0
  0
LINE
  5
342
330
1F
100
AcDbEntity
  8
0
  6
Continuous
 62
     7
370
    15
100
AcDbLine
 10
5.6509535115
 20
6.2348990883
 30
0.0
 11
5.6231035199
 21
6.2348990883
 31
0.0
  0
LINE
  5
343
330
1F
100
AcDbEntity
  8
0
  6
Continuous
 62
     7
370
    15
100
AcDbLine
 10
5.6509535115
 20
6.6448991119
 30
0.0
 11
5.6231035199
 21
6.6448991119
 31
0.0
  0
LINE
  5
344
330
1F
100
AcDbEntity
  8
0
  6
Continuous
 62
     7
370
    15
100
AcDbLine
 10
6.1509534688
 20
6.589899124
 30
0.0
 11
6.1509534688
 21
6.6448991119
 31
0.0
  0
LINE
  5
345
330
1F
100
AcDbEntity
  8
0
  6
Continuous
 62
     7
370
    15
100
AcDbLine
 10
6.2179535482
 20
6.2348990883
 30
0.0
 11
6.2179535482
 21
6.6448991119
 31
0.0
  0
LINE
  5
346
330
1F
100
AcDbEntity
  8
0
  6
Continuous
 62
     7
370
    15
100
AcDbLine
 10
6.2179535482
 20
6.6448991119
 30
0.0
 11
6.1509534688
 21
6.6448991119
 31
0.0
  0
LINE
  5
347
330
1F
100
AcDbEntity
  8
0
  6
Continuous
 62
     7
370
    15
100
AcDbLine
 10
5.6231035199
 20
6.2348990883
 30
0.0
 11
5.6099534652
 21
6.2348990883
 31
0.0
  0
LINE
  5
348
330
1F
100
AcDbEntity
  8
0
  6
Continuous
 62
     7
370
    15
100
AcDbLine
 10
5.6231035199
 20
6.6448991119
 30
0.0
 11
5.6099534652
 21
6.6448991119
 31
0.0
  0
LINE
  5
349
330
1F
100
AcDbEntity
  8
0
  6
Continuous
 62
     7
370
    15
100
AcDbLine
 10
5.5649534984
 20
6.2879140759
 30
0.0
 11
5.5649534984
 21
6.5918841427
 31
0.0
  0
ARC
  5
34A
330
1F
100
AcDbEntity
  8
0
  6
Continuous
 62
     7
370
    15
100
AcDbCircle
 10
5.289953477
 20
6.4398991185
 30
0.0
 40
0.0700000000000003
100
AcDbArc
 50
273.5549593365
 51
87.0781367581
  0
LINE
  5
34B
330
1F
100
AcDbEntity
  8
0
  6
Continuous
 62
     7
370
    15
100
AcDbLine
 10
5.0399534699
 20
6.5993991275
 30
0.0
 11
5.0399534699
 21
6.2793991109
 31
0.0
  0
LINE
  5
34C
330
1F
100
AcDbEntity
  8
0
  6
Continuous
 62
     7
370
    15
100
AcDbLine
 10
4.0149534841
 20
6.7118991179
 30
0.0
 11
3.4449534888
 21
6.7118991179
 31
0.0
  0
LINE
  5
34D
330
1F
100
AcDbEntity
  8
0
  6
Continuous
 62
     7
370
    15
100
AcDbLine
 10
3.4449534888
 20
6.7118991179
 30
0.0
 11
3.4449534888
 21
6.7366568161
 31
0.0
  0
LINE
  5
34E
330
1F
100
AcDbEntity
  8
0
  6
Continuous
 62
     7
370
    15
100
AcDbLine
 10
4.0149534841
 20
6.7366568161
 30
0.0
 11
3.4449534888
 21
6.7366568161
 31
0.0
  0
LINE
  5
34F
330
1F
100
AcDbEntity
  8
0
  6
Continuous
 62
     7
370
    15
100
AcDbLine
 10
4.0149534841
 20
6.7118991179
 30
0.0
 11
4.0149534841
 21
6.7366568161
 31
0.0
  0
LINE
  5
350
330
1F
100
AcDbEntity
  8
0
  6
Continuous
 62
     7
370
    15
100
AcDbLine
 10
3.6999534963
 20
6.6659323173
 30
0.0
 11
3.6199534738
 21
6.6659323173
 31
0.0
  0
LINE
  5
351
330
1F
100
AcDbEntity
  8
0
  6
Continuous
 62
     7
370
    15
100
AcDbLine
 10
3.6199534738
 20
6.6659323173
 30
0.0
 11
3.6199534738
 21
6.6641305931
 31
0.0
  0
LINE
  5
352
330
1F
100
AcDbEntity
  8
0
  6
Continuous
 62
     7
370
    15
100
AcDbLine
 10
3.6199534738
 20
6.6641305931
 30
0.0
 11
3.4899534556
 21
6.6641305931
 31
0.0
  0
LINE
  5
353
330
1F
100
AcDbEntity
  8
0
  6
Continuous
 62
     7
370
    15
100
AcDbLine
 10
4.0149534841
 20
6.6641305931
 30
0.0
 11
3.6999534963
 21
6.6641305931
 31
0.0
  0
LINE
  5
354
330
1F
100
AcDbEntity
  8
0
  6
Continuous
 62
     7
370
    15
100
AcDbLine
 10
3.6999534963
 20
6.6641305931
 30
0.0
 11
3.6999534963
 21
6.6659323173
 31
0.0
  0
LINE
  5
355
330
1F
100
AcDbEntity
  8
0
  6
Continuous
 62
     7
370
    15
100
AcDbLine
 10
3.4449534888
 20
6.6571262407
 30
0.0
 11
3.4449534888
 21
6.7118991179
 31
0.0
  0
LINE
  5
356
330
1F
100
AcDbEntity
  8
0
  6
Continuous
 62
     7
370
    15
100
AcDbLine
 10
4.0149534841
 20
6.6641305931
 30
0.0
 11
4.0149534841
 21
6.7118991179
 31
0.0
  0
LINE
  5
357
330
1F
100
AcDbEntity
  8
0
  6
Continuous
 62
     7
370
    15
100
AcDbLine
 10
4.0149534841
 20
6.2156676438
 30
0.0
 11
3.6999534963
 21
6.2156676438
 31
0.0
  0
LINE
  5
358
330
1F
100
AcDbEntity
  8
0
  6
Continuous
 62
     7
370
    15
100
AcDbLine
 10
4.0149534841
 20
6.1678990823
 30
0.0
 11
3.4449534888
 21
6.1678990823
 31
0.0
  0
LINE
  5
359
330
1F
100
AcDbEntity
  8
0
  6
Continuous
 62
     7
370
    15
100
AcDbLine
 10
3.6199534738
 20
6.2156676438
 30
0.0
 11
3.4899534556
 21
6.2156676438
 31
0.0
  0
LINE
  5
35A
330
1F
100
AcDbEntity
  8
0
  6
Continuous
 62
     7
370
    15
100
AcDbLine
 10
3.6199534738
 20
6.2156676438
 30
0.0
 11
3.6199534738
 21
6.2138659379
 31
0.0
  0
LINE
  5
35B
330
1F
100
AcDbEntity
  8
0
  6
Continuous
 62
     7
370
    15
100
AcDbLine
 10
3.6199534738
 20
6.2138659379
 30
0.0
 11
3.6999534963
 21
6.2138659379
 31
0.0
  0
LINE
  5
35C
330
1F
100
AcDbEntity
  8
0
  6
Continuous
 62
     7
370
    15
100
AcDbLine
 10
3.6999534963
 20
6.2138659379
 30
0.0
 11
3.6999534963
 21
6.2156676438
 31
0.0
  0
LINE
  5
35D
330
1F
100
AcDbEntity
  8
0
  6
Continuous
 62
     7
370
    15
100
AcDbLine
 10
3.4449534888
 20
6.1678990823
 30
0.0
 11
3.4449534888
 21
6.2226719962
 31
0.0
  0
LINE
  5
35E
330
1F
100
AcDbEntity
  8
0
  6
Continuous
 62
     7
370
    15
100
AcDbLine
 10
4.0149534841
 20
6.1678990823
 30
0.0
 11
4.0149534841
 21
6.2156676438
 31
0.0
  0
LINE
  5
35F
330
1F
100
AcDbEntity
  8
0
  6
Continuous
 62
     7
370
    15
100
AcDbLine
 10
4.0149534841
 20
6.1431414483
 30
0.0
 11
3.4449534888
 21
6.1431414483
 31
0.0
  0
LINE
  5
360
330
1F
100
AcDbEntity
  8
0
  6
Continuous
 62
     7
370
    15
100
AcDbLine
 10
3.4449534888
 20
6.1431414483
 30
0.0
 11
3.4449534888
 21
6.1678990823
 31
0.0
  0
LINE
  5
361
330
1F
100
AcDbEntity
  8
0
  6
Continuous
 62
     7
370
    15
100
AcDbLine
 10
4.0149534841
 20
6.1431414483
 30
0.0
 11
4.0149534841
 21
6.1678990823
 31
0.0
  0
LINE
  5
362
330
1F
100
AcDbEntity
  8
0
  6
Continuous
 62
     7
370
    15
100
AcDbLine
 10
3.4899534556
 20
6.6534362416
 30
0.0
 11
3.4899534556
 21
6.6641305931
 31
0.0
  0
LINE
  5
363
330
1F
100
AcDbEntity
  8
0
  6
Continuous
 62
     7
370
    15
100
AcDbLine
 10
3.6199534738
 20
6.6641305931
 30
0.0
 11
3.6199534738
 21
6.6398991197
 31
0.0
  0
LINE
  5
364
330
1F
100
AcDbEntity
  8
0
  6
Continuous
 62
     7
370
    15
100
AcDbLine
 10
3.6999534963
 20
6.6398991197
 30
0.0
 11
3.6999534963
 21
6.6641305931
 31
0.0
  0
LINE
  5
365
330
1F
100
AcDbEntity
  8
0
  6
Continuous
 62
     7
370
    15
100
AcDbLine
 10
4.0149534841
 20
6.6398991197
 30
0.0
 11
4.0149534841
 21
6.6641305931
 31
0.0
  0
LINE
  5
366
330
1F
100
AcDbEntity
  8
0
  6
Continuous
 62
     7
370
    15
100
AcDbLine
 10
3.6999534963
 20
6.2156676438
 30
0.0
 11
3.6999534963
 21
6.2398991172
 31
0.0
  0
LINE
  5
367
330
1F
100
AcDbEntity
  8
0
  6
Continuous
 62
     7
370
    15
100
AcDbLine
 10
4.0149534841
 20
6.2156676438
 30
0.0
 11
4.0149534841
 21
6.2398991172
 31
0.0
  0
LINE
  5
368
330
1F
100
AcDbEntity
  8
0
  6
Continuous
 62
     7
370
    15
100
AcDbLine
 10
3.4899534556
 20
6.2156676438
 30
0.0
 11
3.4899534556
 21
6.2263620136
 31
0.0
  0
LINE
  5
369
330
1F
100
AcDbEntity
  8
0
  6
Continuous
 62
     7
370
    15
100
AcDbLine
 10
3.6199534738
 20
6.2398991172
 30
0.0
 11
3.6199534738
 21
6.2156676438
 31
0.0
  0
LINE
  5
36A
330
1F
100
AcDbEntity
  8
0
  6
Continuous
 62
     7
370
    15
100
AcDbLine
 10
3.4899534556
 20
6.5918841427
 30
0.0
 11
3.4899534556
 21
6.6534362416
 31
0.0
  0
LINE
  5
36B
330
1F
100
AcDbEntity
  8
0
  6
Continuous
 62
     7
370
    15
100
AcDbLine
 10
3.4449534888
 20
6.5918841427
 30
0.0
 11
3.4449534888
 21
6.6571262407
 31
0.0
  0
LINE
  5
36C
330
1F
100
AcDbEntity
  8
0
  6
Continuous
 62
     7
370
    15
100
AcDbLine
 10
3.4899534556
 20
6.2263620136
 30
0.0
 11
3.4899534556
 21
6.2879140759
 31
0.0
  0
LINE
  5
36D
330
1F
100
AcDbEntity
  8
0
  6
Continuous
 62
     7
370
    15
100
AcDbLine
 10
3.4449534888
 20
6.2226719962
 30
0.0
 11
3.4449534888
 21
6.2879140759
 31
0.0
  0
LINE
  5
36E
330
1F
100
AcDbEntity
  8
0
  6
Continuous
 62
     7
370
    15
100
AcDbLine
 10
3.4039534424
 20
6.2348990883
 30
0.0
 11
3.431803434
 21
6.2348990883
 31
0.0
  0
LINE
  5
36F
330
1F
100
AcDbEntity
  8
0
  6
Continuous
 62
     7
370
    15
100
AcDbLine
 10
3.4039534424
 20
6.2348990883
 30
0.0
 11
3.4039534424
 21
6.2898991129
 31
0.0
  0
LINE
  5
370
330
1F
100
AcDbEntity
  8
0
  6
Continuous
 62
     7
370
    15
100
AcDbLine
 10
3.4039534424
 20
6.2898991129
 30
0.0
 11
3.3909534993
 21
6.2898991129
 31
0.0
  0
LINE
  5
371
330
1F
100
AcDbEntity
  8
0
  6
Continuous
 62
     7
370
    15
100
AcDbLine
 10
2.9169534283
 20
6.2898991129
 30
0.0
 11
2.9039534851
 21
6.2898991129
 31
0.0
  0
LINE
  5
372
330
1F
100
AcDbEntity
  8
0
  6
Continuous
 62
     7
370
    15
100
AcDbLine
 10
2.9039534851
 20
6.2898991129
 30
0.0
 11
2.9039534851
 21
6.2348990883
 31
0.0
  0
LINE
  5
373
330
1F
100
AcDbEntity
  8
0
  6
Continuous
 62
     7
370
    15
100
AcDbLine
 10
2.8369534058
 20
6.2348990883
 30
0.0
 11
2.9039534851
 21
6.2348990883
 31
0.0
  0
LINE
  5
374
330
1F
100
AcDbEntity
  8
0
  6
Continuous
 62
     7
370
    15
100
AcDbLine
 10
2.8369534058
 20
6.6448991119
 30
0.0
 11
2.8369534058
 21
6.2348990883
 31
0.0
  0
LINE
  5
375
330
1F
100
AcDbEntity
  8
0
  6
Continuous
 62
     7
370
    15
100
AcDbLine
 10
2.8369534058
 20
6.6448991119
 30
0.0
 11
2.9039534851
 21
6.6448991119
 31
0.0
  0
LINE
  5
376
330
1F
100
AcDbEntity
  8
0
  6
Continuous
 62
     7
370
    15
100
AcDbLine
 10
2.9039534851
 20
6.6448991119
 30
0.0
 11
2.9039534851
 21
6.589899124
 31
0.0
  0
LINE
  5
377
330
1F
100
AcDbEntity
  8
0
  6
Continuous
 62
     7
370
    15
100
AcDbLine
 10
2.9039534851
 20
6.589899124
 30
0.0
 11
2.9169534283
 21
6.589899124
 31
0.0
  0
LINE
  5
378
330
1F
100
AcDbEntity
  8
0
  6
Continuous
 62
     7
370
    15
100
AcDbLine
 10
3.3909534993
 20
6.589899124
 30
0.0
 11
3.4039534424
 21
6.589899124
 31
0.0
  0
LINE
  5
379
330
1F
100
AcDbEntity
  8
0
  6
Continuous
 62
     7
370
    15
100
AcDbLine
 10
3.4039534424
 20
6.589899124
 30
0.0
 11
3.4039534424
 21
6.6448991119
 31
0.0
  0
LINE
  5
37A
330
1F
100
AcDbEntity
  8
0
  6
Continuous
 62
     7
370
    15
100
AcDbLine
 10
3.4039534424
 20
6.6448991119
 30
0.0
 11
3.431803434
 21
6.6448991119
 31
0.0
  0
LINE
  5
37B
330
1F
100
AcDbEntity
  8
0
  6
Continuous
 62
     7
370
    15
100
AcDbLine
 10
3.431803434
 20
6.6448991119
 30
0.0
 11
3.4449534888
 21
6.6448991119
 31
0.0
  0
LINE
  5
37C
330
1F
100
AcDbEntity
  8
0
  6
Continuous
 62
     7
370
    15
100
AcDbLine
 10
3.431803434
 20
6.2348990883
 30
0.0
 11
3.4449534888
 21
6.2348990883
 31
0.0
  0
LINE
  5
37D
330
1F
100
AcDbEntity
  8
0
  6
Continuous
 62
     7
370
    15
100
AcDbLine
 10
3.4899534556
 20
6.5918841427
 30
0.0
 11
3.4899534556
 21
6.2879140759
 31
0.0
  0
ARC
  5
37E
330
1F
100
AcDbEntity
  8
0
  6
Continuous
 62
     7
370
    15
100
AcDbCircle
 10
3.764953477
 20
6.4398991185
 30
0.0
 40
0.0700000000000002
100
AcDbArc
 50
92.9218632419
 51
266.4450406636
  0
LINE
  5
37F
330
1F
100
AcDbEntity
  8
0
  6
Continuous
 62
     7
370
    15
100
AcDbLine
 10
4.0149534841
 20
6.2793991109
 30
0.0
 11
4.0149534841
 21
6.5993991275
 31
0.0
  0
LINE
  5
380
330
1F
100
AcDbEntity
  8
0
  6
Continuous
 62
     7
370
    15
100
AcDbLine
 10
5.1658724619
 20
5.9445460758
 30
0.0
 11
5.1429543733
 21
5.9445460758
 31
0.0
  0
LINE
  5
381
330
1F
100
AcDbEntity
  8
0
  6
Continuous
 62
     7
370
    15
100
AcDbLine
 10
5.1574831522
 20
5.9443977242
 30
0.0
 11
5.1658724619
 21
5.9445460758
 31
0.0
  0
SPLINE
  5
382
330
1F
100
AcDbEntity
  8
0
  6
Continuous
 62
     7
370
    15
100
AcDbSpline
210
0.0
220
0.0
230
1.0
 70
     8
 71
     3
 72
    10
 73
     6
 74
     0
 42
0.00000001
 43
0.00000001
 12
1.0
 22
0.0
 32
0.0
 13
1.0
 23
0.0
 33
0.0
 40
0.0
 40
0.0
 40
0.0
 40
0.0
 40
0.2792441991834553
 40
0.5592421923935789
 40
1.0
 40
1.0
 40
1.0
 40
1.0
 10
5.143660491840668
 20
5.943966675826456
 30
0.0
 10
5.143892930458706
 20
5.944014411464352
 30
0.0
 10
5.144358435141443
 20
5.944110011598108
 30
0.0
 10
5.149756964720487
 20
5.944255794794591
 30
0.0
 10
5.154551307528808
 20
5.944343866451523
 30
0.0
 10
5.157483152160118
 20
5.944397724180281
 30
0.0
  0
SPLINE
  5
383
330
1F
100
AcDbEntity
  8
0
  6
Continuous
 62
     7
370
    15
100
AcDbSpline
210
0.0
220
0.0
230
1.0
 70
     8
 71
     3
 72
    11
 73
     7
 74
     0
 42
0.00000001
 43
0.00000001
 12
1.0
 22
0.0
 32
0.0
 13
1.0
 23
0.0
 33
0.0
 40
0.0
 40
0.0
 40
0.0
 40
0.0
 40
0.280626816906357
 40
0.5598108434529682
 40
0.7796621132981231
 40
1.0
 40
1.0
 40
1.0
 40
1.0
 10
5.159026947659393
 20
5.943730618553409
 30
0.0
 10
5.156864155381732
 20
5.943733081538805
 30
0.0
 10
5.152549690418908
 20
5.943737994846616
 30
0.0
 10
5.147188634598594
 20
5.94379370701726
 30
0.0
 10
5.144115260199143
 20
5.94387783197248
 30
0.0
 10
5.143812192970954
 20
5.94393703939108
 30
0.0
 10
5.143660491840668
 20
5.943966675826456
 30
0.0
  0
SPLINE
  5
384
330
1F
100
AcDbEntity
  8
0
  6
Continuous
 62
     7
370
    15
100
AcDbSpline
210
0.0
220
0.0
230
1.0
 70
     8
 71
     3
 72
    11
 73
     7
 74
     0
 42
0.00000001
 43
0.00000001
 12
1.0
 22
0.0
 32
0.0
 13
1.0
 23
0.0
 33
0.0
 40
0.0
 40
0.0
 40
0.0
 40
0.0
 40
0.139284958444549
 40
0.2491597078499017
 40
0.4999622213381864
 40
1.0
 40
1.0
 40
1.0
 40
1.0
 10
5.173531820097869
 20
5.943862397031094
 30
0.0
 10
5.17352183329515
 20
5.943847043709083
 30
0.0
 10
5.173503968416731
 20
5.943819578939958
 30
0.0
 10
5.170967580744834
 20
5.943787116182456
 30
0.0
 10
5.166508425556973
 20
5.943745915466431
 30
0.0
 10
5.162017664081966
 20
5.943736733485461
 30
0.0
 10
5.159026947659393
 20
5.943730618553409
 30
0.0
  0
SPLINE
  5
385
330
1F
100
AcDbEntity
  8
0
  6
Continuous
 62
     7
370
    15
100
AcDbSpline
210
0.0
220
0.0
230
1.0
 70
     8
 71
     3
 72
    11
 73
     7
 74
     0
 42
0.00000001
 43
0.00000001
 12
1.0
 22
0.0
 32
0.0
 13
1.0
 23
0.0
 33
0.0
 40
0.0
 40
0.0
 40
0.0
 40
0.0
 40
0.1248648544096909
 40
0.2492952638156342
 40
0.4990170697384551
 40
1.0
 40
1.0
 40
1.0
 40
1.0
 10
5.172323080727995
 20
5.943917763058167
 30
0.0
 10
5.17248046922489
 20
5.943917372618658
 30
0.0
 10
5.172794698613458
 20
5.943916593098105
 30
0.0
 10
5.173224932654561
 20
5.943907995307711
 30
0.0
 10
5.173489246276608
 20
5.943889444802152
 30
0.0
 10
5.173514780097956
 20
5.943873222792156
 30
0.0
 10
5.173531820097869
 20
5.943862397031094
 30
0.0
  0
SPLINE
  5
386
330
1F
100
AcDbEntity
  8
0
  6
Continuous
 62
     7
370
    15
100
AcDbSpline
210
0.0
220
0.0
230
1.0
 70
     8
 71
     3
 72
    10
 73
     6
 74
     0
 42
0.00000001
 43
0.00000001
 12
1.0
 22
0.0
 32
0.0
 13
1.0
 23
0.0
 33
0.0
 40
0.0
 40
0.0
 40
0.0
 40
0.0
 40
0.5587855841317952
 40
0.7803496091339049
 40
1.0
 40
1.0
 40
1.0
 40
1.0
 10
5.160175847720534
 20
5.943837537318275
 30
0.0
 10
5.162630978233752
 20
5.943844050999883
 30
0.0
 10
5.166059592340429
 20
5.943853147420836
 30
0.0
 10
5.169782633025934
 20
5.943894041254163
 30
0.0
 10
5.171478716910999
 20
5.943909878686858
 30
0.0
 10
5.172323080727997
 20
5.943917763058167
 30
0.0
  0
SPLINE
  5
387
330
1F
100
AcDbEntity
  8
0
  6
Continuous
 62
     7
370
    15
100
AcDbSpline
210
0.0
220
0.0
230
1.0
 70
     8
 71
     3
 72
    11
 73
     7
 74
     0
 42
0.00000001
 43
0.00000001
 12
1.0
 22
0.0
 32
0.0
 13
1.0
 23
0.0
 33
0.0
 40
0.0
 40
0.0
 40
0.0
 40
0.0
 40
0.2800462341634491
 40
0.5590904962059807
 40
0.7793016453583596
 40
1.0
 40
1.0
 40
1.0
 40
1.0
 10
5.15131977669329
 20
5.943986255600269
 30
0.0
 10
5.151465338783725
 20
5.943963675054461
 30
0.0
 10
5.151755942160745
 20
5.943918594753355
 30
0.0
 10
5.154112109698504
 20
5.943867475531125
 30
0.0
 10
5.1571309503384
 20
5.943841025097119
 30
0.0
 10
5.159160134509572
 20
5.943838700767351
 30
0.0
 10
5.160175847720534
 20
5.943837537318275
 30
0.0
  0
SPLINE
  5
388
330
1F
100
AcDbEntity
  8
0
  6
Continuous
 62
     7
370
    15
100
AcDbSpline
210
0.0
220
0.0
230
1.0
 70
     8
 71
     3
 72
    10
 73
     6
 74
     0
 42
0.00000001
 43
0.00000001
 12
1.0
 22
0.0
 32
0.0
 13
1.0
 23
0.0
 33
0.0
 40
0.0
 40
0.0
 40
0.0
 40
0.0
 40
0.560036479755255
 40
0.7801116985790675
 40
1.0
 40
1.0
 40
1.0
 40
1.0
 10
5.162318109639609
 20
5.944335538231992
 30
0.0
 10
5.159360462051882
 20
5.944279110225141
 30
0.0
 10
5.155240559926098
 20
5.944200507937856
 30
0.0
 10
5.151727389321656
 20
5.94407648442373
 30
0.0
 10
5.151455609081027
 20
5.944016323354996
 30
0.0
 10
5.151319776693291
 20
5.943986255600269
 30
0.0
  0
LINE
  5
389
330
1F
100
AcDbEntity
  8
0
  6
Continuous
 62
     7
370
    15
100
AcDbLine
 10
5.1726461837
 20
5.9445193094
 30
0.0
 11
5.1623181096
 21
5.9443355382
 31
0.0
  0
SPLINE
  5
38A
330
1F
100
AcDbEntity
  8
0
  6
Continuous
 62
     7
370
    15
100
AcDbSpline
210
0.0
220
0.0
230
1.0
 70
     8
 71
     3
 72
     9
 73
     5
 74
     0
 42
0.00000001
 43
0.00000001
 12
1.0
 22
0.0
 32
0.0
 13
1.0
 23
0.0
 33
0.0
 40
0.0
 40
0.0
 40
0.0
 40
0.0
 40
0.5587905368737155
 40
1.0
 40
1.0
 40
1.0
 40
1.0
 10
5.17429770458364
 20
5.944598435194984
 30
0.0
 10
5.174271926555445
 20
5.944581738112682
 30
0.0
 10
5.17422579472877
 20
5.94455185735916
 30
0.0
 10
5.17312976316151
 20
5.944529273607382
 30
0.0
 10
5.17264618366215
 20
5.944519309442385
 30
0.0
  0
SPLINE
  5
38B
330
1F
100
AcDbEntity
  8
0
  6
Continuous
 62
     7
370
    15
100
AcDbSpline
210
0.0
220
0.0
230
1.0
 70
     8
 71
     3
 72
    11
 73
     7
 74
     0
 42
0.00000001
 43
0.00000001
 12
1.0
 22
0.0
 32
0.0
 13
1.0
 23
0.0
 33
0.0
 40
0.0
 40
0.0
 40
0.0
 40
0.0
 40
0.2502397357851438
 40
0.375747074768815
 40
0.5012272178003377
 40
1.0
 40
1.0
 40
1.0
 40
1.0
 10
5.171975998070858
 20
5.944652994564709
 30
0.0
 10
5.172356861473757
 20
5.944652596156631
 30
0.0
 10
5.172928746306821
 20
5.944651997927618
 30
0.0
 10
5.173589063562404
 20
5.944645090300126
 30
0.0
 10
5.174289372532763
 20
5.944629318775839
 30
0.0
 10
5.174294004044845
 20
5.944612151612556
 30
0.0
 10
5.17429770458364
 20
5.944598435194984
 30
0.0
  0
LINE
  5
38C
330
1F
100
AcDbEntity
  8
0
  6
Continuous
 62
     7
370
    15
100
AcDbLine
 10
5.1429064872
 20
5.9446529946
 30
0.0
 11
5.1719759981
 21
5.9446529946
 31
0.0
  0
SPLINE
  5
38D
330
1F
100
AcDbEntity
  8
0
  6
Continuous
 62
     7
370
    15
100
AcDbSpline
210
0.0
220
0.0
230
1.0
 70
     8
 71
     3
 72
    11
 73
     7
 74
     0
 42
0.00000001
 43
0.00000001
 12
1.0
 22
0.0
 32
0.0
 13
1.0
 23
0.0
 33
0.0
 40
0.0
 40
0.0
 40
0.0
 40
0.0
 40
0.5005221255982087
 40
0.749539632212134
 40
0.8750513182659303
 40
1.0
 40
1.0
 40
1.0
 40
1.0
 10
5.141362691718385
 20
5.944598655192443
 30
0.0
 10
5.141387553069354
 20
5.944609864489393
 30
0.0
 10
5.141424783327334
 20
5.944626650585118
 30
0.0
 10
5.141879284977669
 20
5.94464537063858
 30
0.0
 10
5.142422923727422
 20
5.944652059280264
 30
0.0
 10
5.142745541122417
 20
5.944652683270779
 30
0.0
 10
5.142906487217662
 20
5.944652994564709
 30
0.0
  0
SPLINE
  5
38E
330
1F
100
AcDbEntity
  8
0
  6
Continuous
 62
     7
370
    15
100
AcDbSpline
210
0.0
220
0.0
230
1.0
 70
     8
 71
     3
 72
    11
 73
     7
 74
     0
 42
0.00000001
 43
0.00000001
 12
1.0
 22
0.0
 32
0.0
 13
1.0
 23
0.0
 33
0.0
 40
0.0
 40
0.0
 40
0.0
 40
0.0
 40
0.1249584866254502
 40
0.2505629265970848
 40
0.4999352450652367
 40
1.0
 40
1.0
 40
1.0
 40
1.0
 10
5.142954373331143
 20
5.944546075799845
 30
0.0
 10
5.14279708628236
 20
5.944546426325661
 30
0.0
 10
5.142481699114002
 20
5.944547129189282
 30
0.0
 10
5.141955989590458
 20
5.944553626298458
 30
0.0
 10
5.141405239429119
 20
5.944571055437057
 30
0.0
 10
5.141379719793141
 20
5.944587609458376
 30
0.0
 10
5.141362691718385
 20
5.944598655192443
 30
0.0
  0
LINE
  5
38F
330
1F
100
AcDbEntity
  8
0
  6
Continuous
 62
     7
370
    15
100
AcDbLine
 10
5.2385880752
 20
5.9441800734
 30
0.0
 11
5.2385880752
 21
5.94418154
 31
0.0
  0
SPLINE
  5
390
330
1F
100
AcDbEntity
  8
0
  6
Continuous
 62
     7
370
    15
100
AcDbSpline
210
0.0
220
0.0
230
1.0
 70
     8
 71
     3
 72
    11
 73
     7
 74
     0
 42
0.00000001
 43
0.00000001
 12
1.0
 22
0.0
 32
0.0
 13
1.0
 23
0.0
 33
0.0
 40
0.0
 40
0.0
 40
0.0
 40
0.0
 40
0.280290799368153
 40
0.5596021131364131
 40
0.7797758643921917
 40
0.9999999999999999
 40
0.9999999999999999
 40
0.9999999999999999
 40
0.9999999999999999
 10
5.228678876367702
 20
5.943956409278389
 30
0.0
 10
5.228802356402548
 20
5.943985377731338
 30
0.0
 10
5.229048884967117
 20
5.944043213406004
 30
0.0
 10
5.231451572529091
 20
5.94411440082047
 30
0.0
 10
5.234801595608945
 20
5.944162507775455
 30
0.0
 10
5.237325819093263
 20
5.944174217719434
 30
0.0
 10
5.238588075229125
 20
5.944180073361269
 30
0.0
  0
SPLINE
  5
391
330
1F
100
AcDbEntity
  8
0
  6
Continuous
 62
     7
370
    15
100
AcDbSpline
210
0.0
220
0.0
230
1.0
 70
     8
 71
     3
 72
    11
 73
     7
 74
     0
 42
0.00000001
 43
0.00000001
 12
1.0
 22
0.0
 32
0.0
 13
1.0
 23
0.0
 33
0.0
 40
0.0
 40
0.0
 40
0.0
 40
0.0
 40
0.2807694533854371
 40
0.5598565606670627
 40
0.7795462403946287
 40
1.0
 40
1.0
 40
1.0
 40
1.0
 10
5.243411079513367
 20
5.943730618553409
 30
0.0
 10
5.2413316091271
 20
5.943732811873439
 30
0.0
 10
5.237185128359955
 20
5.943737185371316
 30
0.0
 10
5.23192075713223
 20
5.943788450461126
 30
0.0
 10
5.229056708337235
 20
5.943870911115923
 30
0.0
 10
5.228804966030687
 20
5.943927876927078
 30
0.0
 10
5.228678876367702
 20
5.943956409278389
 30
0.0
  0
SPLINE
  5
392
330
1F
100
AcDbEntity
  8
0
  6
Continuous
 62
     7
370
    15
100
AcDbSpline
210
0.0
220
0.0
230
1.0
 70
     8
 71
     3
 72
    11
 73
     7
 74
     0
 42
0.00000001
 43
0.00000001
 12
1.0
 22
0.0
 32
0.0
 13
1.0
 23
0.0
 33
0.0
 40
0.0
 40
0.0
 40
0.0
 40
0.0
 40
0.1391316577235601
 40
0.2487443563937953
 40
0.4996901697609674
 40
1.0
 40
1.0
 40
1.0
 40
1.0
 10
5.257784246806646
 20
5.943856750429656
 30
0.0
 10
5.257756121206978
 20
5.943841749942445
 30
0.0
 10
5.25770583729387
 20
5.943814931556189
 30
0.0
 10
5.255257365429692
 20
5.943782087960546
 30
0.0
 10
5.250787502608958
 20
5.943743425485234
 30
0.0
 10
5.246359784206689
 20
5.94373573808892
 30
0.0
 10
5.243411079513367
 20
5.943730618553409
 30
0.0
  0
SPLINE
  5
393
330
1F
100
AcDbEntity
  8
0
  6
Continuous
 62
     7
370
    15
100
AcDbSpline
210
0.0
220
0.0
230
1.0
 70
     8
 71
     3
 72
    11
 73
     7
 74
     0
 42
0.00000001
 43
0.00000001
 12
1.0
 22
0.0
 32
0.0
 13
1.0
 23
0.0
 33
0.0
 40
0.0
 40
0.0
 40
0.0
 40
0.0
 40
0.1256565295408892
 40
0.2498416754589237
 40
0.4985022772836833
 40
1.0
 40
1.0
 40
1.0
 40
1.0
 10
5.256659253136002
 20
5.94390441654568
 30
0.0
 10
5.256800714527659
 20
5.943904323821322
 30
0.0
 10
5.257081980859249
 20
5.94390413945837
 30
0.0
 10
5.257540149973757
 20
5.943897867647966
 30
0.0
 10
5.25777750172208
 20
5.94388058693612
 30
0.0
 10
5.257781544271428
 20
5.943866300939748
 30
0.0
 10
5.257784246806646
 20
5.943856750429656
 30
0.0
  0
SPLINE
  5
394
330
1F
100
AcDbEntity
  8
0
  6
Continuous
 62
     7
370
    15
100
AcDbSpline
210
0.0
220
0.0
230
1.0
 70
     8
 71
     3
 72
    10
 73
     6
 74
     0
 42
0.00000001
 43
0.00000001
 12
1.0
 22
0.0
 32
0.0
 13
1.0
 23
0.0
 33
0.0
 40
0.0
 40
0.0
 40
0.0
 40
0.0
 40
0.5585284671719
 40
0.7800300845609223
 40
1.0
 40
1.0
 40
1.0
 40
1.0
 10
5.244895035703912
 20
5.943824190805788
 30
0.0
 10
5.247267947041315
 20
5.943831241089279
 30
0.0
 10
5.250581909247289
 20
5.943841087379216
 30
0.0
 10
5.254222601652254
 20
5.943880220557849
 30
0.0
 10
5.255848916828474
 20
5.943896369893311
 30
0.0
 10
5.256659253136002
 20
5.94390441654568
 30
0.0
  0
SPLINE
  5
395
330
1F
100
AcDbEntity
  8
0
  6
Continuous
 62
     7
370
    15
100
AcDbSpline
210
0.0
220
0.0
230
1.0
 70
     8
 71
     3
 72
    11
 73
     7
 74
     0
 42
0.00000001
 43
0.00000001
 12
1.0
 22
0.0
 32
0.0
 13
1.0
 23
0.0
 33
0.0
 40
0.0
 40
0.0
 40
0.0
 40
0.0
 40
0.2802403040859611
 40
0.559067142788824
 40
0.7793091217064066
 40
1.0
 40
1.0
 40
1.0
 40
1.0
 10
5.236338161220323
 20
5.94396850913861
 30
0.0
 10
5.236462634638425
 20
5.943946535773658
 30
0.0
 10
5.236710953660337
 20
5.943902699872173
 30
0.0
 10
5.238950403790423
 20
5.943851733437449
 30
0.0
 10
5.241934360593875
 20
5.943827248102521
 30
0.0
 10
5.243907474412936
 20
5.943825210596139
 30
0.0
 10
5.244895035703912
 20
5.943824190805788
 30
0.0
  0
SPLINE
  5
396
330
1F
100
AcDbEntity
  8
0
  6
Continuous
 62
     7
370
    15
100
AcDbSpline
210
0.0
220
0.0
230
1.0
 70
     8
 71
     3
 72
    11
 73
     7
 74
     0
 42
0.00000001
 43
0.00000001
 12
1.0
 22
0.0
 32
0.0
 13
1.0
 23
0.0
 33
0.0
 40
0.0
 40
0.0
 40
0.0
 40
0.0
 40
0.280657998041196
 40
0.559750384803646
 40
0.779685551641954
 40
0.9999999999999999
 40
0.9999999999999999
 40
0.9999999999999999
 40
0.9999999999999999
 10
5.24776732252301
 20
5.94414502043287
 30
0.0
 10
5.246153724781036
 20
5.944143161738524
 30
0.0
 10
5.242935530525776
 20
5.944139454718299
 30
0.0
 10
5.23893700289964
 20
5.944097739013971
 30
0.0
 10
5.236655494464753
 20
5.944034890336505
 30
0.0
 10
5.23644399970375
 20
5.943990648909456
 30
0.0
 10
5.236338161220323
 20
5.94396850913861
 30
0.0
  0
LINE
  5
397
330
1F
100
AcDbEntity
  8
0
  6
Continuous
 62
     7
370
    15
100
AcDbLine
 10
5.252338943
 20
5.9441450204
 30
0.0
 11
5.2477673225
 21
5.9441450204
 31
0.0
  0
SPLINE
  5
398
330
1F
100
AcDbEntity
  8
0
  6
Continuous
 62
     7
370
    15
100
AcDbSpline
210
0.0
220
0.0
230
1.0
 70
     8
 71
     3
 72
    11
 73
     7
 74
     0
 42
0.00000001
 43
0.00000001
 12
1.0
 22
0.0
 32
0.0
 13
1.0
 23
0.0
 33
0.0
 40
0.0
 40
0.0
 40
0.0
 40
0.0
 40
0.5002959675741527
 40
0.6260429423102359
 40
0.7512373438162002
 40
0.9999999999999999
 40
0.9999999999999999
 40
0.9999999999999999
 40
0.9999999999999999
 10
5.253954604380335
 20
5.944190339909335
 30
0.0
 10
5.253938111874785
 20
5.944180057458658
 30
0.0
 10
5.253917474057633
 20
5.944167190563672
 30
0.0
 10
5.253485768484767
 20
5.944154182686739
 30
0.0
 10
5.253068702877598
 20
5.944146803307103
 30
0.0
 10
5.252630465844322
 20
5.944145732651418
 30
0.0
 10
5.252338943044593
 20
5.94414502043287
 30
0.0
  0
SPLINE
  5
399
330
1F
100
AcDbEntity
  8
0
  6
Continuous
 62
     7
370
    15
100
AcDbSpline
210
0.0
220
0.0
230
1.0
 70
     8
 71
     3
 72
    12
 73
     8
 74
     0
 42
0.00000001
 43
0.00000001
 12
1.0
 22
0.0
 32
0.0
 13
1.0
 23
0.0
 33
0.0
 40
0.0
 40
0.0
 40
0.0
 40
0.0
 40
0.1255282472788998
 40
0.2503728641696998
 40
0.3759138264587892
 40
0.5014813013367264
 40
1.0
 40
1.0
 40
1.0
 40
1.0
 10
5.252279103735861
 20
5.944238592685249
 30
0.0
 10
5.252431205348636
 20
5.944238404845918
 30
0.0
 10
5.252734580224492
 20
5.944238030190235
 30
0.0
 10
5.253143900696611
 20
5.944234263344232
 30
0.0
 10
5.253474657981702
 20
5.94422869884101
 30
0.0
 10
5.253859251884474
 20
5.944214023303686
 30
0.0
 10
5.253912260895707
 20
5.944200857069224
 30
0.0
 10
5.253954604380335
 20
5.944190339909335
 30
0.0
  0
LINE
  5
39A
330
1F
100
AcDbEntity
  8
0
  6
Continuous
 62
     7
370
    15
100
AcDbLine
 10
5.2472646283
 20
5.9442385927
 30
0.0
 11
5.2522791037
 21
5.9442385927
 31
0.0
  0
SPLINE
  5
39B
330
1F
100
AcDbEntity
  8
0
  6
Continuous
 62
     7
370
    15
100
AcDbSpline
210
0.0
220
0.0
230
1.0
 70
     8
 71
     3
 72
    11
 73
     7
 74
     0
 42
0.00000001
 43
0.00000001
 12
1.0
 22
0.0
 32
0.0
 13
1.0
 23
0.0
 33
0.0
 40
0.0
 40
0.0
 40
0.0
 40
0.0
 40
0.1868368659782697
 40
0.3734580268107864
 40
0.5606239474764497
 40
0.9999999999999999
 40
0.9999999999999999
 40
0.9999999999999999
 40
0.9999999999999999
 10
5.23404036109804
 20
5.944409237380613
 30
0.0
 10
5.234150732213804
 20
5.944389091369251
 30
0.0
 10
5.234371347020706
 20
5.944348822605308
 30
0.0
 10
5.236380815058414
 20
5.944297241311853
 30
0.0
 10
5.24058184510424
 20
5.944247098566425
 30
0.0
 10
5.244509955979346
 20
5.944242098846516
 30
0.0
 10
5.247264628330177
 20
5.944238592685249
 30
0.0
  0
SPLINE
  5
39C
330
1F
100
AcDbEntity
  8
0
  6
Continuous
 62
     7
370
    15
100
AcDbSpline
210
0.0
220
0.0
230
1.0
 70
     8
 71
     3
 72
    11
 73
     7
 74
     0
 42
0.00000001
 43
0.00000001
 12
1.0
 22
0.0
 32
0.0
 13
1.0
 23
0.0
 33
0.0
 40
0.0
 40
0.0
 40
0.0
 40
0.0
 40
0.2808057259334223
 40
0.5600226203178307
 40
0.779653541421537
 40
1.0
 40
1.0
 40
1.0
 40
1.0
 10
5.244978854735628
 20
5.944572768824817
 30
0.0
 10
5.243454848653268
 20
5.944571200527764
 30
0.0
 10
5.240415459492712
 20
5.944568072807265
 30
0.0
 10
5.236574066863568
 20
5.944530891775313
 30
0.0
 10
5.234352919197327
 20
5.944471893963022
 30
0.0
 10
5.234144660028789
 20
5.944430145539974
 30
0.0
 10
5.23404036109804
 20
5.944409237380613
 30
0.0
  0
SPLINE
  5
39D
330
1F
100
AcDbEntity
  8
0
  6
Continuous
 62
     7
370
    15
100
AcDbSpline
210
0.0
220
0.0
230
1.0
 70
     8
 71
     3
 72
    10
 73
     6
 74
     0
 42
0.00000001
 43
0.00000001
 12
1.0
 22
0.0
 32
0.0
 13
1.0
 23
0.0
 33
0.0
 40
0.0
 40
0.0
 40
0.0
 40
0.0
 40
0.2799142264662792
 40
0.5604976665323611
 40
1.0
 40
1.0
 40
1.0
 40
1.0
 10
5.258215075163013
 20
5.944505962929898
 30
0.0
 10
5.257043891304026
 20
5.944515577729281
 30
0.0
 10
5.254698723541995
 20
5.944534830314927
 30
0.0
 10
5.250365459555519
 20
5.944564805767962
 30
0.0
 10
5.247020463625471
 20
5.944569750699634
 30
0.0
 10
5.244978854735628
 20
5.944572768824817
 30
0.0
  0
SPLINE
  5
39E
330
1F
100
AcDbEntity
  8
0
  6
Continuous
 62
     7
370
    15
100
AcDbSpline
210
0.0
220
0.0
230
1.0
 70
     8
 71
     3
 72
    11
 73
     7
 74
     0
 42
0.00000001
 43
0.00000001
 12
1.0
 22
0.0
 32
0.0
 13
1.0
 23
0.0
 33
0.0
 40
0.0
 40
0.0
 40
0.0
 40
0.0
 40
0.4997510085312034
 40
0.7501748246617559
 40
0.873407736993838
 40
1.0
 40
1.0
 40
1.0
 40
1.0
 10
5.259316089110673
 20
5.944548129109458
 30
0.0
 10
5.259307158002706
 20
5.944539640978423
 30
0.0
 10
5.259293751541808
 20
5.944526899468948
 30
0.0
 10
5.258996563586352
 20
5.944512112158479
 30
0.0
 10
5.258583810781096
 20
5.944506814423261
 30
0.0
 10
5.258339083967041
 20
5.94450624929408
 30
0.0
 10
5.258215075163013
 20
5.944505962929898
 30
0.0
  0
SPLINE
  5
39F
330
1F
100
AcDbEntity
  8
0
  6
Continuous
 62
     7
370
    15
100
AcDbSpline
210
0.0
220
0.0
230
1.0
 70
     8
 71
     3
 72
    12
 73
     8
 74
     0
 42
0.00000001
 43
0.00000001
 12
1.0
 22
0.0
 32
0.0
 13
1.0
 23
0.0
 33
0.0
 40
0.0
 40
0.0
 40
0.0
 40
0.0
 40
0.4999957375855374
 40
0.7503354567779434
 40
0.8126772823224093
 40
0.8749378961808005
 40
0.9999999999999999
 40
0.9999999999999999
 40
0.9999999999999999
 40
0.9999999999999999
 10
5.244859176118165
 20
5.944666341077196
 30
0.0
 10
5.247820380664411
 20
5.944662218651673
 30
0.0
 10
5.252264212078953
 20
5.944656032194858
 30
0.0
 10
5.256758409467108
 20
5.944626015433139
 30
0.0
 10
5.258668722052266
 20
5.944604839856131
 30
0.0
 10
5.25931808175242
 20
5.944580599697139
 30
0.0
 10
5.259316886857401
 20
5.944561128588717
 30
0.0
 10
5.259316089110673
 20
5.944548129109458
 30
0.0
  0
SPLINE
  5
3A0
330
1F
100
AcDbEntity
  8
0
  6
Continuous
 62
     7
370
    15
100
AcDbSpline
210
0.0
220
0.0
230
1.0
 70
     8
 71
     3
 72
    11
 73
     7
 74
     0
 42
0.00000001
 43
0.00000001
 12
1.0
 22
0.0
 32
0.0
 13
1.0
 23
0.0
 33
0.0
 40
0.0
 40
0.0
 40
0.0
 40
0.0
 40
0.279337292576564
 40
0.5579618304182423
 40
0.7787408313604389
 40
1.0
 40
1.0
 40
1.0
 40
1.0
 10
5.226381076245419
 20
5.944395670870668
 30
0.0
 10
5.226679329612428
 20
5.944440436664348
 30
0.0
 10
5.22727507532561
 20
5.944529854027678
 30
0.0
 10
5.232677487373499
 20
5.94462143364071
 30
0.0
 10
5.238858924260294
 20
5.944661177045074
 30
0.0
 10
5.242857644284403
 20
5.944664618487057
 30
0.0
 10
5.244859176118165
 20
5.944666341077196
 30
0.0
  0
SPLINE
  5
3A1
330
1F
100
AcDbEntity
  8
0
  6
Continuous
 62
     7
370
    15
100
AcDbSpline
210
0.0
220
0.0
230
1.0
 70
     8
 71
     3
 72
    11
 73
     7
 74
     0
 42
0.00000001
 43
0.00000001
 12
1.0
 22
0.0
 32
0.0
 13
1.0
 23
0.0
 33
0.0
 40
0.0
 40
0.0
 40
0.0
 40
0.0
 40
0.2800902483378189
 40
0.5598783543971203
 40
0.7799210253809005
 40
1.0
 40
1.0
 40
1.0
 40
1.0
 10
5.238588075229125
 20
5.944181540010993
 30
0.0
 10
5.236836776084944
 20
5.944187589680662
 30
0.0
 10
5.233336066978791
 20
5.94419968249403
 30
0.0
 10
5.229263159639586
 20
5.94425306388081
 30
0.0
 10
5.226805141729274
 20
5.944322529207803
 30
0.0
 10
5.226522439179655
 20
5.944371288975723
 30
0.0
 10
5.22638107624542
 20
5.944395670870668
 30
0.0
  0
SPLINE
  5
3A2
330
1F
100
AcDbEntity
  8
0
  6
Continuous
 62
     7
370
    15
100
AcDbSpline
210
0.0
220
0.0
230
1.0
 70
     8
 71
     3
 72
    12
 73
     8
 74
     0
 42
0.00000001
 43
0.00000001
 12
1.0
 22
0.0
 32
0.0
 13
1.0
 23
0.0
 33
0.0
 40
0.0
 40
0.0
 40
0.0
 40
0.0
 40
0.2509444683581675
 40
0.5011096115119589
 40
0.6263486354743503
 40
0.7515420475661034
 40
0.9999999999999999
 40
0.9999999999999999
 40
0.9999999999999999
 40
0.9999999999999999
 10
5.344334473637707
 20
5.944200606457402
 30
0.0
 10
5.344230761339912
 20
5.944146649668562
 30
0.0
 10
5.344023658829957
 20
5.944038903657379
 30
0.0
 10
5.341998991285643
 20
5.94390581884729
 30
0.0
 10
5.338571504695557
 20
5.943815273951383
 30
0.0
 10
5.333690760081461
 20
5.943744727478124
 30
0.0
 10
5.328970911474848
 20
5.943736253374252
 30
0.0
 10
5.325832467374462
 20
5.943730618553409
 30
0.0
  0
SPLINE
  5
3A3
330
1F
100
AcDbEntity
  8
0
  6
Continuous
 62
     7
370
    15
100
AcDbSpline
210
0.0
220
0.0
230
1.0
 70
     8
 71
     3
 72
    12
 73
     8
 74
     0
 42
0.00000001
 43
0.00000001
 12
1.0
 22
0.0
 32
0.0
 13
1.0
 23
0.0
 33
0.0
 40
0.0
 40
0.0
 40
0.0
 40
0.0
 40
0.2484470768422317
 40
0.3735173094308189
 40
0.4987521855119933
 40
0.7489878875020521
 40
1.0
 40
1.0
 40
1.0
 40
1.0
 10
5.32687364201339
 20
5.944666341077196
 30
0.0
 10
5.329964573969093
 20
5.944661213910184
 30
0.0
 10
5.334611505631167
 20
5.944653505686559
 30
0.0
 10
5.339346537477397
 20
5.94458273686632
 30
0.0
 10
5.342478878108786
 20
5.944491011319656
 30
0.0
 10
5.344097333601272
 20
5.944359180335209
 30
0.0
 10
5.344255345374498
 20
5.944253518971585
 30
0.0
 10
5.344334473637707
 20
5.944200606457402
 30
0.0
  0
SPLINE
  5
3A4
330
1F
100
AcDbEntity
  8
0
  6
Continuous
 62
     7
370
    15
100
AcDbSpline
210
0.0
220
0.0
230
1.0
 70
     8
 71
     3
 72
    12
 73
     8
 74
     0
 42
0.00000001
 43
0.00000001
 12
1.0
 22
0.0
 32
0.0
 13
1.0
 23
0.0
 33
0.0
 40
0.0
 40
0.0
 40
0.0
 40
0.0
 40
0.2509456463569039
 40
0.5010739656285527
 40
0.6263519752788007
 40
0.7515249744117041
 40
0.9999999999999999
 40
0.9999999999999999
 40
0.9999999999999999
 40
0.9999999999999999
 10
5.308335702831912
 20
5.944196426505689
 30
0.0
 10
5.308433614444647
 20
5.944250403111083
 30
0.0
 10
5.30862911877312
 20
5.944358180520689
 30
0.0
 10
5.310649519607135
 20
5.944491749661679
 30
0.0
 10
5.314110440220759
 20
5.944581924580967
 30
0.0
 10
5.319003672126584
 20
5.944652469842971
 30
0.0
 10
5.323730387687689
 20
5.944660800926775
 30
0.0
 10
5.32687364201339
 20
5.944666341077196
 30
0.0
  0
SPLINE
  5
3A5
330
1F
100
AcDbEntity
  8
0
  6
Continuous
 62
     7
370
    15
100
AcDbSpline
210
0.0
220
0.0
230
1.0
 70
     8
 71
     3
 72
    12
 73
     8
 74
     0
 42
0.00000001
 43
0.00000001
 12
1.0
 22
0.0
 32
0.0
 13
1.0
 23
0.0
 33
0.0
 40
0.0
 40
0.0
 40
0.0
 40
0.0
 40
0.2484458219173841
 40
0.3734874994192057
 40
0.4987419713858766
 40
0.748989797622937
 40
1.0
 40
1.0
 40
1.0
 40
1.0
 10
5.325832467374462
 20
5.943730618553409
 30
0.0
 10
5.322742403558566
 20
5.943735777154938
 30
0.0
 10
5.318097124363536
 20
5.943743532057679
 30
0.0
 10
5.313330267831966
 20
5.943813852478338
 30
0.0
 10
5.310198979790035
 20
5.94390580860945
 30
0.0
 10
5.308574161553476
 20
5.944037566535089
 30
0.0
 10
5.308415269626697
 20
5.944143419517322
 30
0.0
 10
5.308335702831912
 20
5.944196426505689
 30
0.0
  0
SPLINE
  5
3A6
330
1F
100
AcDbEntity
  8
0
  6
Continuous
 62
     7
370
    15
100
AcDbSpline
210
0.0
220
0.0
230
1.0
 70
     8
 71
     3
 72
    12
 73
     8
 74
     0
 42
0.00000001
 43
0.00000001
 12
1.0
 22
0.0
 32
0.0
 13
1.0
 23
0.0
 33
0.0
 40
0.0
 40
0.0
 40
0.0
 40
0.0
 40
0.5003316421147141
 40
0.7503946708808922
 40
0.8747988164726798
 40
0.9372691421292865
 40
1.0
 40
1.0
 40
1.0
 40
1.0
 10
5.358097294648424
 20
5.943743965065896
 30
0.0
 10
5.357374730410961
 20
5.943744548664316
 30
0.0
 10
5.356291032504367
 20
5.943745423942046
 30
0.0
 10
5.355030517431075
 20
5.943749352906024
 30
0.0
 10
5.354484635353693
 20
5.943755888316531
 30
0.0
 10
5.354312091119971
 20
5.943761561400523
 30
0.0
 10
5.354298461124315
 20
5.943764739245363
 30
0.0
 10
5.354291631945098
 20
5.943766331474184
 30
0.0
  0
SPLINE
  5
3A7
330
1F
100
AcDbEntity
  8
0
  6
Continuous
 62
     7
370
    15
100
AcDbSpline
210
0.0
220
0.0
230
1.0
 70
     8
 71
     3
 72
    12
 73
     8
 74
     0
 42
0.00000001
 43
0.00000001
 12
1.0
 22
0.0
 32
0.0
 13
1.0
 23
0.0
 33
0.0
 40
0.0
 40
0.0
 40
0.0
 40
0.0
 40
0.1241697295671009
 40
0.1868045570837548
 40
0.2495232102673806
 40
0.4996320988852209
 40
0.9999999999999999
 40
0.9999999999999999
 40
0.9999999999999999
 40
0.9999999999999999
 10
5.361950916797719
 20
5.943766331474184
 30
0.0
 10
5.361924101233207
 20
5.943763064113591
 30
0.0
 10
5.361883759117062
 20
5.943758148601168
 30
0.0
 10
5.361611945310677
 20
5.943753504038548
 30
0.0
 10
5.361120372815212
 20
5.943749066880788
 30
0.0
 10
5.359928357685537
 20
5.943745291016811
 30
0.0
 10
5.358829763815375
 20
5.943744495478089
 30
0.0
 10
5.358097294648424
 20
5.943743965065896
 30
0.0
  0
LINE
  5
3A8
330
1F
100
AcDbEntity
  8
0
  6
Continuous
 62
     7
370
    15
100
AcDbLine
 10
5.3619509168
 20
5.9443164718
 30
0.0
 11
5.3619509168
 21
5.9437663315
 31
0.0
  0
SPLINE
  5
3A9
330
1F
100
AcDbEntity
  8
0
  6
Continuous
 62
     7
370
    15
100
AcDbSpline
210
0.0
220
0.0
230
1.0
 70
     8
 71
     3
 72
    10
 73
     6
 74
     0
 42
0.00000001
 43
0.00000001
 12
1.0
 22
0.0
 32
0.0
 13
1.0
 23
0.0
 33
0.0
 40
0.0
 40
0.0
 40
0.0
 40
0.0
 40
0.2808557239663812
 40
0.5600089448423802
 40
1.0
 40
1.0
 40
1.0
 40
1.0
 10
5.373798879929038
 20
5.944559422312331
 30
0.0
 10
5.371836763372396
 20
5.944556395661087
 30
0.0
 10
5.367924424300133
 20
5.944550360705676
 30
0.0
 10
5.362573150621619
 20
5.944459313716676
 30
0.0
 10
5.362187107783677
 20
5.944370692522619
 30
0.0
 10
5.361950916797719
 20
5.944316471785583
 30
0.0
  0
SPLINE
  5
3AA
330
1F
100
AcDbEntity
  8
0
  6
Continuous
 62
     7
370
    15
100
AcDbSpline
210
0.0
220
0.0
230
1.0
 70
     8
 71
     3
 72
    11
 73
     7
 74
     0
 42
0.00000001
 43
0.00000001
 12
1.0
 22
0.0
 32
0.0
 13
1.0
 23
0.0
 33
0.0
 40
0.0
 40
0.0
 40
0.0
 40
0.0
 40
0.2809879648265041
 40
0.5600581314116722
 40
0.7796057586597138
 40
1.0
 40
1.0
 40
1.0
 40
1.0
 10
5.385694802506324
 20
5.944310238524257
 30
0.0
 10
5.38559688568391
 20
5.94434467674528
 30
0.0
 10
5.385401720340691
 20
5.94441331813968
 30
0.0
 10
5.382855290938719
 20
5.944502438762464
 30
0.0
 10
5.378459457282229
 20
5.944552991525004
 30
0.0
 10
5.375354397482175
 20
5.94455727596826
 30
0.0
 10
5.373798879929038
 20
5.944559422312331
 30
0.0
  0
LINE
  5
3AB
330
1F
100
AcDbEntity
  8
0
  6
Continuous
 62
     7
370
    15
100
AcDbLine
 10
5.3856948025
 20
5.9437663315
 30
0.0
 11
5.3856948025
 21
5.9443102385
 31
0.0
  0
SPLINE
  5
3AC
330
1F
100
AcDbEntity
  8
0
  6
Continuous
 62
     7
370
    15
100
AcDbSpline
210
0.0
220
0.0
230
1.0
 70
     8
 71
     3
 72
    12
 73
     8
 74
     0
 42
0.00000001
 43
0.00000001
 12
1.0
 22
0.0
 32
0.0
 13
1.0
 23
0.0
 33
0.0
 40
0.0
 40
0.0
 40
0.0
 40
0.0
 40
0.5004526149037084
 40
0.7506014433056498
 40
0.8131232139046558
 40
0.8758573431194426
 40
1.0
 40
1.0
 40
1.0
 40
1.0
 10
5.389500538542137
 20
5.943743965065896
 30
0.0
 10
5.388775243312574
 20
5.943744478057741
 30
0.0
 10
5.387687412756952
 20
5.943745247466087
 30
0.0
 10
5.386507632465259
 20
5.943748942692855
 30
0.0
 10
5.386022667205268
 20
5.943753605533432
 30
0.0
 10
5.385763379200972
 20
5.94375821145861
 30
0.0
 10
5.385722174727792
 20
5.943763090389647
 30
0.0
 10
5.385694802506326
 20
5.943766331474184
 30
0.0
  0
SPLINE
  5
3AD
330
1F
100
AcDbEntity
  8
0
  6
Continuous
 62
     7
370
    15
100
AcDbSpline
210
0.0
220
0.0
230
1.0
 70
     8
 71
     3
 72
    12
 73
     8
 74
     0
 42
0.00000001
 43
0.00000001
 12
1.0
 22
0.0
 32
0.0
 13
1.0
 23
0.0
 33
0.0
 40
0.0
 40
0.0
 40
0.0
 40
0.0
 40
0.124168577728057
 40
0.1868144896276833
 40
0.2495180084116708
 40
0.4996651363043114
 40
0.9999999999999999
 40
0.9999999999999999
 40
0.9999999999999999
 40
0.9999999999999999
 10
5.393354087358946
 20
5.943766331474184
 30
0.0
 10
5.393327281640985
 20
5.943763063915281
 30
0.0
 10
5.393286951819935
 20
5.943758147797532
 30
0.0
 10
5.393015058027714
 20
5.943753504808815
 30
0.0
 10
5.392523500307954
 20
5.94374906510357
 30
0.0
 10
5.391331746070013
 20
5.943745292839914
 30
0.0
 10
5.39023303344336
 20
5.943744496184125
 30
0.0
 10
5.389500538542137
 20
5.943743965065896
 30
0.0
  0
LINE
  5
3AE
330
1F
100
AcDbEntity
  8
0
  6
Continuous
 62
     7
370
    15
100
AcDbLine
 10
5.3933540874
 20
5.944327985
 30
0.0
 11
5.3933540874
 21
5.9437663315
 31
0.0
  0
SPLINE
  5
3AF
330
1F
100
AcDbEntity
  8
0
  6
Continuous
 62
     7
370
    15
100
AcDbSpline
210
0.0
220
0.0
230
1.0
 70
     8
 71
     3
 72
    11
 73
     7
 74
     0
 42
0.00000001
 43
0.00000001
 12
1.0
 22
0.0
 32
0.0
 13
1.0
 23
0.0
 33
0.0
 40
0.0
 40
0.0
 40
0.0
 40
0.0
 40
0.2803336152002738
 40
0.558877439730693
 40
0.7790906126856433
 40
1.0
 40
1.0
 40
1.0
 40
1.0
 10
5.37424173481314
 20
5.944666341077196
 30
0.0
 10
5.377140251421856
 20
5.944662273443353
 30
0.0
 10
5.382918779052724
 20
5.944654164145483
 30
0.0
 10
5.389749587565794
 20
5.944566639098515
 30
0.0
 10
5.392961553861804
 20
5.944446757822114
 30
0.0
 10
5.393223105259563
 20
5.944367617566442
 30
0.0
 10
5.393354087358946
 20
5.944327984985915
 30
0.0
  0
SPLINE
  5
3B0
330
1F
100
AcDbEntity
  8
0
  6
Continuous
 62
     7
370
    15
100
AcDbSpline
210
0.0
220
0.0
230
1.0
 70
     8
 71
     3
 72
    11
 73
     7
 74
     0
 42
0.00000001
 43
0.00000001
 12
1.0
 22
0.0
 32
0.0
 13
1.0
 23
0.0
 33
0.0
 40
0.0
 40
0.0
 40
0.0
 40
0.0
 40
0.2802815729526763
 40
0.5589735548545695
 40
0.7791113292994298
 40
0.9999999999999999
 40
0.9999999999999999
 40
0.9999999999999999
 40
0.9999999999999999
 10
5.354291631945098
 20
5.944318818425141
 30
0.0
 10
5.354530864026202
 20
5.944371121540676
 30
0.0
 10
5.35500797140576
 20
5.944475431139456
 30
0.0
 10
5.360108322842793
 20
5.944599803566684
 30
0.0
 10
5.367197562140727
 20
5.944659061805098
 30
0.0
 10
5.371891013549122
 20
5.944663911900556
 30
0.0
 10
5.37424173481314
 20
5.944666341077196
 30
0.0
  0
LINE
  5
3B1
330
1F
100
AcDbEntity
  8
0
  6
Continuous
 62
     7
370
    15
100
AcDbLine
 10
5.3542916319
 20
5.9437663315
 30
0.0
 11
5.3542916319
 21
5.9443188184
 31
0.0
  0
SPLINE
  5
3B2
330
1F
100
AcDbEntity
  8
0
  6
Continuous
 62
     7
370
    15
100
AcDbSpline
210
0.0
220
0.0
230
1.0
 70
     8
 71
     3
 72
    11
 73
     7
 74
     0
 42
0.00000001
 43
0.00000001
 12
1.0
 22
0.0
 32
0.0
 13
1.0
 23
0.0
 33
0.0
 40
0.0
 40
0.0
 40
0.0
 40
0.0
 40
0.2802890411261065
 40
0.5589612210822492
 40
0.7792117234507616
 40
1.0
 40
1.0
 40
1.0
 40
1.0
 10
5.302208260283318
 20
5.944033921716292
 30
0.0
 10
5.301989863463873
 20
5.94398806750685
 30
0.0
 10
5.301554329657812
 20
5.943896623600235
 30
0.0
 10
5.296953782564412
 20
5.943790237978796
 30
0.0
 10
5.290816343772261
 20
5.943736994595224
 30
0.0
 10
5.286708221938191
 20
5.943732745627654
 30
0.0
 10
5.284651656432037
 20
5.943730618553409
 30
0.0
  0
SPLINE
  5
3B3
330
1F
100
AcDbEntity
  8
0
  6
Continuous
 62
     7
370
    15
100
AcDbSpline
210
0.0
220
0.0
230
1.0
 70
     8
 71
     3
 72
    11
 73
     7
 74
     0
 42
0.00000001
 43
0.00000001
 12
1.0
 22
0.0
 32
0.0
 13
1.0
 23
0.0
 33
0.0
 40
0.0
 40
0.0
 40
0.0
 40
0.0
 40
0.2805642462848144
 40
0.5587120060736018
 40
0.7788569050619054
 40
0.9999999999999999
 40
0.9999999999999999
 40
0.9999999999999999
 40
0.9999999999999999
 10
5.287045228781285
 20
5.944305398580168
 30
0.0
 10
5.289383134417967
 20
5.944303003683177
 30
0.0
 10
5.294038809421385
 20
5.944298234516329
 30
0.0
 10
5.299646097055803
 20
5.944228334247796
 30
0.0
 10
5.301944976004413
 20
5.944129404932796
 30
0.0
 10
5.302120366612167
 20
5.944065797415315
 30
0.0
 10
5.30220826028332
 20
5.944033921716292
 30
0.0
  0
SPLINE
  5
3B4
330
1F
100
AcDbEntity
  8
0
  6
Continuous
 62
     7
370
    15
100
AcDbSpline
210
0.0
220
0.0
230
1.0
 70
     8
 71
     3
 72
     9
 73
     5
 74
     0
 42
0.00000001
 43
0.00000001
 12
1.0
 22
0.0
 32
0.0
 13
1.0
 23
0.0
 33
0.0
 40
0.0
 40
0.0
 40
0.0
 40
0.0
 40
0.5597809568865061
 40
1.0
 40
1.0
 40
1.0
 40
1.0
 10
5.275281011349196
 20
5.944249885888122
 30
0.0
 10
5.277364309975674
 20
5.944267971276476
 30
0.0
 10
5.281085941804783
 20
5.944300279250033
 30
0.0
 10
5.28522370612959
 20
5.944303833799711
 30
0.0
 10
5.287045228781286
 20
5.944305398580168
 30
0.0
  0
SPLINE
  5
3B5
330
1F
100
AcDbEntity
  8
0
  6
Continuous
 62
     7
370
    15
100
AcDbSpline
210
0.0
220
0.0
230
1.0
 70
     8
 71
     3
 72
    12
 73
     8
 74
     0
 42
0.00000001
 43
0.00000001
 12
1.0
 22
0.0
 32
0.0
 13
1.0
 23
0.0
 33
0.0
 40
0.0
 40
0.0
 40
0.0
 40
0.0
 40
0.1866171496653328
 40
0.3728644607578469
 40
0.5593470463742777
 40
0.7794913388979499
 40
1.0
 40
1.0
 40
1.0
 40
1.0
 10
5.289893535877399
 20
5.944572768824817
 30
0.0
 10
5.288235536527251
 20
5.944570638506928
 30
0.0
 10
5.284922823656339
 20
5.944566382093021
 30
0.0
 10
5.28057385718659
 20
5.944519220786628
 30
0.0
 10
5.27744749694012
 20
5.944444443977553
 30
0.0
 10
5.275705907891811
 20
5.944351369410446
 30
0.0
 10
5.275422721584079
 20
5.944283732371543
 30
0.0
 10
5.275281011349196
 20
5.944249885888122
 30
0.0
  0
SPLINE
  5
3B6
330
1F
100
AcDbEntity
  8
0
  6
Continuous
 62
     7
370
    15
100
AcDbSpline
210
0.0
220
0.0
230
1.0
 70
     8
 71
     3
 72
    10
 73
     6
 74
     0
 42
0.00000001
 43
0.00000001
 12
1.0
 22
0.0
 32
0.0
 13
1.0
 23
0.0
 33
0.0
 40
0.0
 40
0.0
 40
0.0
 40
0.0
 40
0.2796605297091699
 40
0.5600471331383281
 40
1.0
 40
1.0
 40
1.0
 40
1.0
 10
5.299575404031633
 20
5.944538962548684
 30
0.0
 10
5.298691104289231
 20
5.944543593334616
 30
0.0
 10
5.29692020892519
 20
5.944552866929244
 30
0.0
 10
5.293738898648988
 20
5.944569192671373
 30
0.0
 10
5.291351598058207
 20
5.944571412839856
 30
0.0
 10
5.289893535877399
 20
5.944572768824817
 30
0.0
  0
SPLINE
  5
3B7
330
1F
100
AcDbEntity
  8
0
  6
Continuous
 62
     7
370
    15
100
AcDbSpline
210
0.0
220
0.0
230
1.0
 70
     8
 71
     3
 72
    12
 73
     8
 74
     0
 42
0.00000001
 43
0.00000001
 12
1.0
 22
0.0
 32
0.0
 13
1.0
 23
0.0
 33
0.0
 40
0.0
 40
0.0
 40
0.0
 40
0.0
 40
0.5006910355934464
 40
0.6256710416317469
 40
0.7509733874456219
 40
0.8751793295341561
 40
0.9999999999999999
 40
0.9999999999999999
 40
0.9999999999999999
 40
0.9999999999999999
 10
5.300676417979291
 20
5.944585528677415
 30
0.0
 10
5.300675875273123
 20
5.944575939935583
 30
0.0
 10
5.300675197099341
 20
5.944563957699708
 30
0.0
 10
5.300506178781612
 20
5.9445501628555
 30
0.0
 10
5.300352141024582
 20
5.944543365634621
 30
0.0
 10
5.29998448520305
 20
5.944539288412945
 30
0.0
 10
5.299711988643613
 20
5.944539071348714
 30
0.0
 10
5.299575404031633
 20
5.944538962548684
 30
0.0
  0
SPLINE
  5
3B8
330
1F
100
AcDbEntity
  8
0
  6
Continuous
 62
     7
370
    15
100
AcDbSpline
210
0.0
220
0.0
230
1.0
 70
     8
 71
     3
 72
    12
 73
     8
 74
     0
 42
0.00000001
 43
0.00000001
 12
1.0
 22
0.0
 32
0.0
 13
1.0
 23
0.0
 33
0.0
 40
0.0
 40
0.0
 40
0.0
 40
0.0
 40
0.5001214409885251
 40
0.7500997083294723
 40
0.812495837290707
 40
0.8749520956621868
 40
1.0
 40
1.0
 40
1.0
 40
1.0
 10
5.290085006998841
 20
5.944666341077196
 30
0.0
 10
5.29222135662006
 20
5.944663578379679
 30
0.0
 10
5.295425528839908
 20
5.944659434788878
 30
0.0
 10
5.298855115588229
 20
5.944643514451804
 30
0.0
 10
5.30018720633489
 20
5.944626743561017
 30
0.0
 10
5.300651627336308
 20
5.944609060040627
 30
0.0
 10
5.300666499574395
 20
5.944594943261308
 30
0.0
 10
5.300676417979291
 20
5.944585528677415
 30
0.0
  0
SPLINE
  5
3B9
330
1F
100
AcDbEntity
  8
0
  6
Continuous
 62
     7
370
    15
100
AcDbSpline
210
0.0
220
0.0
230
1.0
 70
     8
 71
     3
 72
    12
 73
     8
 74
     0
 42
0.00000001
 43
0.00000001
 12
1.0
 22
0.0
 32
0.0
 13
1.0
 23
0.0
 33
0.0
 40
0.0
 40
0.0
 40
0.0
 40
0.0
 40
0.1874544549196923
 40
0.3747170329222809
 40
0.5614903873052081
 40
0.7802429692084646
 40
1.0
 40
1.0
 40
1.0
 40
1.0
 10
5.267741331781551
 20
5.944162546897069
 30
0.0
 10
5.267831118645383
 20
5.944207621354683
 30
0.0
 10
5.268010600467912
 20
5.944297724132045
 30
0.0
 10
5.269806186533962
 20
5.944430113439028
 30
0.0
 10
5.273601153309967
 20
5.944558638419636
 30
0.0
 10
5.280911242964559
 20
5.944653824877186
 30
0.0
 10
5.287022419572751
 20
5.944662162644371
 30
0.0
 10
5.290085006998841
 20
5.944666341077196
 30
0.0
  0
SPLINE
  5
3BA
330
1F
100
AcDbEntity
  8
0
  6
Continuous
 62
     7
370
    15
100
AcDbSpline
210
0.0
220
0.0
230
1.0
 70
     8
 71
     3
 72
    12
 73
     8
 74
     0
 42
0.00000001
 43
0.00000001
 12
1.0
 22
0.0
 32
0.0
 13
1.0
 23
0.0
 33
0.0
 40
0.0
 40
0.0
 40
0.0
 40
0.0
 40
0.2485037205230294
 40
0.3736059724990732
 40
0.4988314921855208
 40
0.7490011403974624
 40
1.0
 40
1.0
 40
1.0
 40
1.0
 10
5.284651656432037
 20
5.943730618553409
 30
0.0
 10
5.281761231982251
 20
5.943735509978544
 30
0.0
 10
5.277415704135728
 20
5.943742863854937
 30
0.0
 10
5.272902983600825
 20
5.94380732235977
 30
0.0
 10
5.269770509894005
 20
5.943890925135608
 30
0.0
 10
5.267982753561614
 20
5.944013787427241
 30
0.0
 10
5.267821894425058
 20
5.944112905741524
 30
0.0
 10
5.267741331781551
 20
5.944162546897069
 30
0.0
  0
LINE
  5
3BB
330
1F
100
AcDbEntity
  8
0
  6
Continuous
 62
     7
370
    15
100
AcDbLine
 10
5.2079986753
 20
5.9445460758
 30
0.0
 11
5.1850805867
 21
5.9445460758
 31
0.0
  0
LINE
  5
3BC
330
1F
100
AcDbEntity
  8
0
  6
Continuous
 62
     7
370
    15
100
AcDbLine
 10
5.1996093655
 20
5.9443977242
 30
0.0
 11
5.2079986753
 21
5.9445460758
 31
0.0
  0
SPLINE
  5
3BD
330
1F
100
AcDbEntity
  8
0
  6
Continuous
 62
     7
370
    15
100
AcDbSpline
210
0.0
220
0.0
230
1.0
 70
     8
 71
     3
 72
    10
 73
     6
 74
     0
 42
0.00000001
 43
0.00000001
 12
1.0
 22
0.0
 32
0.0
 13
1.0
 23
0.0
 33
0.0
 40
0.0
 40
0.0
 40
0.0
 40
0.0
 40
0.2792441991834553
 40
0.5592421923935789
 40
1.0
 40
1.0
 40
1.0
 40
1.0
 10
5.185786705195057
 20
5.943966675826456
 30
0.0
 10
5.186019143813094
 20
5.944014411464352
 30
0.0
 10
5.186484648495832
 20
5.944110011598108
 30
0.0
 10
5.191883178074876
 20
5.944255794794591
 30
0.0
 10
5.196677520883197
 20
5.944343866451523
 30
0.0
 10
5.199609365514506
 20
5.944397724180281
 30
0.0
  0
SPLINE
  5
3BE
330
1F
100
AcDbEntity
  8
0
  6
Continuous
 62
     7
370
    15
100
AcDbSpline
210
0.0
220
0.0
230
1.0
 70
     8
 71
     3
 72
    11
 73
     7
 74
     0
 42
0.00000001
 43
0.00000001
 12
1.0
 22
0.0
 32
0.0
 13
1.0
 23
0.0
 33
0.0
 40
0.0
 40
0.0
 40
0.0
 40
0.0
 40
0.280626816906357
 40
0.5598108434529682
 40
0.7796621132981231
 40
1.0
 40
1.0
 40
1.0
 40
1.0
 10
5.201153161013782
 20
5.943730618553409
 30
0.0
 10
5.198990368736121
 20
5.943733081538805
 30
0.0
 10
5.194675903773296
 20
5.943737994846616
 30
0.0
 10
5.189314847952982
 20
5.94379370701726
 30
0.0
 10
5.186241473553532
 20
5.94387783197248
 30
0.0
 10
5.185938406325343
 20
5.94393703939108
 30
0.0
 10
5.185786705195057
 20
5.943966675826456
 30
0.0
  0
SPLINE
  5
3BF
330
1F
100
AcDbEntity
  8
0
  6
Continuous
 62
     7
370
    15
100
AcDbSpline
210
0.0
220
0.0
230
1.0
 70
     8
 71
     3
 72
    11
 73
     7
 74
     0
 42
0.00000001
 43
0.00000001
 12
1.0
 22
0.0
 32
0.0
 13
1.0
 23
0.0
 33
0.0
 40
0.0
 40
0.0
 40
0.0
 40
0.0
 40
0.139284958444549
 40
0.2491597078499017
 40
0.4999622213381864
 40
1.0
 40
1.0
 40
1.0
 40
1.0
 10
5.215658033452257
 20
5.943862397031094
 30
0.0
 10
5.215648046649538
 20
5.943847043709083
 30
0.0
 10
5.21563018177112
 20
5.943819578939958
 30
0.0
 10
5.213093794099223
 20
5.943787116182456
 30
0.0
 10
5.208634638911362
 20
5.943745915466431
 30
0.0
 10
5.204143877436354
 20
5.943736733485461
 30
0.0
 10
5.201153161013782
 20
5.943730618553409
 30
0.0
  0
SPLINE
  5
3C0
330
1F
100
AcDbEntity
  8
0
  6
Continuous
 62
     7
370
    15
100
AcDbSpline
210
0.0
220
0.0
230
1.0
 70
     8
 71
     3
 72
    11
 73
     7
 74
     0
 42
0.00000001
 43
0.00000001
 12
1.0
 22
0.0
 32
0.0
 13
1.0
 23
0.0
 33
0.0
 40
0.0
 40
0.0
 40
0.0
 40
0.0
 40
0.1248827417294679
 40
0.2492979965395238
 40
0.4990236421244783
 40
1.0
 40
1.0
 40
1.0
 40
1.0
 10
5.214449294082384
 20
5.943917763058167
 30
0.0
 10
5.214606714414837
 20
5.943917372799035
 30
0.0
 10
5.21492096579138
 20
5.94391659374167
 30
0.0
 10
5.215351120493122
 20
5.943907994404499
 30
0.0
 10
5.215615609639235
 20
5.943889445591553
 30
0.0
 10
5.215641053589066
 20
5.943873223046564
 30
0.0
 10
5.215658033452257
 20
5.943862397031094
 30
0.0
  0
SPLINE
  5
3C1
330
1F
100
AcDbEntity
  8
0
  6
Continuous
 62
     7
370
    15
100
AcDbSpline
210
0.0
220
0.0
230
1.0
 70
     8
 71
     3
 72
    10
 73
     6
 74
     0
 42
0.00000001
 43
0.00000001
 12
1.0
 22
0.0
 32
0.0
 13
1.0
 23
0.0
 33
0.0
 40
0.0
 40
0.0
 40
0.0
 40
0.0
 40
0.5587855841317952
 40
0.7803496091339049
 40
1.0
 40
1.0
 40
1.0
 40
1.0
 10
5.202302061074923
 20
5.943837537318275
 30
0.0
 10
5.20475719158814
 20
5.943844050999883
 30
0.0
 10
5.208185805694816
 20
5.943853147420836
 30
0.0
 10
5.211908846380322
 20
5.943894041254163
 30
0.0
 10
5.213604930265388
 20
5.943909878686858
 30
0.0
 10
5.214449294082385
 20
5.943917763058167
 30
0.0
  0
SPLINE
  5
3C2
330
1F
100
AcDbEntity
  8
0
  6
Continuous
 62
     7
370
    15
100
AcDbSpline
210
0.0
220
0.0
230
1.0
 70
     8
 71
     3
 72
    11
 73
     7
 74
     0
 42
0.00000001
 43
0.00000001
 12
1.0
 22
0.0
 32
0.0
 13
1.0
 23
0.0
 33
0.0
 40
0.0
 40
0.0
 40
0.0
 40
0.0
 40
0.2800462341634491
 40
0.5590904962059807
 40
0.7793016453583596
 40
1.0
 40
1.0
 40
1.0
 40
1.0
 10
5.193445990047678
 20
5.943986255600269
 30
0.0
 10
5.193591552138114
 20
5.943963675054461
 30
0.0
 10
5.193882155515134
 20
5.943918594753355
 30
0.0
 10
5.196238323052892
 20
5.943867475531125
 30
0.0
 10
5.199257163692788
 20
5.943841025097119
 30
0.0
 10
5.201286347863961
 20
5.943838700767351
 30
0.0
 10
5.202302061074923
 20
5.943837537318275
 30
0.0
  0
SPLINE
  5
3C3
330
1F
100
AcDbEntity
  8
0
  6
Continuous
 62
     7
370
    15
100
AcDbSpline
210
0.0
220
0.0
230
1.0
 70
     8
 71
     3
 72
    10
 73
     6
 74
     0
 42
0.00000001
 43
0.00000001
 12
1.0
 22
0.0
 32
0.0
 13
1.0
 23
0.0
 33
0.0
 40
0.0
 40
0.0
 40
0.0
 40
0.0
 40
0.560036479755255
 40
0.7801116985790675
 40
1.0
 40
1.0
 40
1.0
 40
1.0
 10
5.204444322993997
 20
5.944335538231992
 30
0.0
 10
5.201486675406271
 20
5.944279110225141
 30
0.0
 10
5.197366773280487
 20
5.944200507937856
 30
0.0
 10
5.193853602676044
 20
5.94407648442373
 30
0.0
 10
5.193581822435415
 20
5.944016323354996
 30
0.0
 10
5.193445990047679
 20
5.943986255600269
 30
0.0
  0
LINE
  5
3C4
330
1F
100
AcDbEntity
  8
0
  6
Continuous
 62
     7
370
    15
100
AcDbLine
 10
5.214772397
 20
5.9445193094
 30
0.0
 11
5.204444323
 21
5.9443355382
 31
0.0
  0
SPLINE
  5
3C5
330
1F
100
AcDbEntity
  8
0
  6
Continuous
 62
     7
370
    15
100
AcDbSpline
210
0.0
220
0.0
230
1.0
 70
     8
 71
     3
 72
     9
 73
     5
 74
     0
 42
0.00000001
 43
0.00000001
 12
1.0
 22
0.0
 32
0.0
 13
1.0
 23
0.0
 33
0.0
 40
0.0
 40
0.0
 40
0.0
 40
0.0
 40
0.5587905368737155
 40
1.0
 40
1.0
 40
1.0
 40
1.0
 10
5.216423917938028
 20
5.944598435194984
 30
0.0
 10
5.216398139909834
 20
5.944581738112682
 30
0.0
 10
5.216352008083158
 20
5.94455185735916
 30
0.0
 10
5.215255976515899
 20
5.944529273607382
 30
0.0
 10
5.214772397016539
 20
5.944519309442385
 30
0.0
  0
SPLINE
  5
3C6
330
1F
100
AcDbEntity
  8
0
  6
Continuous
 62
     7
370
    15
100
AcDbSpline
210
0.0
220
0.0
230
1.0
 70
     8
 71
     3
 72
    11
 73
     7
 74
     0
 42
0.00000001
 43
0.00000001
 12
1.0
 22
0.0
 32
0.0
 13
1.0
 23
0.0
 33
0.0
 40
0.0
 40
0.0
 40
0.0
 40
0.0
 40
0.2502397357851438
 40
0.375747074768815
 40
0.5012272178003377
 40
1.0
 40
1.0
 40
1.0
 40
1.0
 10
5.214102211425246
 20
5.944652994564709
 30
0.0
 10
5.214483074828145
 20
5.944652596156631
 30
0.0
 10
5.215054959661209
 20
5.944651997927618
 30
0.0
 10
5.215715276916793
 20
5.944645090300126
 30
0.0
 10
5.216415585887152
 20
5.944629318775839
 30
0.0
 10
5.216420217399234
 20
5.944612151612556
 30
0.0
 10
5.216423917938028
 20
5.944598435194984
 30
0.0
  0
LINE
  5
3C7
330
1F
100
AcDbEntity
  8
0
  6
Continuous
 62
     7
370
    15
100
AcDbLine
 10
5.1850327006
 20
5.9446529946
 30
0.0
 11
5.2141022114
 21
5.9446529946
 31
0.0
  0
SPLINE
  5
3C8
330
1F
100
AcDbEntity
  8
0
  6
Continuous
 62
     7
370
    15
100
AcDbSpline
210
0.0
220
0.0
230
1.0
 70
     8
 71
     3
 72
    11
 73
     7
 74
     0
 42
0.00000001
 43
0.00000001
 12
1.0
 22
0.0
 32
0.0
 13
1.0
 23
0.0
 33
0.0
 40
0.0
 40
0.0
 40
0.0
 40
0.0
 40
0.5005228620613843
 40
0.7495407350771415
 40
0.8750605230101346
 40
1.0
 40
1.0
 40
1.0
 40
1.0
 10
5.183488905072774
 20
5.944598655192443
 30
0.0
 10
5.18351376826176
 20
5.944609864437697
 30
0.0
 10
5.183551001272202
 20
5.944626650456009
 30
0.0
 10
5.184005495811798
 20
5.944645370994494
 30
0.0
 10
5.18454915734932
 20
5.944652059015003
 30
0.0
 10
5.184871768659913
 20
5.944652683196882
 30
0.0
 10
5.18503270057205
 20
5.944652994564709
 30
0.0
  0
SPLINE
  5
3C9
330
1F
100
AcDbEntity
  8
0
  6
Continuous
 62
     7
370
    15
100
AcDbSpline
210
0.0
220
0.0
230
1.0
 70
     8
 71
     3
 72
    11
 73
     7
 74
     0
 42
0.00000001
 43
0.00000001
 12
1.0
 22
0.0
 32
0.0
 13
1.0
 23
0.0
 33
0.0
 40
0.0
 40
0.0
 40
0.0
 40
0.0
 40
0.1249499584921516
 40
0.2505554359931684
 40
0.4999298143495503
 40
0.9999999999999999
 40
0.9999999999999999
 40
0.9999999999999999
 40
0.9999999999999999
 10
5.185080586685531
 20
5.944546075799845
 30
0.0
 10
5.184923312504297
 20
5.94454642636088
 30
0.0
 10
5.184607939041791
 20
5.944547129322082
 30
0.0
 10
5.184082239268609
 20
5.944553626292756
 30
0.0
 10
5.183531493323078
 20
5.944571055477473
 30
0.0
 10
5.183505949380768
 20
5.944587609468819
 30
0.0
 10
5.183488905072774
 20
5.944598655192443
 30
0.0
  0
SPLINE
  5
3CA
330
1F
100
AcDbEntity
  8
0
  6
Continuous
 62
     7
370
    15
100
AcDbSpline
210
0.0
220
0.0
230
1.0
 70
     8
 71
     3
 72
    12
 73
     8
 74
     0
 42
0.00000001
 43
0.00000001
 12
1.0
 22
0.0
 32
0.0
 13
1.0
 23
0.0
 33
0.0
 40
0.0
 40
0.0
 40
0.0
 40
0.0
 40
0.1250820133323062
 40
0.2497381348464077
 40
0.4983488951349881
 40
0.7489996107956716
 40
1.0
 40
1.0
 40
1.0
 40
1.0
 10
5.326239389340331
 20
5.943824190805788
 30
0.0
 10
5.327346600102231
 20
5.943825491737933
 30
0.0
 10
5.329557251683481
 20
5.943828089172679
 30
0.0
 10
5.333323099634793
 20
5.943872811071143
 30
0.0
 10
5.335657199528512
 20
5.943963616420484
 30
0.0
 10
5.336538224567602
 20
5.944077151253346
 30
0.0
 10
5.336629512835239
 20
5.944153716998864
 30
0.0
 10
5.336675188785086
 20
5.944192026556518
 30
0.0
  0
SPLINE
  5
3CB
330
1F
100
AcDbEntity
  8
0
  6
Continuous
 62
     7
370
    15
100
AcDbSpline
210
0.0
220
0.0
230
1.0
 70
     8
 71
     3
 72
    11
 73
     7
 74
     0
 42
0.00000001
 43
0.00000001
 12
1.0
 22
0.0
 32
0.0
 13
1.0
 23
0.0
 33
0.0
 40
0.0
 40
0.0
 40
0.0
 40
0.0
 40
0.5011753448564615
 40
0.7498333068023381
 40
0.8747246807774963
 40
1.0
 40
1.0
 40
1.0
 40
1.0
 10
5.275400689966658
 20
5.944153160338837
 30
0.0
 10
5.275472920239739
 20
5.944083604221051
 30
0.0
 10
5.27558098753609
 20
5.943979537861156
 30
0.0
 10
5.278698768476589
 20
5.943863789369061
 30
0.0
 10
5.28227013583601
 20
5.943828135078427
 30
0.0
 10
5.284263693878914
 20
5.94382550690787
 30
0.0
 10
5.285262002714599
 20
5.943824190805788
 30
0.0
  0
SPLINE
  5
3CC
330
1F
100
AcDbEntity
  8
0
  6
Continuous
 62
     7
370
    15
100
AcDbSpline
210
0.0
220
0.0
230
1.0
 70
     8
 71
     3
 72
    11
 73
     7
 74
     0
 42
0.00000001
 43
0.00000001
 12
1.0
 22
0.0
 32
0.0
 13
1.0
 23
0.0
 33
0.0
 40
0.0
 40
0.0
 40
0.0
 40
0.0
 40
0.2812866856243736
 40
0.5599234590912952
 40
0.7793636020042316
 40
1.0
 40
1.0
 40
1.0
 40
1.0
 10
5.294548975430697
 20
5.944024095163143
 30
0.0
 10
5.294485480660471
 20
5.94405030675737
 30
0.0
 10
5.294359089284
 20
5.944102483014753
 30
0.0
 10
5.292543735640564
 20
5.944172153247854
 30
0.0
 10
5.289081594162662
 20
5.944208622050458
 30
0.0
 10
5.286712904097029
 20
5.944210756301509
 30
0.0
 10
5.285525339672507
 20
5.944211826327789
 30
0.0
  0
SPLINE
  5
3CD
330
1F
100
AcDbEntity
  8
0
  6
Continuous
 62
     7
370
    15
100
AcDbSpline
210
0.0
220
0.0
230
1.0
 70
     8
 71
     3
 72
    10
 73
     6
 74
     0
 42
0.00000001
 43
0.00000001
 12
1.0
 22
0.0
 32
0.0
 13
1.0
 23
0.0
 33
0.0
 40
0.0
 40
0.0
 40
0.0
 40
0.0
 40
0.2798515483563129
 40
0.5596204541606816
 40
1.0
 40
1.0
 40
1.0
 40
1.0
 10
5.285262002714599
 20
5.943824190805788
 30
0.0
 10
5.286824812700501
 20
5.943827551696184
 30
0.0
 10
5.28994997116117
 20
5.943834272484474
 30
0.0
 10
5.293902713714576
 20
5.943911524422572
 30
0.0
 10
5.294303741845936
 20
5.943981378527512
 30
0.0
 10
5.294548975430697
 20
5.944024095163143
 30
0.0
  0
SPLINE
  5
3CE
330
1F
100
AcDbEntity
  8
0
  6
Continuous
 62
     7
370
    15
100
AcDbSpline
210
0.0
220
0.0
230
1.0
 70
     8
 71
     3
 72
     9
 73
     5
 74
     0
 42
0.00000001
 43
0.00000001
 12
1.0
 22
0.0
 32
0.0
 13
1.0
 23
0.0
 33
0.0
 40
0.0
 40
0.0
 40
0.0
 40
0.0
 40
0.5595816587303591
 40
1.0
 40
1.0
 40
1.0
 40
1.0
 10
5.285525339672507
 20
5.944211826327789
 30
0.0
 10
5.28348174673179
 20
5.944208544991405
 30
0.0
 10
5.279829745439692
 20
5.944202681081581
 30
0.0
 10
5.276754905758652
 20
5.944168301664627
 30
0.0
 10
5.275400689966658
 20
5.944153160338837
 30
0.0
  0
SPLINE
  5
3CF
330
1F
100
AcDbEntity
  8
0
  6
Continuous
 62
     7
370
    15
100
AcDbSpline
210
0.0
220
0.0
230
1.0
 70
     8
 71
     3
 72
    11
 73
     7
 74
     0
 42
0.00000001
 43
0.00000001
 12
1.0
 22
0.0
 32
0.0
 13
1.0
 23
0.0
 33
0.0
 40
0.0
 40
0.0
 40
0.0
 40
0.0
 40
0.501539591869782
 40
0.750319038388349
 40
0.8749019102248982
 40
1.0
 40
1.0
 40
1.0
 40
1.0
 10
5.336675188785086
 20
5.944192026556518
 30
0.0
 10
5.336623656466213
 20
5.944270203492707
 30
0.0
 10
5.336546562492837
 20
5.944387158653447
 30
0.0
 10
5.333739136240825
 20
5.9445225408673
 30
0.0
 10
5.32985761027178
 20
5.9445683305201
 30
0.0
 10
5.327598570635548
 20
5.944571287356097
 30
0.0
 10
5.326466720047521
 20
5.944572768824817
 30
0.0
  0
SPLINE
  5
3D0
330
1F
100
AcDbEntity
  8
0
  6
Continuous
 62
     7
370
    15
100
AcDbSpline
210
0.0
220
0.0
230
1.0
 70
     8
 71
     3
 72
    11
 73
     7
 74
     0
 42
0.00000001
 43
0.00000001
 12
1.0
 22
0.0
 32
0.0
 13
1.0
 23
0.0
 33
0.0
 40
0.0
 40
0.0
 40
0.0
 40
0.0
 40
0.5016547588188076
 40
0.7503027447824124
 40
0.8747572858986873
 40
1.0
 40
1.0
 40
1.0
 40
1.0
 10
5.31599506101702
 20
5.944204933074087
 30
0.0
 10
5.316060193802294
 20
5.94412666569148
 30
0.0
 10
5.316157610016748
 20
5.944009604643088
 30
0.0
 10
5.31896584853682
 20
5.943874443074432
 30
0.0
 10
5.322840530799798
 20
5.94382818796727
 30
0.0
 10
5.325104054878028
 20
5.943825525993801
 30
0.0
 10
5.326239389340331
 20
5.943824190805788
 30
0.0
  0
SPLINE
  5
3D1
330
1F
100
AcDbEntity
  8
0
  6
Continuous
 62
     7
370
    15
100
AcDbSpline
210
0.0
220
0.0
230
1.0
 70
     8
 71
     3
 72
    12
 73
     8
 74
     0
 42
0.00000001
 43
0.00000001
 12
1.0
 22
0.0
 32
0.0
 13
1.0
 23
0.0
 33
0.0
 40
0.0
 40
0.0
 40
0.0
 40
0.0
 40
0.1249529331721064
 40
0.2496617618418466
 40
0.4982272237429775
 40
0.7489536050620311
 40
1.0
 40
1.0
 40
1.0
 40
1.0
 10
5.326466720047522
 20
5.944572768824817
 30
0.0
 10
5.325362673687586
 20
5.944571322607253
 30
0.0
 10
5.323156737801336
 20
5.944568432997412
 30
0.0
 10
5.319349913716175
 20
5.94452478748159
 30
0.0
 10
5.317061437951437
 20
5.944433157665231
 30
0.0
 10
5.31610038262278
 20
5.944320078492867
 30
0.0
 10
5.316030183142554
 20
5.944243331195953
 30
0.0
 10
5.31599506101702
 20
5.944204933074087
 30
0.0
  0
LINE
  5
3D2
330
1F
100
AcDbEntity
  8
0
  6
Continuous
 62
     7
370
    15
100
AcDbLine
 10
5.2522791037
 20
5.9441450204
 30
0.0
 11
5.2522791037
 21
5.9442385927
 31
0.0
  0
LINE
  5
3D3
330
1F
100
AcDbEntity
  8
0
  6
Continuous
 62
     7
370
    15
100
AcDbLine
 10
5.1658724619
 20
5.9443987508
 30
0.0
 11
5.1658724619
 21
5.9445460758
 31
0.0
  0
LINE
  5
3D4
330
1F
100
AcDbEntity
  8
0
  6
Continuous
 62
     7
370
    15
100
AcDbLine
 10
5.2079986753
 20
5.9443987508
 30
0.0
 11
5.2079986753
 21
5.9445460758
 31
0.0
  0
LINE
  5
3D5
330
1F
100
AcDbEntity
  8
0
  6
Continuous
 62
     7
370
    15
100
AcDbLine
 10
4.919066223
 20
5.8933990867
 30
0.0
 11
4.919066223
 21
5.9243991485
 31
0.0
  0
LINE
  5
3D6
330
1F
100
AcDbEntity
  8
0
  6
Continuous
 62
     7
370
    15
100
AcDbLine
 10
4.1358407309
 20
5.8933990867
 30
0.0
 11
4.1358407309
 21
5.9243991485
 31
0.0
  0
LINE
  5
3D7
330
1F
100
AcDbEntity
  8
0
  6
Continuous
 62
     7
370
    15
100
AcDbLine
 10
5.2141022114
 20
5.9445073562
 30
0.0
 11
5.2141022114
 21
5.9446529946
 31
0.0
  0
LINE
  5
3D8
330
1F
100
AcDbEntity
  8
0
  6
Continuous
 62
     7
370
    15
100
AcDbLine
 10
5.1719759981
 20
5.9445073562
 30
0.0
 11
5.1719759981
 21
5.9446529946
 31
0.0
  0
LINE
  5
3D9
330
1F
100
AcDbEntity
  8
0
  6
Continuous
 62
     7
370
    15
100
AcDbLine
 10
3.0274534584
 20
5.9243991485
 30
0.0
 11
3.0274534584
 21
5.8933990867
 31
0.0
  0
LINE
  5
3DA
330
1F
100
AcDbEntity
  8
0
  6
Continuous
 62
     7
370
    15
100
AcDbLine
 10
6.0274534955
 20
5.9243991485
 30
0.0
 11
6.0274534955
 21
5.8933990867
 31
0.0
  0
ELLIPSE
  5
3DB
330
1F
100
AcDbEntity
  8
0
  6
Continuous
 62
     7
370
    15
100
AcDbEllipse
 10
4.1048218534
 20
5.9243991185
 30
0.0
 11
-0.03101889587326401
 21
0.0
 31
0.0
210
0.0
220
0.0
230
1.0
 40
0.999390827
 41
3.141592653589793
 42
4.712388980384704
  0
ELLIPSE
  5
3DC
330
1F
100
AcDbEntity
  8
0
  6
Continuous
 62
     7
370
    15
100
AcDbEllipse
 10
5.9964345811
 20
5.9243991185
 30
0.0
 11
-0.03101889587326401
 21
0.0
 31
0.0
210
0.0
220
0.0
230
1.0
 40
0.999390827
 41
3.141592653589793
 42
4.712388980384761
  0
ELLIPSE
  5
3DD
330
1F
100
AcDbEntity
  8
0
  6
Continuous
 62
     7
370
    15
100
AcDbEllipse
 10
4.9500851006
 20
5.9243991185
 30
0.0
 11
-0.03101889587326401
 21
0.0
 31
0.0
210
0.0
220
0.0
230
1.0
 40
0.999390827
 41
4.712388980384704
 42
6.283185307179586
  0
ELLIPSE
  5
3DE
330
1F
100
AcDbEntity
  8
0
  6
Continuous
 62
     7
370
    15
100
AcDbEllipse
 10
3.0584723729
 20
5.9243991185
 30
0.0
 11
0.03101889587326356
 21
0.0
 31
0.0
210
0.0
220
0.0
230
1.0
 40
0.999390827
 41
1.570796326794897
 42
3.141592653589793
  0
LINE
  5
3DF
330
1F
100
AcDbEntity
  8
0
  6
Continuous
 62
     7
370
    15
100
AcDbLine
 10
4.1048218593
 20
5.8623990981
 30
0.0
 11
4.0895359958
 21
5.8623990981
 31
0.0
  0
ELLIPSE
  5
3E0
330
1F
100
AcDbEntity
  8
0
  6
Continuous
 62
     7
370
    15
100
AcDbEllipse
 10
4.1048218534
 20
5.8933991185
 30
0.0
 11
0.03101889587326312
 21
0.0
 31
0.0
210
0.0
220
0.0
230
1.0
 40
0.999390827
 41
4.712388980384704
 42
6.283185307179586
  0
LINE
  5
3E1
330
1F
100
AcDbEntity
  8
0
  6
Continuous
 62
     7
370
    15
100
AcDbLine
 10
5.9964345872
 20
5.8623990981
 30
0.0
 11
5.9735359317
 21
5.8623990981
 31
0.0
  0
ELLIPSE
  5
3E2
330
1F
100
AcDbEntity
  8
0
  6
Continuous
 62
     7
370
    15
100
AcDbEllipse
 10
5.9964345811
 20
5.8933991185
 30
0.0
 11
0.03101889587326312
 21
0.0
 31
0.0
210
0.0
220
0.0
230
1.0
 40
0.999390827
 41
4.712388980384647
 42
6.283185307179586
  0
LINE
  5
3E3
330
1F
100
AcDbEntity
  8
0
  6
Continuous
 62
     7
370
    15
100
AcDbLine
 10
4.9653709581
 20
5.8623990981
 30
0.0
 11
4.9500850947
 21
5.8623990981
 31
0.0
  0
ELLIPSE
  5
3E4
330
1F
100
AcDbEntity
  8
0
  6
Continuous
 62
     7
370
    15
100
AcDbEllipse
 10
4.9500851006
 20
5.8933991185
 30
0.0
 11
0.03101889587326312
 21
0.0
 31
0.0
210
0.0
220
0.0
230
1.0
 40
0.999390827
 41
3.141592653589793
 42
4.712388980384704
  0
LINE
  5
3E5
330
1F
100
AcDbEntity
  8
0
  6
Continuous
 62
     7
370
    15
100
AcDbLine
 10
3.0813710223
 20
5.8623990981
 30
0.0
 11
3.0584723668
 21
5.8623990981
 31
0.0
  0
ELLIPSE
  5
3E6
330
1F
100
AcDbEntity
  8
0
  6
Continuous
 62
     7
370
    15
100
AcDbEllipse
 10
3.0584723729
 20
5.8933991185
 30
0.0
 11
-0.03101889587326356
 21
0.0
 31
0.0
210
0.0
220
0.0
230
1.0
 40
0.999390827
 41
0.0
 42
1.570796326794897
  0
LINE
  5
3E7
330
1F
100
AcDbEntity
  8
0
  6
Continuous
 62
     7
370
    15
100
AcDbLine
 10
5.4523198595
 20
5.9553979638
 30
0.0
 11
5.6025871436
 21
5.9553979638
 31
0.0
  0
LINE
  5
3E8
330
1F
100
AcDbEntity
  8
0
  6
Continuous
 62
     7
370
    15
100
AcDbLine
 10
3.6025870945
 20
5.9553979638
 30
0.0
 11
3.4523198104
 21
5.9553979638
 31
0.0
  0
LINE
  5
3E9
330
1F
100
AcDbEntity
  8
0
  6
Continuous
 62
     7
370
    15
100
AcDbLine
 10
4.0895359958
 20
5.8623990981
 30
0.0
 11
3.0813710223
 21
5.8623990981
 31
0.0
  0
LINE
  5
3EA
330
1F
100
AcDbEntity
  8
0
  6
Continuous
 62
     7
370
    15
100
AcDbLine
 10
5.9735359317
 20
5.8623990981
 30
0.0
 11
4.9653709581
 21
5.8623990981
 31
0.0
  0
LINE
  5
3EB
330
1F
100
AcDbEntity
  8
0
  6
Continuous
 62
     7
370
    15
100
AcDbLine
 10
4.9500850947
 20
5.8623990981
 30
0.0
 11
4.1048218593
 21
5.8623990981
 31
0.0
  0
LINE
  5
3EC
330
1F
100
AcDbEntity
  8
0
  6
Continuous
 62
     7
370
    15
100
AcDbLine
 10
4.1434534863
 20
5.9553991371
 30
0.0
 11
4.9114534676
 21
5.9553991371
 31
0.0
  0
LINE
  5
3ED
330
1F
100
AcDbEntity
  8
0
  6
Continuous
 62
     7
370
    15
100
AcDbLine
 10
4.9577487795
 20
6.9233991197
 30
0.0
 11
5.4523210328
 21
6.9233991197
 31
0.0
  0
LINE
  5
3EE
330
1F
100
AcDbEntity
  8
0
  6
Continuous
 62
     7
370
    15
100
AcDbLine
 10
5.602585897
 20
6.9233991197
 30
0.0
 11
5.4523210328
 21
6.9233991197
 31
0.0
  0
LINE
  5
3EF
330
1F
100
AcDbEntity
  8
0
  6
Continuous
 62
     7
370
    15
100
AcDbLine
 10
5.602585897
 20
6.9233991197
 30
0.0
 11
5.9735265452
 21
6.9233991197
 31
0.0
  0
LINE
  5
3F0
330
1F
100
AcDbEntity
  8
0
  6
Continuous
 62
     7
370
    15
100
AcDbLine
 10
5.9735265452
 20
6.9233991197
 30
0.0
 11
5.9735454649
 21
6.9233991197
 31
0.0
  0
LINE
  5
3F1
330
1F
100
AcDbEntity
  8
0
  6
Continuous
 62
     7
370
    15
100
AcDbLine
 10
3.081361489
 20
6.9233991197
 30
0.0
 11
3.0813804088
 21
6.9233991197
 31
0.0
  0
LINE
  5
3F2
330
1F
100
AcDbEntity
  8
0
  6
Continuous
 62
     7
370
    15
100
AcDbLine
 10
3.0813804088
 20
6.9233991197
 30
0.0
 11
3.452321057
 21
6.9233991197
 31
0.0
  0
LINE
  5
3F3
330
1F
100
AcDbEntity
  8
0
  6
Continuous
 62
     7
370
    15
100
AcDbLine
 10
3.6025859211
 20
6.9233991197
 30
0.0
 11
3.452321057
 21
6.9233991197
 31
0.0
  0
LINE
  5
3F4
330
1F
100
AcDbEntity
  8
0
  6
Continuous
 62
     7
370
    15
100
AcDbLine
 10
3.6025859211
 20
6.9233991197
 30
0.0
 11
4.0971581745
 21
6.9233991197
 31
0.0
  0
LINE
  5
3F5
330
1F
100
AcDbEntity
  8
0
  6
Continuous
 62
     7
370
    15
100
AcDbLine
 10
4.0149534841
 20
6.8306434887
 30
0.0
 11
4.0966693034
 21
6.8306434887
 31
0.0
  0
LINE
  5
3F6
330
1F
100
AcDbEntity
  8
0
  6
Continuous
 62
     7
370
    15
100
AcDbLine
 10
3.4380662483
 20
6.8306434887
 30
0.0
 11
4.0149534841
 21
6.8306434887
 31
0.0
  0
LINE
  5
3F7
330
1F
100
AcDbEntity
  8
0
  6
Continuous
 62
     7
370
    15
100
AcDbLine
 10
3.4380662483
 20
6.8306434887
 30
0.0
 11
3.2930662167
 21
6.8306434887
 31
0.0
  0
LINE
  5
3F8
330
1F
100
AcDbEntity
  8
0
  6
Continuous
 62
     7
370
    15
100
AcDbLine
 10
3.118066305
 20
6.8306434887
 30
0.0
 11
3.2930662167
 21
6.8306434887
 31
0.0
  0
LINE
  5
3F9
330
1F
100
AcDbEntity
  8
0
  6
Continuous
 62
     7
370
    15
100
AcDbLine
 10
3.0818503234
 20
6.8306434887
 30
0.0
 11
3.118066305
 21
6.8306434887
 31
0.0
  0
LINE
  5
3FA
330
1F
100
AcDbEntity
  8
0
  6
Continuous
 62
     7
370
    15
100
AcDbLine
 10
5.936840649
 20
6.8306434887
 30
0.0
 11
5.9730566306
 21
6.8306434887
 31
0.0
  0
LINE
  5
3FB
330
1F
100
AcDbEntity
  8
0
  6
Continuous
 62
     7
370
    15
100
AcDbLine
 10
5.7618407372
 20
6.8306434887
 30
0.0
 11
5.936840649
 21
6.8306434887
 31
0.0
  0
LINE
  5
3FC
330
1F
100
AcDbEntity
  8
0
  6
Continuous
 62
     7
370
    15
100
AcDbLine
 10
5.7618407372
 20
6.8306434887
 30
0.0
 11
5.6168407056
 21
6.8306434887
 31
0.0
  0
LINE
  5
3FD
330
1F
100
AcDbEntity
  8
0
  6
Continuous
 62
     7
370
    15
100
AcDbLine
 10
5.0399534699
 20
6.8306434887
 30
0.0
 11
5.6168407056
 21
6.8306434887
 31
0.0
  0
LINE
  5
3FE
330
1F
100
AcDbEntity
  8
0
  6
Continuous
 62
     7
370
    15
100
AcDbLine
 10
4.9582376505
 20
6.8306434887
 30
0.0
 11
5.0399534699
 21
6.8306434887
 31
0.0
  0
LINE
  5
3FF
330
1F
100
AcDbEntity
  8
0
  6
Continuous
 62
     7
370
    15
100
AcDbLine
 10
4.9220617818
 20
6.9233991197
 30
0.0
 11
4.9577487795
 21
6.9233991197
 31
0.0
  0
ELLIPSE
  5
400
330
1F
100
AcDbEntity
  8
0
  6
Continuous
 62
     7
370
    15
100
AcDbEllipse
 10
4.9424723729
 20
6.9000397148
 30
0.0
 11
0.02775005573535427
 21
-0.01387080043401845
 31
0.0
210
0.0
220
0.0
230
1.0
 40
0.9992388003
 41
2.752183627349234
 42
3.604813912922399
  0
LINE
  5
401
330
1F
100
AcDbEntity
  8
0
  6
Continuous
 62
     7
370
    15
100
AcDbLine
 10
4.0971581745
 20
6.9233991197
 30
0.0
 11
4.1328451722
 21
6.9233991197
 31
0.0
  0
ELLIPSE
  5
402
330
1F
100
AcDbEntity
  8
0
  6
Continuous
 62
     7
370
    15
100
AcDbEllipse
 10
4.1124345811
 20
6.9000397148
 30
0.0
 11
0.02775005573535427
 21
0.01387080043401756
 31
0.0
210
0.0
220
0.0
230
1.0
 40
0.9992388003
 41
5.819964047847039
 42
6.672594333420209
  0
ELLIPSE
  5
403
330
1F
100
AcDbEntity
  8
0
  6
Continuous
 62
     7
370
    15
100
AcDbEllipse
 10
4.9582565607
 20
6.8616482116
 30
0.0
 11
-0.02775005573535427
 21
-0.01387080043401756
 31
0.0
210
0.0
220
0.0
230
1.0
 40
0.9992388003
 41
5.819964047847034
 42
7.390151294403351
  0
ELLIPSE
  5
404
330
1F
100
AcDbEntity
  8
0
  6
Continuous
 62
     7
370
    15
100
AcDbEllipse
 10
4.0966503933
 20
6.8616482116
 30
0.0
 11
-0.02775005573535516
 21
0.01387080043401756
 31
0.0
210
0.0
220
0.0
230
1.0
 40
0.9992388003
 41
2.034626666366
 42
3.604813912922376
  0
LINE
  5
405
330
1F
100
AcDbEntity
  8
0
  6
Continuous
 62
     7
370
    15
100
AcDbLine
 10
4.9114534676
 20
5.9553991371
 30
0.0
 11
4.927237662
 21
5.9553991371
 31
0.0
  0
LINE
  5
406
330
1F
100
AcDbEntity
  8
0
  6
Continuous
 62
     7
370
    15
100
AcDbLine
 10
4.9114534676
 20
5.9553991371
 30
0.0
 11
4.9114534676
 21
6.9000585993
 31
0.0
  0
LINE
  5
407
330
1F
100
AcDbEntity
  8
0
  6
Continuous
 62
     7
370
    15
100
AcDbLine
 10
4.927237662
 20
5.9553991371
 30
0.0
 11
4.927237662
 21
6.8616293275
 31
0.0
  0
LINE
  5
408
330
1F
100
AcDbEntity
  8
0
  6
Continuous
 62
     7
370
    15
100
AcDbLine
 10
4.1434534863
 20
5.9553991371
 30
0.0
 11
4.1434534863
 21
6.9000585993
 31
0.0
  0
LINE
  5
409
330
1F
100
AcDbEntity
  8
0
  6
Continuous
 62
     7
370
    15
100
AcDbLine
 10
4.127669292
 20
5.9553991371
 30
0.0
 11
4.1434534863
 21
5.9553991371
 31
0.0
  0
LINE
  5
40A
330
1F
100
AcDbEntity
  8
0
  6
Continuous
 62
     7
370
    15
100
AcDbLine
 10
4.127669292
 20
5.9553991371
 30
0.0
 11
4.127669292
 21
6.8616293275
 31
0.0
  0
ELLIPSE
  5
40B
330
1F
100
AcDbEntity
  8
0
  6
Continuous
 62
     7
370
    15
100
AcDbEllipse
 10
3.0818692884
 20
6.8616482116
 30
0.0
 11
-0.02775005573535605
 21
-0.01387080043401578
 31
0.0
210
0.0
220
0.0
230
1.0
 40
0.9992388003
 41
5.819964047847095
 42
7.390151294403428
  0
ELLIPSE
  5
40C
330
1F
100
AcDbEntity
  8
0
  6
Continuous
 62
     7
370
    15
100
AcDbEllipse
 10
3.0813709504
 20
6.8923991185
 30
0.0
 11
0.007120757676511769
 21
0.03017223629171717
 31
0.0
210
0.0
220
0.0
230
1.0
 40
0.9993190417
 41
0.2322200811663827
 42
1.802406956461357
  0
ELLIPSE
  5
40D
330
1F
100
AcDbEntity
  8
0
  6
Continuous
 62
     7
370
    15
100
AcDbEllipse
 10
5.9735360035
 20
6.8923991185
 30
0.0
 11
-0.007120757676510436
 21
0.03017223629171717
 31
0.0
210
0.0
220
0.0
230
1.0
 40
0.9993190417
 41
4.480778350718446
 42
6.050965226012511
  0
ELLIPSE
  5
40E
330
1F
100
AcDbEntity
  8
0
  6
Continuous
 62
     7
370
    15
100
AcDbEllipse
 10
5.9730376656
 20
6.8616482116
 30
0.0
 11
0.02775005573535605
 21
-0.01387080043401578
 31
0.0
210
0.0
220
0.0
230
1.0
 40
0.9992388003
 41
5.176219319955782
 42
6.746406566512081
  0
LINE
  5
40F
330
1F
100
AcDbEntity
  8
0
  6
Continuous
 62
     7
370
    15
100
AcDbLine
 10
3.0460662701
 20
6.6986434827
 30
0.0
 11
3.0460662701
 21
6.6693992022
 31
0.0
  0
LINE
  5
410
330
1F
100
AcDbEntity
  8
0
  6
Continuous
 62
     7
370
    15
100
AcDbLine
 10
3.0460662701
 20
6.2103990713
 30
0.0
 11
3.0460662701
 21
6.1803991179
 31
0.0
  0
LINE
  5
411
330
1F
100
AcDbEntity
  8
0
  6
Continuous
 62
     7
370
    15
100
AcDbLine
 10
3.0508503348
 20
5.9553991371
 30
0.0
 11
3.0508503348
 21
6.0483991027
 31
0.0
  0
LINE
  5
412
330
1F
100
AcDbEntity
  8
0
  6
Continuous
 62
     7
370
    15
100
AcDbLine
 10
3.0274534584
 20
5.9553991371
 30
0.0
 11
3.0508503348
 21
5.9553991371
 31
0.0
  0
LINE
  5
413
330
1F
100
AcDbEntity
  8
0
  6
Continuous
 62
     7
370
    15
100
AcDbLine
 10
3.0274534584
 20
6.8923991185
 30
0.0
 11
3.0274534584
 21
6.6693992022
 31
0.0
  0
LINE
  5
414
330
1F
100
AcDbEntity
  8
0
  6
Continuous
 62
     7
370
    15
100
AcDbLine
 10
3.0274534584
 20
6.2103990713
 30
0.0
 11
3.0274534584
 21
5.9553991371
 31
0.0
  0
LINE
  5
415
330
1F
100
AcDbEntity
  8
0
  6
Continuous
 62
     7
370
    15
100
AcDbLine
 10
3.0508503348
 20
6.8306434887
 30
0.0
 11
3.0508503348
 21
6.8616293275
 31
0.0
  0
LINE
  5
416
330
1F
100
AcDbEntity
  8
0
  6
Continuous
 62
     7
370
    15
100
AcDbLine
 10
6.0088406839
 20
6.1803991179
 30
0.0
 11
6.0088406839
 21
6.2103990713
 31
0.0
  0
LINE
  5
417
330
1F
100
AcDbEntity
  8
0
  6
Continuous
 62
     7
370
    15
100
AcDbLine
 10
6.0088406839
 20
6.6693992022
 30
0.0
 11
6.0088406839
 21
6.6986434827
 31
0.0
  0
LINE
  5
418
330
1F
100
AcDbEntity
  8
0
  6
Continuous
 62
     7
370
    15
100
AcDbLine
 10
6.0040566191
 20
6.8306434887
 30
0.0
 11
6.0040566191
 21
6.8616293275
 31
0.0
  0
LINE
  5
419
330
1F
100
AcDbEntity
  8
0
  6
Continuous
 62
     7
370
    15
100
AcDbLine
 10
6.0274534955
 20
6.8923991185
 30
0.0
 11
6.0274534955
 21
6.6693992022
 31
0.0
  0
LINE
  5
41A
330
1F
100
AcDbEntity
  8
0
  6
Continuous
 62
     7
370
    15
100
AcDbLine
 10
6.0274534955
 20
6.2103990713
 30
0.0
 11
6.0274534955
 21
5.9553991371
 31
0.0
  0
LINE
  5
41B
330
1F
100
AcDbEntity
  8
0
  6
Continuous
 62
     7
370
    15
100
AcDbLine
 10
6.0040566191
 20
5.9553991371
 30
0.0
 11
6.0274534955
 21
5.9553991371
 31
0.0
  0
LINE
  5
41C
330
1F
100
AcDbEntity
  8
0
  6
Continuous
 62
     7
370
    15
100
AcDbLine
 10
6.0040566191
 20
5.9553991371
 30
0.0
 11
6.0040566191
 21
6.0483991027
 31
0.0
  0
LINE
  5
41D
330
1F
100
AcDbEntity
  8
0
  6
Continuous
 62
     7
370
    15
100
AcDbLine
 10
3.118066305
 20
6.6986434827
 30
0.0
 11
3.118066305
 21
6.8306434887
 31
0.0
  0
LINE
  5
41E
330
1F
100
AcDbEntity
  8
0
  6
Continuous
 62
     7
370
    15
100
AcDbLine
 10
3.0460662701
 20
6.6986434827
 30
0.0
 11
3.118066305
 21
6.6986434827
 31
0.0
  0
LINE
  5
41F
330
1F
100
AcDbEntity
  8
0
  6
Continuous
 62
     7
370
    15
100
AcDbLine
 10
3.0460662701
 20
6.8306434887
 30
0.0
 11
3.0460662701
 21
6.6986434827
 31
0.0
  0
LINE
  5
420
330
1F
100
AcDbEntity
  8
0
  6
Continuous
 62
     7
370
    15
100
AcDbLine
 10
3.0508503348
 20
6.8306434887
 30
0.0
 11
3.0460662701
 21
6.8306434887
 31
0.0
  0
LINE
  5
421
330
1F
100
AcDbEntity
  8
0
  6
Continuous
 62
     7
370
    15
100
AcDbLine
 10
3.0508503348
 20
5.9553991371
 30
0.0
 11
4.127669292
 21
5.9553991371
 31
0.0
  0
LINE
  5
422
330
1F
100
AcDbEntity
  8
0
  6
Continuous
 62
     7
370
    15
100
AcDbLine
 10
3.0460662701
 20
6.0483991027
 30
0.0
 11
3.0508503348
 21
6.0483991027
 31
0.0
  0
LINE
  5
423
330
1F
100
AcDbEntity
  8
0
  6
Continuous
 62
     7
370
    15
100
AcDbLine
 10
3.0460662701
 20
6.1803991179
 30
0.0
 11
3.0460662701
 21
6.0483991027
 31
0.0
  0
LINE
  5
424
330
1F
100
AcDbEntity
  8
0
  6
Continuous
 62
     7
370
    15
100
AcDbLine
 10
3.118066305
 20
6.1803991179
 30
0.0
 11
3.0460662701
 21
6.1803991179
 31
0.0
  0
LINE
  5
425
330
1F
100
AcDbEntity
  8
0
  6
Continuous
 62
     7
370
    15
100
AcDbLine
 10
3.118066305
 20
6.0483991027
 30
0.0
 11
3.118066305
 21
6.1803991179
 31
0.0
  0
LINE
  5
426
330
1F
100
AcDbEntity
  8
0
  6
Continuous
 62
     7
370
    15
100
AcDbLine
 10
3.118066305
 20
6.0483991027
 30
0.0
 11
3.2930662167
 21
6.0483991027
 31
0.0
  0
LINE
  5
427
330
1F
100
AcDbEntity
  8
0
  6
Continuous
 62
     7
370
    15
100
AcDbLine
 10
3.2930662167
 20
6.1803991179
 30
0.0
 11
3.2930662167
 21
6.0483991027
 31
0.0
  0
LINE
  5
428
330
1F
100
AcDbEntity
  8
0
  6
Continuous
 62
     7
370
    15
100
AcDbLine
 10
3.4380662483
 20
6.1803991179
 30
0.0
 11
3.2930662167
 21
6.1803991179
 31
0.0
  0
LINE
  5
429
330
1F
100
AcDbEntity
  8
0
  6
Continuous
 62
     7
370
    15
100
AcDbLine
 10
3.4380662483
 20
6.0483991027
 30
0.0
 11
3.4380662483
 21
6.1803991179
 31
0.0
  0
LINE
  5
42A
330
1F
100
AcDbEntity
  8
0
  6
Continuous
 62
     7
370
    15
100
AcDbLine
 10
3.4380662483
 20
6.0483991027
 30
0.0
 11
4.0149534841
 21
6.0483991027
 31
0.0
  0
LINE
  5
42B
330
1F
100
AcDbEntity
  8
0
  6
Continuous
 62
     7
370
    15
100
AcDbLine
 10
4.0149534841
 20
6.0483991027
 30
0.0
 11
4.0149534841
 21
6.1290900639
 31
0.0
  0
LINE
  5
42C
330
1F
100
AcDbEntity
  8
0
  6
Continuous
 62
     7
370
    15
100
AcDbLine
 10
4.0149534841
 20
6.2398991172
 30
0.0
 11
4.0149534841
 21
6.2793991109
 31
0.0
  0
LINE
  5
42D
330
1F
100
AcDbEntity
  8
0
  6
Continuous
 62
     7
370
    15
100
AcDbLine
 10
4.0149534841
 20
6.2793991109
 30
0.0
 11
4.0289534624
 21
6.2793991109
 31
0.0
  0
LINE
  5
42E
330
1F
100
AcDbEntity
  8
0
  6
Continuous
 62
     7
370
    15
100
AcDbLine
 10
4.0289534624
 20
6.2793991109
 30
0.0
 11
4.0289534624
 21
6.5993991275
 31
0.0
  0
LINE
  5
42F
330
1F
100
AcDbEntity
  8
0
  6
Continuous
 62
     7
370
    15
100
AcDbLine
 10
4.0289534624
 20
6.5993991275
 30
0.0
 11
4.0149534841
 21
6.5993991275
 31
0.0
  0
LINE
  5
430
330
1F
100
AcDbEntity
  8
0
  6
Continuous
 62
     7
370
    15
100
AcDbLine
 10
4.0149534841
 20
6.5993991275
 30
0.0
 11
4.0149534841
 21
6.6398991197
 31
0.0
  0
LINE
  5
431
330
1F
100
AcDbEntity
  8
0
  6
Continuous
 62
     7
370
    15
100
AcDbLine
 10
4.0149534841
 20
6.7507081363
 30
0.0
 11
4.0149534841
 21
6.8306434887
 31
0.0
  0
LINE
  5
432
330
1F
100
AcDbEntity
  8
0
  6
Continuous
 62
     7
370
    15
100
AcDbLine
 10
3.2930662167
 20
6.8306434887
 30
0.0
 11
3.2930662167
 21
6.6986434827
 31
0.0
  0
LINE
  5
433
330
1F
100
AcDbEntity
  8
0
  6
Continuous
 62
     7
370
    15
100
AcDbLine
 10
3.2930662167
 20
6.6986434827
 30
0.0
 11
3.4380662483
 21
6.6986434827
 31
0.0
  0
LINE
  5
434
330
1F
100
AcDbEntity
  8
0
  6
Continuous
 62
     7
370
    15
100
AcDbLine
 10
3.4380662483
 20
6.6986434827
 30
0.0
 11
3.4380662483
 21
6.8306434887
 31
0.0
  0
LINE
  5
435
330
1F
100
AcDbEntity
  8
0
  6
Continuous
 62
     7
370
    15
100
AcDbLine
 10
5.6168407056
 20
6.1803991179
 30
0.0
 11
5.6168407056
 21
6.0483991027
 31
0.0
  0
LINE
  5
436
330
1F
100
AcDbEntity
  8
0
  6
Continuous
 62
     7
370
    15
100
AcDbLine
 10
5.7618407372
 20
6.1803991179
 30
0.0
 11
5.6168407056
 21
6.1803991179
 31
0.0
  0
LINE
  5
437
330
1F
100
AcDbEntity
  8
0
  6
Continuous
 62
     7
370
    15
100
AcDbLine
 10
5.7618407372
 20
6.0483991027
 30
0.0
 11
5.7618407372
 21
6.1803991179
 31
0.0
  0
LINE
  5
438
330
1F
100
AcDbEntity
  8
0
  6
Continuous
 62
     7
370
    15
100
AcDbLine
 10
5.7618407372
 20
6.0483991027
 30
0.0
 11
5.936840649
 21
6.0483991027
 31
0.0
  0
LINE
  5
439
330
1F
100
AcDbEntity
  8
0
  6
Continuous
 62
     7
370
    15
100
AcDbLine
 10
5.936840649
 20
6.1803991179
 30
0.0
 11
5.936840649
 21
6.0483991027
 31
0.0
  0
LINE
  5
43A
330
1F
100
AcDbEntity
  8
0
  6
Continuous
 62
     7
370
    15
100
AcDbLine
 10
6.0088406839
 20
6.1803991179
 30
0.0
 11
5.936840649
 21
6.1803991179
 31
0.0
  0
LINE
  5
43B
330
1F
100
AcDbEntity
  8
0
  6
Continuous
 62
     7
370
    15
100
AcDbLine
 10
6.0088406839
 20
6.0483991027
 30
0.0
 11
6.0088406839
 21
6.1803991179
 31
0.0
  0
LINE
  5
43C
330
1F
100
AcDbEntity
  8
0
  6
Continuous
 62
     7
370
    15
100
AcDbLine
 10
6.0040566191
 20
6.0483991027
 30
0.0
 11
6.0088406839
 21
6.0483991027
 31
0.0
  0
LINE
  5
43D
330
1F
100
AcDbEntity
  8
0
  6
Continuous
 62
     7
370
    15
100
AcDbLine
 10
4.927237662
 20
5.9553991371
 30
0.0
 11
6.0040566191
 21
5.9553991371
 31
0.0
  0
LINE
  5
43E
330
1F
100
AcDbEntity
  8
0
  6
Continuous
 62
     7
370
    15
100
AcDbLine
 10
5.0399534699
 20
6.8306434887
 30
0.0
 11
5.0399534699
 21
6.7507081363
 31
0.0
  0
LINE
  5
43F
330
1F
100
AcDbEntity
  8
0
  6
Continuous
 62
     7
370
    15
100
AcDbLine
 10
5.0399534699
 20
6.6398991197
 30
0.0
 11
5.0399534699
 21
6.5993991275
 31
0.0
  0
LINE
  5
440
330
1F
100
AcDbEntity
  8
0
  6
Continuous
 62
     7
370
    15
100
AcDbLine
 10
5.0399534699
 20
6.5993991275
 30
0.0
 11
5.0259534916
 21
6.5993991275
 31
0.0
  0
LINE
  5
441
330
1F
100
AcDbEntity
  8
0
  6
Continuous
 62
     7
370
    15
100
AcDbLine
 10
5.0259534916
 20
6.5993991275
 30
0.0
 11
5.0259534916
 21
6.2793991109
 31
0.0
  0
LINE
  5
442
330
1F
100
AcDbEntity
  8
0
  6
Continuous
 62
     7
370
    15
100
AcDbLine
 10
5.0259534916
 20
6.2793991109
 30
0.0
 11
5.0399534699
 21
6.2793991109
 31
0.0
  0
LINE
  5
443
330
1F
100
AcDbEntity
  8
0
  6
Continuous
 62
     7
370
    15
100
AcDbLine
 10
5.0399534699
 20
6.2793991109
 30
0.0
 11
5.0399534699
 21
6.2398991172
 31
0.0
  0
LINE
  5
444
330
1F
100
AcDbEntity
  8
0
  6
Continuous
 62
     7
370
    15
100
AcDbLine
 10
5.0399534699
 20
6.1290900639
 30
0.0
 11
5.0399534699
 21
6.0483991027
 31
0.0
  0
LINE
  5
445
330
1F
100
AcDbEntity
  8
0
  6
Continuous
 62
     7
370
    15
100
AcDbLine
 10
5.0399534699
 20
6.0483991027
 30
0.0
 11
5.6168407056
 21
6.0483991027
 31
0.0
  0
LINE
  5
446
330
1F
100
AcDbEntity
  8
0
  6
Continuous
 62
     7
370
    15
100
AcDbLine
 10
6.0088406839
 20
6.8306434887
 30
0.0
 11
6.0040566191
 21
6.8306434887
 31
0.0
  0
LINE
  5
447
330
1F
100
AcDbEntity
  8
0
  6
Continuous
 62
     7
370
    15
100
AcDbLine
 10
6.0088406839
 20
6.6986434827
 30
0.0
 11
6.0088406839
 21
6.8306434887
 31
0.0
  0
LINE
  5
448
330
1F
100
AcDbEntity
  8
0
  6
Continuous
 62
     7
370
    15
100
AcDbLine
 10
5.936840649
 20
6.6986434827
 30
0.0
 11
6.0088406839
 21
6.6986434827
 31
0.0
  0
LINE
  5
449
330
1F
100
AcDbEntity
  8
0
  6
Continuous
 62
     7
370
    15
100
AcDbLine
 10
5.936840649
 20
6.8306434887
 30
0.0
 11
5.936840649
 21
6.6986434827
 31
0.0
  0
LINE
  5
44A
330
1F
100
AcDbEntity
  8
0
  6
Continuous
 62
     7
370
    15
100
AcDbLine
 10
5.6168407056
 20
6.6986434827
 30
0.0
 11
5.7618407372
 21
6.6986434827
 31
0.0
  0
LINE
  5
44B
330
1F
100
AcDbEntity
  8
0
  6
Continuous
 62
     7
370
    15
100
AcDbLine
 10
5.6168407056
 20
6.8306434887
 30
0.0
 11
5.6168407056
 21
6.6986434827
 31
0.0
  0
LINE
  5
44C
330
1F
100
AcDbEntity
  8
0
  6
Continuous
 62
     7
370
    15
100
AcDbLine
 10
5.7618407372
 20
6.6986434827
 30
0.0
 11
5.7618407372
 21
6.8306434887
 31
0.0
  0
LINE
  5
44D
330
1F
100
AcDbEntity
  8
0
  6
Continuous
 62
     7
370
    15
100
AcDbLine
 10
5.9735265452
 20
6.9233991197
 30
0.0
 11
5.9964345872
 21
6.9233991197
 31
0.0
  0
ELLIPSE
  5
44E
330
1F
100
AcDbEntity
  8
0
  6
Continuous
 62
     7
370
    15
100
AcDbEllipse
 10
5.9964345811
 20
6.8923991185
 30
0.0
 11
-0.03101889587326401
 21
0.0
 31
0.0
210
0.0
220
0.0
230
1.0
 40
0.999390827
 41
3.141592653589793
 42
4.712388980384761
  0
LINE
  5
44F
330
1F
100
AcDbEntity
  8
0
  6
Continuous
 62
     7
370
    15
100
AcDbLine
 10
3.0584723668
 20
6.9233991197
 30
0.0
 11
3.0813804088
 21
6.9233991197
 31
0.0
  0
ELLIPSE
  5
450
330
1F
100
AcDbEntity
  8
0
  6
Continuous
 62
     7
370
    15
100
AcDbEllipse
 10
3.0584723729
 20
6.8923991185
 30
0.0
 11
0.03101889587326356
 21
0.0
 31
0.0
210
0.0
220
0.0
230
1.0
 40
0.999390827
 41
1.570796326794897
 42
3.141592653589793
  0
ARC
  5
451
330
1F
100
AcDbEntity
  8
0
  6
Continuous
 62
     7
370
    15
100
AcDbCircle
 10
4.527453477
 20
6.7213991185
 30
0.0
 40
0.109
100
AcDbArc
 50
0.0
 51
180.0
  0
LINE
  5
452
330
1F
100
AcDbEntity
  8
0
  6
Continuous
 62
     7
370
    15
100
AcDbLine
 10
4.4184534812
 20
6.7213991215
 30
0.0
 11
4.4184534812
 21
6.1573991169
 31
0.0
  0
ARC
  5
453
330
1F
100
AcDbEntity
  8
0
  6
Continuous
 62
     7
370
    15
100
AcDbCircle
 10
4.527453477
 20
6.1573991185
 30
0.0
 40
0.109
100
AcDbArc
 50
180.0
 51
0.0
  0
LINE
  5
454
330
1F
100
AcDbEntity
  8
0
  6
Continuous
 62
     7
370
    15
100
AcDbLine
 10
4.6364534728
 20
6.1573991169
 30
0.0
 11
4.6364534728
 21
6.7213991215
 31
0.0
  0
LINE
  5
455
330
1F
100
AcDbEntity
  8
0
  6
Continuous
 62
     7
370
    15
100
AcDbLine
 10
4.1328451722
 20
6.9233991197
 30
0.0
 11
4.9220617818
 21
6.9233991197
 31
0.0
  0
DIMENSION
  5
456
330
1F
100
AcDbEntity
  8
DETAIL
 62
     5
100
AcDbDimension
  2
_D_1
 10
6.027453477
 20
5.614082219
 30
0.0
 11
4.527453477
 21
5.614082219
 31
0.0
 70
   160
  1
<>
 71
     2
 42
-1.0
  3
SLDDIMSTYLE1
100
AcDbAlignedDimension
 13
3.027453477
 23
5.8933991185
 33
0.0
 14
6.027453477
 24
5.8933991185
 34
0.0
100
AcDbRotatedDimension
  0
DIMENSION
  5
46B
330
1F
100
AcDbEntity
  8
DETAIL
 62
     5
100
AcDbDimension
  2
_D_2
 10
6.217953477
 20
5.2877361314
 30
0.0
 11
4.527453477
 21
5.2877361314
 31
0.0
 70
   160
  1
<>
 71
     2
 42
-1.0
  3
SLDDIMSTYLE0
100
AcDbAlignedDimension
 13
2.836953477
 23
6.2348991185
 33
0.0
 14
6.217953477
 24
6.2348991185
 34
0.0
 50
0.0
100
AcDbRotatedDimension
  0
DIMENSION
  5
47F
330
1F
100
AcDbEntity
  8
DETAIL
 62
     5
100
AcDbDimension
  2
_D_3
 10
1.8742963684
 20
5.9553991185
 30
0.0
 11
1.8742963684
 21
6.4393991185
 31
0.0
 70
   160
  1
<>
 71
     2
 42
-1.0
  3
SLDDIMSTYLE0
100
AcDbAlignedDimension
 13
3.0584723729
 23
6.9233991185
 33
0.0
 14
3.027453477
 24
5.9553991185
 34
0.0
 50
90.0
100
AcDbRotatedDimension
  0
DIMENSION
  5
493
330
1F
100
AcDbEntity
  8
DETAIL
 62
     5
100
AcDbDimension
  2
_D_4
 10
1.2621496897
 20
5.8623962091
 30
0.0
 11
1.2621488305
 21
6.3928962091
 31
0.0
 70
   160
  1
<>
 71
     2
 42
-1.0
  3
SLDDIMSTYLE0
100
AcDbAlignedDimension
 13
3.0584723729
 23
6.9233991185
 33
0.0
 14
3.0584723729
 24
5.8623991185
 34
0.0
 50
-89.9999071996
100
AcDbRotatedDimension
  0
DIMENSION
  5
4A7
330
1F
100
AcDbEntity
  8
DETAIL
 62
     5
100
AcDbDimension
  2
_D_5
 10
4.527453477
 20
7.1874612261
 30
0.0
 11
5.277453477
 21
7.1874612261
 31
0.0
 70
   160
  1
<>
 71
     2
 42
-1.0
  3
SLDDIMSTYLE1
100
AcDbAlignedDimension
 13
6.027453477
 23
6.8923991185
 33
0.0
 14
4.527453477
 24
6.8903991185
 34
0.0
100
AcDbRotatedDimension
  0
DIMENSION
  5
4BB
330
1F
100
AcDbEntity
  8
DETAIL
 62
     5
100
AcDbDimension
  2
_D_6
 10
2.4432526896
 20
6.7213991185
 30
0.0
 11
2.4432526896
 21
7.1874612261
 31
0.0
 70
   160
  1
<>
 71
     2
 42
-1.0
  3
SLDDIMSTYLE1
100
AcDbAlignedDimension
 13
3.6025859328
 23
6.9233991185
 33
0.0
 14
4.358453477
 24
6.7213991185
 34
0.0
 50
90.0
100
AcDbRotatedDimension
  0
DIMENSION
  5
4D0
330
1F
100
AcDbEntity
  8
DETAIL
 62
     5
100
AcDbDimension
  2
_D_7
 10
2.4432526896
 20
6.1573991185
 30
0.0
 11
2.4432526896
 21
6.4393991185
 31
0.0
 70
   160
  1
<>
 71
     2
 42
-1.0
  3
SLDDIMSTYLE0
100
AcDbAlignedDimension
 13
4.358453477
 23
6.7213991185
 33
0.0
 14
4.527453477
 24
6.1573991185
 34
0.0
 50
90.0
100
AcDbRotatedDimension
  0
DIMENSION
  5
4E4
330
1F
100
AcDbEntity
  8
DETAIL
 62
     5
100
AcDbDimension
  2
_D_8
 10
4.527453477
 20
6.7213991185
 30
0.0
 11
3.803247753
 21
7.4126236898
 31
0.0
 70
   164
  1
<>
 71
     1
 42
-1.0
  3
SLDDIMSTYLE2
100
AcDbRadialDimension
 15
4.472953477
 25
6.8157958875
 35
0.0
 40
0.0
  0
INSERT
  5
4FF
330
1F
100
AcDbEntity
  8
DETAIL
 62
     5
100
AcDbBlockReference
  2
SW_CENTERMARKSYMBOL_0
 10
4.527453477
 20
6.1573991185
 30
0.0
  0
INSERT
  5
50B
330
1F
100
AcDbEntity
  8
DETAIL
 62
     5
100
AcDbBlockReference
  2
SW_CENTERMARKSYMBOL_1
 10
4.527453477
 20
6.7213991185
 30
0.0
  0
ENDSEC
  0
SECTION
  2
OBJECTS
  0
DICTIONARY
  5
C
330
0
100
AcDbDictionary
281
     1
  3
ACAD_GROUP
350
D
  3
ACAD_LAYOUT
350
1A
  3
ACAD_MLINESTYLE
350
17
  3
ACAD_PLOTSETTINGS
350
19
  3
ACAD_PLOTSTYLENAME
350
E
  0
DICTIONARY
  5
D
102
{ACAD_REACTORS
330
C
102
}
330
C
100
AcDbDictionary
281
     1
  0
DICTIONARY
  5
1A
102
{ACAD_REACTORS
330
C
102
}
330
C
100
AcDbDictionary
281
     1
  3
Layout1
350
1E
  3
Layout2
350
26
  3
Model
350
22
  0
DICTIONARY
  5
17
102
{ACAD_REACTORS
330
C
102
}
330
C
100
AcDbDictionary
281
     1
  3
Standard
350
18
  0
DICTIONARY
  5
19
102
{ACAD_REACTORS
330
C
102
}
330
C
100
AcDbDictionary
281
     1
  0
ACDBDICTIONARYWDFLT
  5
E
102
{ACAD_REACTORS
330
C
102
}
330
C
100
AcDbDictionary
281
     1
  3
Normal
350
F
100
AcDbDictionaryWithDefault
340
F
  0
LAYOUT
  5
1E
102
{ACAD_REACTORS
330
1A
102
}
330
1A
100
AcDbPlotSettings
  1

  2
none_device
  4

  6

 40
0.0
 41
0.0
 42
0.0
 43
0.0
 44
0.0
 45
0.0
 46
0.0
 47
0.0
 48
0.0
 49
0.0
140
0.0
141
0.0
142
1.0
143
1.0
 70
   688
 72
     0
 73
     0
 74
     5
  7

 75
    16
147
1.0
148
0.0
149
0.0
100
AcDbLayout
  1
Layout1
 70
     1
 71
     1
 10
0.0
 20
0.0
 11
12.0
 21
9.0
 12
0.0
 22
0.0
 32
0.0
 14
1.0000000000E+20
 24
1.0000000000E+20
 34
1.0000000000E+20
 15
-1.0000000000E+20
 25
-1.0000000000E+20
 35
-1.0000000000E+20
146
0.0
 13
0.0
 23
0.0
 33
0.0
 16
1.0
 26
0.0
 36
0.0
 17
0.0
 27
1.0
 37
0.0
 76
     0
330
1B
  0
LAYOUT
  5
26
102
{ACAD_REACTORS
330
1A
102
}
330
1A
100
AcDbPlotSettings
  1

  2
none_device
  4

  6

 40
0.0
 41
0.0
 42
0.0
 43
0.0
 44
0.0
 45
0.0
 46
0.0
 47
0.0
 48
0.0
 49
0.0
140
0.0
141
0.0
142
1.0
143
1.0
 70
   688
 72
     0
 73
     0
 74
     5
  7

 75
    16
147
1.0
148
0.0
149
0.0
100
AcDbLayout
  1
Layout2
 70
     1
 71
     2
 10
0.0
 20
0.0
 11
0.0
 21
0.0
 12
0.0
 22
0.0
 32
0.0
 14
0.0
 24
0.0
 34
0.0
 15
0.0
 25
0.0
 35
0.0
146
0.0
 13
0.0
 23
0.0
 33
0.0
 16
1.0
 26
0.0
 36
0.0
 17
0.0
 27
1.0
 37
0.0
 76
     0
330
23
  0
LAYOUT
  5
22
102
{ACAD_REACTORS
330
1A
102
}
330
1A
100
AcDbPlotSettings
  1

  2
none_device
  4

  6

 40
0.0
 41
0.0
 42
0.0
 43
0.0
 44
0.0
 45
0.0
 46
0.0
 47
0.0
 48
0.0
 49
0.0
140
0.0
141
0.0
142
1.0
143
1.0
 70
  1712
 72
     0
 73
     0
 74
     0
  7

 75
     0
147
1.0
148
0.0
149
0.0
100
AcDbLayout
  1
Model
 70
     1
 71
     0
 10
0.0
 20
0.0
 11
11.0
 21
8.5
 12
0.0
 22
0.0
 32
0.0
 14
0.0
 24
0.0
 34
0.0
 15
11.0
 25
8.5
 35
0.0
146
0.0
 13
0.0
 23
0.0
 33
0.0
 16
1.0
 26
0.0
 36
0.0
 17
0.0
 27
1.0
 37
0.0
 76
     0
330
1F
331
29
  0
MLINESTYLE
  5
18
102
{ACAD_REACTORS
330
17
102
}
330
17
100
AcDbMlineStyle
  2
Standard
 70
     0
  3

 62
   256
 51
90.0
 52
90.0
 71
     2
 49
0.5
 62
   256
  6
BYLAYER
 49
-0.5
 62
   256
  6
BYLAYER
  0
ACDBPLACEHOLDER
  5
F
102
{ACAD_REACTORS
330
E
102
}
330
E
  0
ENDSEC
  0
EOF
